  0
SECTION
  2
HEADER
  9
$ACADVER
  1
AC1015
  9
$ACADMAINTVER
 70
    20
  9
$DWGCODEPAGE
  3
ANSI_1252
  9
$INSBASE
 10
0.0
 20
0.0
 30
0.0
  9
$EXTMIN
 10
172.5219753018136
 20
111.3990809435477
 30
-0.0015258207003583
  9
$EXTMAX
 10
552.1568316991402
 20
638.4338398562204
 30
0.0000000349246037
  9
$LIMMIN
 10
0.0
 20
0.0
  9
$LIMMAX
 10
1050.0
 20
1050.0
  9
$ORTHOMODE
 70
     0
  9
$REGENMODE
 70
     1
  9
$FILLMODE
 70
     1
  9
$QTEXTMODE
 70
     0
  9
$MIRRTEXT
 70
     0
  9
$LTSCALE
 40
5.0
  9
$ATTMODE
 70
     1
  9
$TEXTSIZE
 40
17.5
  9
$TRACEWID
 40
0.05
  9
$TEXTSTYLE
  7
STANDARD
  9
$CLAYER
  8
0
  9
$CELTYPE
  6
BYLAYER
  9
$CECOLOR
 62
   256
  9
$CELTSCALE
 40
1.0
  9
$DISPSILH
 70
     0
  9
$DIMSCALE
 40
5.0
  9
$DIMASZ
 40
2.5
  9
$DIMEXO
 40
1.0
  9
$DIMDLI
 40
7.0
  9
$DIMRND
 40
0.0
  9
$DIMDLE
 40
0.0
  9
$DIMEXE
 40
1.0
  9
$DIMTP
 40
0.1
  9
$DIMTM
 40
0.1
  9
$DIMTXT
 40
3.5
  9
$DIMCEN
 40
0.0
  9
$DIMTSZ
 40
0.0
  9
$DIMTOL
 70
     0
  9
$DIMLIM
 70
     0
  9
$DIMTIH
 70
     0
  9
$DIMTOH
 70
     0
  9
$DIMSE1
 70
     0
  9
$DIMSE2
 70
     0
  9
$DIMTAD
 70
     1
  9
$DIMZIN
 70
    12
  9
$DIMBLK
  1

  9
$DIMASO
 70
     1
  9
$DIMSHO
 70
     1
  9
$DIMPOST
  1

  9
$DIMAPOST
  1
"
  9
$DIMALT
 70
     0
  9
$DIMALTD
 70
     2
  9
$DIMALTF
 40
0.03937
  9
$DIMLFAC
 40
1.0
  9
$DIMTOFL
 70
     1
  9
$DIMTVP
 40
0.0
  9
$DIMTIX
 70
     0
  9
$DIMSOXD
 70
     0
  9
$DIMSAH
 70
     0
  9
$DIMBLK1
  1

  9
$DIMBLK2
  1

  9
$DIMSTYLE
  2
GEN-ISO
  9
$DIMCLRD
 70
   256
  9
$DIMCLRE
 70
   256
  9
$DIMCLRT
 70
     2
  9
$DIMTFAC
 40
0.71
  9
$DIMGAP
 40
0.6
  9
$DIMJUST
 70
     0
  9
$DIMSD1
 70
     0
  9
$DIMSD2
 70
     0
  9
$DIMTOLJ
 70
     0
  9
$DIMTZIN
 70
     0
  9
$DIMALTZ
 70
     0
  9
$DIMALTTZ
 70
     0
  9
$DIMUPT
 70
     0
  9
$DIMDEC
 70
     2
  9
$DIMTDEC
 70
     3
  9
$DIMALTU
 70
     2
  9
$DIMALTTD
 70
     4
  9
$DIMTXSTY
  7
STANDARD
  9
$DIMAUNIT
 70
     0
  9
$DIMADEC
 70
     0
  9
$DIMALTRND
 40
0.0
  9
$DIMAZIN
 70
     0
  9
$DIMDSEP
 70
    46
  9
$DIMATFIT
 70
     3
  9
$DIMFRAC
 70
     0
  9
$DIMLDRBLK
  1

  9
$DIMLUNIT
 70
     2
  9
$DIMLWD
 70
    -2
  9
$DIMLWE
 70
    -2
  9
$DIMTMOVE
 70
     0
  9
$LUNITS
 70
     2
  9
$LUPREC
 70
     2
  9
$SKETCHINC
 40
0.1
  9
$FILLETRAD
 40
0.000005
  9
$AUNITS
 70
     0
  9
$AUPREC
 70
     2
  9
$MENU
  1
.
  9
$ELEVATION
 40
0.0
  9
$PELEVATION
 40
0.0
  9
$THICKNESS
 40
0.0
  9
$LIMCHECK
 70
     0
  9
$CHAMFERA
 40
12.5
  9
$CHAMFERB
 40
12.5
  9
$CHAMFERC
 40
0.0
  9
$CHAMFERD
 40
0.0
  9
$SKPOLY
 70
     0
  9
$TDCREATE
 40
2451421.373453611
  9
$TDUCREATE
 40
2451421.331786944
  9
$TDUPDATE
 40
2454088.834137060
  9
$TDUUPDATE
 40
2454088.792470394
  9
$TDINDWG
 40
0.0831615856
  9
$TDUSRTIMER
 40
0.0831613542
  9
$USRTIMER
 70
     1
  9
$ANGBASE
 50
0.0
  9
$ANGDIR
 70
     0
  9
$PDMODE
 70
     0
  9
$PDSIZE
 40
0.0
  9
$PLINEWID
 40
0.0
  9
$SPLFRAME
 70
     0
  9
$SPLINETYPE
 70
     6
  9
$SPLINESEGS
 70
     8
  9
$HANDSEED
  5
1A7A
  9
$SURFTAB1
 70
     6
  9
$SURFTAB2
 70
     6
  9
$SURFTYPE
 70
     6
  9
$SURFU
 70
     6
  9
$SURFV
 70
     6
  9
$UCSBASE
  2

  9
$UCSNAME
  2

  9
$UCSORG
 10
0.0
 20
0.0
 30
0.0
  9
$UCSXDIR
 10
1.0
 20
0.0
 30
0.0
  9
$UCSYDIR
 10
0.0
 20
1.0
 30
0.0
  9
$UCSORTHOREF
  2

  9
$UCSORTHOVIEW
 70
     0
  9
$UCSORGTOP
 10
0.0
 20
0.0
 30
0.0
  9
$UCSORGBOTTOM
 10
0.0
 20
0.0
 30
0.0
  9
$UCSORGLEFT
 10
0.0
 20
0.0
 30
0.0
  9
$UCSORGRIGHT
 10
0.0
 20
0.0
 30
0.0
  9
$UCSORGFRONT
 10
0.0
 20
0.0
 30
0.0
  9
$UCSORGBACK
 10
0.0
 20
0.0
 30
0.0
  9
$PUCSBASE
  2

  9
$PUCSNAME
  2

  9
$PUCSORG
 10
0.0
 20
0.0
 30
0.0
  9
$PUCSXDIR
 10
1.0
 20
0.0
 30
0.0
  9
$PUCSYDIR
 10
0.0
 20
1.0
 30
0.0
  9
$PUCSORTHOREF
  2

  9
$PUCSORTHOVIEW
 70
     0
  9
$PUCSORGTOP
 10
0.0
 20
0.0
 30
0.0
  9
$PUCSORGBOTTOM
 10
0.0
 20
0.0
 30
0.0
  9
$PUCSORGLEFT
 10
0.0
 20
0.0
 30
0.0
  9
$PUCSORGRIGHT
 10
0.0
 20
0.0
 30
0.0
  9
$PUCSORGFRONT
 10
0.0
 20
0.0
 30
0.0
  9
$PUCSORGBACK
 10
0.0
 20
0.0
 30
0.0
  9
$USERI1
 70
     0
  9
$USERI2
 70
     0
  9
$USERI3
 70
     0
  9
$USERI4
 70
     0
  9
$USERI5
 70
     0
  9
$USERR1
 40
0.0
  9
$USERR2
 40
0.0
  9
$USERR3
 40
0.0
  9
$USERR4
 40
0.0
  9
$USERR5
 40
0.0
  9
$WORLDVIEW
 70
     1
  9
$SHADEDGE
 70
     3
  9
$SHADEDIF
 70
    70
  9
$TILEMODE
 70
     1
  9
$MAXACTVP
 70
    48
  9
$PINSBASE
 10
0.0
 20
0.0
 30
0.0
  9
$PLIMCHECK
 70
     0
  9
$PEXTMIN
 10
0.0
 20
0.0
 30
0.0
  9
$PEXTMAX
 10
209.9
 20
296.9
 30
0.0
  9
$PLIMMIN
 10
0.0
 20
0.0
  9
$PLIMMAX
 10
209.9
 20
296.9
  9
$UNITMODE
 70
     0
  9
$VISRETAIN
 70
     1
  9
$PLINEGEN
 70
     1
  9
$PSLTSCALE
 70
     1
  9
$TREEDEPTH
 70
 -3020
  9
$CMLSTYLE
  2
STANDARD
  9
$CMLJUST
 70
     0
  9
$CMLSCALE
 40
1.0
  9
$PROXYGRAPHICS
 70
     1
  9
$MEASUREMENT
 70
     1
  9
$CELWEIGHT
370
    -1
  9
$ENDCAPS
280
     0
  9
$JOINSTYLE
280
     0
  9
$LWDISPLAY
290
     0
  9
$INSUNITS
 70
     0
  9
$HYPERLINKBASE
  1

  9
$STYLESHEET
  1

  9
$XEDIT
290
     1
  9
$CEPSNTYPE
380
     0
  9
$PSTYLEMODE
290
     1
  9
$FINGERPRINTGUID
  2
{D989195D-116C-4719-9B2E-DDB71E8C0DB9}
  9
$VERSIONGUID
  2
{599FF117-E67C-42FA-B85F-5A910500B47E}
  9
$EXTNAMES
290
     1
  9
$PSVPSCALE
 40
0.0
  9
$OLESTARTUP
290
     0
  0
ENDSEC
  0
SECTION
  2
CLASSES
  0
CLASS
  1
ACDBDICTIONARYWDFLT
  2
AcDbDictionaryWithDefault
  3
ObjectDBX Classes
 90
        0
280
     0
281
     0
  0
CLASS
  1
TABLESTYLE
  2
AcDbTableStyle
  3
ObjectDBX Classes
 90
     2047
280
     0
281
     0
  0
CLASS
  1
AMGSETTINGSOBJ
  2
AmgSettingsObj
  3
"AcadM|Product Description: AutoCAD Mechanical 2000|Company: Autodesk"
 90
        0
280
     0
281
     0
  0
CLASS
  1
ACME_DOCUMENT
  2
AcMeDbDoc
  3
AcMeServices
 90
        0
280
     0
281
     0
  0
CLASS
  1
ACMESCOPE
  2
AcMeScope
  3
AcMeServices
 90
        0
280
     0
281
     0
  0
CLASS
  1
ACMECOMMANDHISTORY
  2
AcMeCommandHistory
  3
AcMeServices
 90
        0
280
     0
281
     0
  0
CLASS
  1
ACIMSYSVARMAN
  2
AcImSysVarManager
  3
AcMeServices
 90
        0
280
     0
281
     0
  0
CLASS
  1
ACIMINTSYSVAR
  2
AcImIntSysVar
  3
AcMeServices
 90
        0
280
     0
281
     0
  0
CLASS
  1
ACMEDRAWINGMAN
  2
AcMeDrawingMan
  3
AcMeServices
 90
        0
280
     0
281
     0
  0
CLASS
  1
ACMEVIEW
  2
AcMeView
  3
AcMeServices
 90
        0
280
     0
281
     0
  0
CLASS
  1
ACDBENTITYCACHE
  2
AcMeEntityCache
  3
AcMeServices
 90
        0
280
     0
281
     0
  0
CLASS
  1
GSMANAGER
  2
AcMeGSManager
  3
AcMeServices
 90
        0
280
     0
281
     0
  0
CLASS
  1
AMDTINTERNALREACTOR
  2
AmdtInternalReactor
  3
AcMeServices
 90
        0
280
     0
281
     0
  0
CLASS
  1
ACMESTATEMGR
  2
AcMeStateMgr
  3
AcMeServices
 90
        0
280
     0
281
     0
  0
CLASS
  1
ACGREFMASTER
  2
AcGrefMaster
  3
AcAttribServices
 90
        0
280
     0
281
     0
  0
CLASS
  1
AM_DRAWING_MGR
  2
AcDmDwgMgr
  3
AcMechDwgViewMgmt
 90
        0
280
     0
281
     0
  0
CLASS
  1
AM_DWG_DOCUMENT
  2
AcDmDwgDocument
  3
AcMechDwgViewMgmt
 90
        0
280
     0
281
     0
  0
CLASS
  1
AM_DWG_SHEET
  2
AcDmSheet
  3
AcMechDwgViewMgmt
 90
        0
280
     0
281
     0
  0
CLASS
  1
AM_VIEWDIMPARMAP
  2
AcDmViewDimParMap
  3
AcMechDwgViewMgmt
 90
        0
280
     0
281
     0
  0
CLASS
  1
ACIMREALSYSVAR
  2
AcImRealSysVar
  3
AcMeServices
 90
        0
280
     0
281
     0
  0
CLASS
  1
AM_DWGMGR_NAME
  2
AcDmDwgMgrName
  3
AcMechDwgViewMgmt
 90
        0
280
     0
281
     0
  0
CLASS
  1
ACME_DATABASE
  2
AcMeDbDatabase
  3
AcMeServices
 90
        0
280
     0
281
     0
  0
CLASS
  1
ACRFINSADJUSTERMGR
  2
AcRfInsAdjusterMgr
  3
AcMeServices
 90
        0
280
     0
281
     0
  0
CLASS
  1
ACGREFACADMASTER
  2
AcGrefacadMaster
  3
AcGrefServices
 90
        0
280
     0
281
     0
  0
CLASS
  1
AMDTMENUSTATEMGR
  2
AmdtMenuStateMgr
  3
McadcomServices
 90
        0
280
     0
281
     0
  0
CLASS
  1
AMDTMCOMMENUSTATE
  2
AmdtMcomMenuState
  3
McadcomServices
 90
        0
280
     0
281
     0
  0
CLASS
  1
AMIMASTER
  2
AmiMaster
  3
AmiServices
 90
        0
280
     0
281
     0
  0
CLASS
  1
MAPIAMMOUDLE
  2
MApiAmModule
  3
MApiAmServices
 90
        0
280
     0
281
     0
  0
CLASS
  1
ACIMSTRSYSVAR
  2
AcImStrSysVar
  3
AcMeServices
 90
        0
280
     0
281
     0
  0
CLASS
  1
AMDTADMENUSTATE
  2
AmdtAdMenuState
  3
DesignerServices
 90
        0
280
     0
281
     0
  0
CLASS
  1
ADAPPL
  2
AcAdAppl
  3
DesignerServices
 90
        0
280
     0
281
     0
  0
CLASS
  1
DEPMGR
  2
AcAdDepMgr
  3
DesignerServices
 90
        0
280
     0
281
     0
  0
CLASS
  1
PARAMMGR
  2
AcAdParamMgr
  3
DesignerServices
 90
        0
280
     0
281
     0
  0
CLASS
  1
PARAMSCOPE
  2
AcAdParamScope
  3
DesignerServices
 90
        0
280
     0
281
     0
  0
CLASS
  1
NAMEDAPPL
  2
AcAdNamedAppl
  3
DesignerServices
 90
        0
280
     0
281
     0
  0
CLASS
  1
AMDTDMMENUSTATE
  2
AmdtDmMenuState
  3
AcMechDwgViewMgmt
 90
        0
280
     0
281
     0
  0
CLASS
  1
AMDTAMMENUSTATE
  2
AmdtAmMenuState
  3
DesignerAssemblies
 90
        0
280
     0
281
     0
  0
CLASS
  1
ACAMPROJECT
  2
AcAmProject
  3
DesignerAssemblies
 90
        0
280
     0
281
     0
  0
CLASS
  1
ACAMGRCOMPDEF
  2
AcAmGrCompDef
  3
DesignerAssemblies
 90
        0
280
     0
281
     0
  0
CLASS
  1
ACCMCONTEXT
  2
AcCmContext
  3
DesignerAssemblies
 90
        0
280
     0
281
     0
  0
CLASS
  1
ACAMCOMPDEF
  2
AcAmCompDef
  3
DesignerAssemblies
 90
        0
280
     0
281
     0
  0
CLASS
  1
ACAMCOMPDEFMGR
  2
AcAmCompDefMgr
  3
DesignerAssemblies
 90
        0
280
     0
281
     0
  0
CLASS
  1
AMCONTEXTMGR
  2
AcAmContextMgr
  3
DesignerAssemblies
 90
        0
280
     0
281
     0
  0
CLASS
  1
ACAMCONTEXTMODELER
  2
AcAmContextModeler
  3
DesignerAssemblies
 90
        0
280
     0
281
     0
  0
CLASS
  1
ACMDATADICTIONARY
  2
AcmDataDictionary
  3
"AcmSymBB|Product Description: AutoCAD Mechanical 2004 DX|Company: Autodesk"
 90
        0
280
     0
281
     0
  0
CLASS
  1
CATALOGSTATE
  2
AcAmCatalogState
  3
DesignerAssemblies
 90
        0
280
     0
281
     0
  0
CLASS
  1
ACAMGRCOMPDEFSET
  2
AcAmGrCompDefSet
  3
DesignerAssemblies
 90
        0
280
     0
281
     0
  0
CLASS
  1
AMDTBROWSERDBTAB
  2
AmdtBrowserDbTab
  3
McadcomServices
 90
        0
280
     0
281
     0
  0
CLASS
  1
CBROWSERAPPOBJECT
  2
CBrowserAppObject
  3
McadcomServices
 90
        0
280
     0
281
     0
  0
CLASS
  1
DM_PLACEHOLDER
  2
AcDmSelsetPlaceholder
  3
AcMechDwgViewMgmt
 90
        0
280
     0
281
     0
  0
CLASS
  1
ACMSTANDARDDIN
  2
AcmStandardDIN
  3
"Amdt_StdImp|Product Description: AutoCAD Mechanical 2004 DX|Company: Autodesk"
 90
        0
280
     0
281
     0
  0
CLASS
  1
AMGOBJPROPCFG
  2
AmgObjPropCfg
  3
"AmgLay|Product Description: AutoCAD Mechanical 2000|Company: Autodesk"
 90
        1
280
     0
281
     0
  0
CLASS
  1
AMDTEDGESTANDARDDIN13715
  2
AmdtEdgeStdDIN13715
  3
"Amdt_StdImp|Product Description: AutoCAD Mechanical 2004 DX|Company: Autodesk"
 90
        0
280
     0
281
     0
  0
CLASS
  1
ACMSURFSTANDARDDIN
  2
AcmSurfTextStdDIN
  3
"Amdt_StdImp|Product Description: AutoCAD Mechanical 2004 DX|Company: Autodesk"
 90
        0
280
     0
281
     0
  0
CLASS
  1
ACMFCFSTANDARDDIN
  2
AcmFCFStdDIN
  3
"Amdt_StdImp|Product Description: AutoCAD Mechanical 2004 DX|Company: Autodesk"
 90
        0
280
     0
281
     0
  0
CLASS
  1
ACMWELDSTANDARDDIN
  2
AcmWeldingStdDIN
  3
"Amdt_StdImp|Product Description: AutoCAD Mechanical 2004 DX|Company: Autodesk"
 90
        0
280
     0
281
     0
  0
CLASS
  1
ACMIDSTANDARDDIN
  2
AcmIdStdDIN
  3
"Amdt_StdImp|Product Description: AutoCAD Mechanical 2004 DX|Company: Autodesk"
 90
        0
280
     0
281
     0
  0
CLASS
  1
ACMDATUMSTANDARDDIN
  2
AcmDatumStdDIN
  3
"Amdt_StdImp|Product Description: AutoCAD Mechanical 2004 DX|Company: Autodesk"
 90
        0
280
     0
281
     0
  0
CLASS
  1
ACMBOMSTANDARDDIN
  2
AcmBOMStdDIN
  3
"Amdt_StdImp|Product Description: AutoCAD Mechanical 2004 DX|Company: Autodesk"
 90
        0
280
     0
281
     0
  0
CLASS
  1
ACMDETAILSTANDARDDIN
  2
AmdtDetailSymStdDIN
  3
"Amdt_StdImp|Product Description: AutoCAD Mechanical 2004 DX|Company: Autodesk"
 90
        0
280
     0
281
     0
  0
CLASS
  1
ACMSECTIONSTANDARDDIN
  2
AmdtSectionSymStdDIN
  3
"Amdt_StdImp|Product Description: AutoCAD Mechanical 2004 DX|Company: Autodesk"
 90
        0
280
     0
281
     0
  0
CLASS
  1
ACMCENTERLINESTANDARDDIN
  2
AmdtCenterLineStdDIN
  3
"Amdt_StdImp|Product Description: AutoCAD Mechanical 2004 DX|Company: Autodesk"
 90
        0
280
     0
281
     0
  0
CLASS
  1
ACMTHREADLINESTANDARDDIN
  2
AmdtThreadLineStdDIN
  3
"Amdt_StdImp|Product Description: AutoCAD Mechanical 2004 DX|Company: Autodesk"
 90
        0
280
     0
281
     0
  0
CLASS
  1
ACMNOTESTANDARDDIN
  2
AmdtNoteStdDIN
  3
"Amdt_StdImp|Product Description: AutoCAD Mechanical 2004 DX|Company: Autodesk"
 90
        0
280
     0
281
     0
  0
CLASS
  1
AMDTNOTETEMPLATEDB
  2
AmdtNoteTemplateDB
  3
AMDT_STDIMP_MODULE_NAME
 90
        0
280
     0
281
     0
  0
CLASS
  1
ACAMGLAYSTD
  2
AcAmgLayStd
  3
"AcAmgLayStd|Product Description: AutoCAD Mechanical 2000|Company: Autodesk"
 90
        0
280
     0
281
     0
  0
CLASS
  1
ACAMGDIMSTD
  2
AcAmgDimStd
  3
"AcAmgDimStd|Product Description: AutoCAD Mechanical 2000|Company: Autodesk"
 90
        0
280
     0
281
     0
  0
CLASS
  1
ACAMGHOLECHARTSTDDIN
  2
AcAmgHoleChartStdDIN
  3
ACMSYMBB_MODULE_NAME
 90
        0
280
     0
281
     0
  0
CLASS
  1
ACAMGTITLESTD
  2
AcAmgTitleStd
  3
"TITLEAPP"
 90
        0
280
     0
281
     0
  0
CLASS
  1
ACAMGFILTERDAT
  2
AcAmgFilterDat
  3
"AcadM|Product Description: AutoCAD Mechanical 2000|Company: Autodesk"
 90
        0
280
     0
281
     0
  0
CLASS
  1
DICTIONARYVAR
  2
AcDbDictionaryVar
  3
ObjectDBX Classes
 90
        0
280
     0
281
     0
  0
CLASS
  1
ACDBPLACEHOLDER
  2
AcDbPlaceHolder
  3
ObjectDBX Classes
 90
        0
280
     0
281
     0
  0
CLASS
  1
LAYOUT
  2
AcDbLayout
  3
ObjectDBX Classes
 90
        0
280
     0
281
     0
  0
ENDSEC
  0
SECTION
  2
TABLES
  0
TABLE
  2
VPORT
  5
15E6
330
0
100
AcDbSymbolTable
 70
    16
  0
VPORT
  5
1A74
330
15E6
100
AcDbSymbolTableRecord
100
AcDbViewportTableRecord
  2
*Active
 70
     0
 10
0.0
 20
0.0
 11
1.0
 21
1.0
 12
362.3394035004769
 22
374.9164603998841
 13
0.0
 23
0.0
 14
5.0
 24
5.0
 15
50.0
 25
50.0
 16
0.0
 26
0.0
 36
1.0
 17
0.0
 27
0.0
 37
0.0
 40
530.8630985657914
 41
1.494545454545454
 42
50.0
 43
0.0
 44
0.0
 50
0.0
 51
0.0
 71
     0
 72
  1000
 73
     1
 74
     1
 75
     0
 76
     0
 77
     0
 78
     0
281
     0
 65
     0
110
0.0
120
0.0
130
0.0
111
1.0
121
0.0
131
0.0
112
0.0
122
1.0
132
0.0
 79
     0
146
0.0
  0
ENDTAB
  0
TABLE
  2
LTYPE
  5
15E3
330
0
100
AcDbSymbolTable
 70
    20
  0
LTYPE
  5
15F0
330
15E3
100
AcDbSymbolTableRecord
100
AcDbLinetypeTableRecord
  2
BYBLOCK
 70
     0
  3

 72
    65
 73
     0
 40
0.0
  0
LTYPE
  5
15F1
330
15E3
100
AcDbSymbolTableRecord
100
AcDbLinetypeTableRecord
  2
BYLAYER
 70
     0
  3

 72
    65
 73
     0
 40
0.0
  0
LTYPE
  5
15F2
330
15E3
100
AcDbSymbolTableRecord
100
AcDbLinetypeTableRecord
  2
CONTINUOUS
 70
     0
  3
Solid line
 72
    65
 73
     0
 40
0.0
  0
LTYPE
  5
193E
330
15E3
100
AcDbSymbolTableRecord
100
AcDbLinetypeTableRecord
  2
GEN3A
 70
     0
  3
 - - - - -
 72
    65
 73
     2
 40
3.125
 49
2.25
 74
     0
 49
-0.875
 74
     0
  0
LTYPE
  5
19AB
330
15E3
100
AcDbSymbolTableRecord
100
AcDbLinetypeTableRecord
  2
HIDDEN
 70
     0
  3
Verdeckt
 72
    65
 73
     2
 40
9.525
 49
6.349999999999999
 74
     0
 49
-3.174999999999999
 74
     0
  0
LTYPE
  5
19AC
330
15E3
100
AcDbSymbolTableRecord
100
AcDbLinetypeTableRecord
  2
PHANTOM2
 70
     0
  3
Phantom (.5x) ___ _ _ ___ _ _ ___ _ _ ___ _ _
 72
    65
 73
     6
 40
31.75
 49
15.875
 74
     0
 49
-3.174999999999999
 74
     0
 49
3.174999999999999
 74
     0
 49
-3.174999999999999
 74
     0
 49
3.174999999999999
 74
     0
 49
-3.174999999999999
 74
     0
  0
LTYPE
  5
19AD
330
15E3
100
AcDbSymbolTableRecord
100
AcDbLinetypeTableRecord
  2
CENTER
 70
     0
  3
Mitte ____ _ ____ _ ____ _ ____ _ ____ _ ____
 72
    65
 73
     4
 40
50.8
 49
31.75
 74
     0
 49
-6.349999999999999
 74
     0
 49
6.349999999999999
 74
     0
 49
-6.349999999999999
 74
     0
  0
LTYPE
  5
19E1
330
15E3
100
AcDbSymbolTableRecord
100
AcDbLinetypeTableRecord
  2
AM_ISO02W050
 70
     0
  3
__ __ __ __ __ __ __ __ __ __ __ __ __ __ __
 72
    65
 73
     2
 40
7.5
 49
6.0
 74
     0
 49
-1.5
 74
     0
  0
LTYPE
  5
19E2
330
15E3
100
AcDbSymbolTableRecord
100
AcDbLinetypeTableRecord
  2
AM_ISO08W050
 70
     0
  3
____ . ____ . ____ . ____ . ____ . ____ . ____
 72
    65
 73
     4
 40
18.0
 49
12.0
 74
     0
 49
-1.5
 74
     0
 49
3.0
 74
     0
 49
-1.5
 74
     0
  0
LTYPE
  5
19E3
330
15E3
100
AcDbSymbolTableRecord
100
AcDbLinetypeTableRecord
  2
AM_ISO09W050
 70
     0
  3
_____ . . _____ . . _____ . . ____ .. ____
 72
    65
 73
     6
 40
22.5
 49
12.0
 74
     0
 49
-1.5
 74
     0
 49
3.0
 74
     0
 49
-1.5
 74
     0
 49
3.0
 74
     0
 49
-1.5
 74
     0
  0
LTYPE
  5
19E4
330
15E3
100
AcDbSymbolTableRecord
100
AcDbLinetypeTableRecord
  2
Amconstr
 70
     0
  3
_______________________
 72
    65
 73
     2
 40
9999.0
 49
9999.0
 74
     0
 49
0.0
 74
     0
  0
LTYPE
  5
19E5
330
15E3
100
AcDbSymbolTableRecord
100
AcDbLinetypeTableRecord
  2
AM_ISO08W050x2
 70
     0
  3
__ . __ . __ . __ . __ . __
 72
    65
 73
     4
 40
9.0
 49
6.0
 74
     0
 49
-0.75
 74
     0
 49
1.5
 74
     0
 49
-0.75
 74
     0
  0
LTYPE
  5
19E6
330
15E3
100
AcDbSymbolTableRecord
100
AcDbLinetypeTableRecord
  2
AM_ISO02W050x2
 70
     0
  3
 _ _ _ _ _ _ _ _ _ _ _ _
 72
    65
 73
     2
 40
3.75
 49
3.0
 74
     0
 49
-0.75
 74
     0
  0
LTYPE
  5
19E9
330
15E3
100
AcDbSymbolTableRecord
100
AcDbLinetypeTableRecord
  2
Amzigzag
 70
     0
  3
/\/-/\/-/\/-/\/-/\/-/\/
 72
    65
 73
     2
 40
11.0001
 49
0.0001
 74
     4
 75
   136
340
19E8
 46
0.04
 50
0.0
 44
0.0
 45
0.0
 49
-11.0
 74
     0
  0
LTYPE
  5
19EA
330
15E3
100
AcDbSymbolTableRecord
100
AcDbLinetypeTableRecord
  2
AM_DIN_F_W050
 70
     0
  3
__ __ __ __ __ __ __ __ __ __ __ __ __ __ __
 72
    65
 73
     2
 40
6.25
 49
4.75
 74
     0
 49
-1.5
 74
     0
  0
LTYPE
  5
19EB
330
15E3
100
AcDbSymbolTableRecord
100
AcDbLinetypeTableRecord
  2
AM_DIN_G_W050
 70
     0
  3
____ . ____ . ____ . ____ . ____ . ____ . ____
 72
    65
 73
     4
 40
13.75
 49
9.75
 74
     0
 49
-1.5
 74
     0
 49
1.0
 74
     0
 49
-1.5
 74
     0
  0
LTYPE
  5
19EC
330
15E3
100
AcDbSymbolTableRecord
100
AcDbLinetypeTableRecord
  2
AM_DIN_K_W050
 70
     0
  3
_____ . . _____ . . _____ . . ____ .. ____
 72
    65
 73
     6
 40
16.25
 49
9.75
 74
     0
 49
-1.5
 74
     0
 49
1.0
 74
     0
 49
-1.5
 74
     0
 49
1.0
 74
     0
 49
-1.5
 74
     0
  0
LTYPE
  5
19ED
330
15E3
100
AcDbSymbolTableRecord
100
AcDbLinetypeTableRecord
  2
AM_DIN_G_W050x2
 70
     0
  3
__ . __ . __ . __ . __ . __
 72
    65
 73
     4
 40
6.875
 49
4.75
 74
     0
 49
-0.875
 74
     0
 49
0.375
 74
     0
 49
-0.875
 74
     0
  0
LTYPE
  5
19EE
330
15E3
100
AcDbSymbolTableRecord
100
AcDbLinetypeTableRecord
  2
AM_DIN_F_W050x2
 70
     0
  3
 _ _ _ _ _ _ _ _ _ _ _ _
 72
    65
 73
     2
 40
3.125
 49
2.25
 74
     0
 49
-0.875
 74
     0
  0
LTYPE
  5
19FD
330
15E3
100
AcDbSymbolTableRecord
100
AcDbLinetypeTableRecord
  2
ACDINWELD
 70
     0
  3
_ _ _ _ _
 72
    65
 73
     2
 40
2.0
 49
2.0
 74
     0
 49
-1.0
 74
     0
  0
LTYPE
  5
19FE
330
15E3
100
AcDbSymbolTableRecord
100
AcDbLinetypeTableRecord
  2
ACDINTGB
 70
     0
  3
__ . . __ . .
 72
    65
 73
     6
 40
9.0
 49
4.0
 74
     0
 49
-1.0
 74
     0
 49
1.0
 74
     0
 49
-1.0
 74
     0
 49
1.0
 74
     0
 49
-1.0
 74
     0
  0
LTYPE
  5
19FF
330
15E3
100
AcDbSymbolTableRecord
100
AcDbLinetypeTableRecord
  2
ACDINTGL
 70
     0
  3
_ _ _ _ _
 72
    65
 73
     2
 40
3.0
 49
2.0
 74
     0
 49
-1.0
 74
     0
  0
ENDTAB
  0
TABLE
  2
LAYER
  5
15E0
330
0
100
AcDbSymbolTable
 70
    12
  0
LAYER
  5
15EC
330
15E0
100
AcDbSymbolTableRecord
100
AcDbLayerTableRecord
  2
0
 70
     0
 62
     7
  6
CONTINUOUS
370
    -3
390
196F
  0
LAYER
  5
1606
330
15E0
100
AcDbSymbolTableRecord
100
AcDbLayerTableRecord
  2
3A
 70
     0
 62
     6
  6
GEN3A
370
    -3
390
196F
  0
LAYER
  5
1607
330
15E0
100
AcDbSymbolTableRecord
100
AcDbLayerTableRecord
  2
4
 70
     0
 62
     3
  6
CONTINUOUS
370
    -3
390
196F
  0
LAYER
  5
1609
330
15E0
100
AcDbSymbolTableRecord
100
AcDbLayerTableRecord
  2
5
 70
     0
 62
     3
  6
CONTINUOUS
370
    -3
390
196F
  0
LAYER
  5
160A
330
15E0
100
AcDbSymbolTableRecord
100
AcDbLayerTableRecord
  2
6
 70
     0
 62
     2
  6
CONTINUOUS
370
    -3
390
196F
  0
LAYER
  5
160C
330
15E0
100
AcDbSymbolTableRecord
100
AcDbLayerTableRecord
  2
8
 70
     0
 62
     1
  6
CONTINUOUS
370
    -3
390
196F
  0
LAYER
  5
160D
330
15E0
100
AcDbSymbolTableRecord
100
AcDbLayerTableRecord
  2
PUNKTE
 70
     0
 62
     1
  6
CONTINUOUS
370
    -3
390
196F
  0
LAYER
  5
160E
330
15E0
100
AcDbSymbolTableRecord
100
AcDbLayerTableRecord
  2
SCHRAFFUR_RAND
 70
     0
 62
    36
  6
CONTINUOUS
370
    -3
390
196F
  0
LAYER
  5
1648
330
15E0
100
AcDbSymbolTableRecord
100
AcDbLayerTableRecord
  2
DEFPOINTS
 70
     0
 62
     7
  6
CONTINUOUS
290
     0
370
    -3
390
196F
  0
LAYER
  5
164C
330
15E0
100
AcDbSymbolTableRecord
100
AcDbLayerTableRecord
  2
RAHM2
 70
     0
 62
     1
  6
CONTINUOUS
370
    -3
390
196F
  0
LAYER
  5
164D
330
15E0
100
AcDbSymbolTableRecord
100
AcDbLayerTableRecord
  2
RAHM3
 70
     0
 62
     2
  6
CONTINUOUS
370
    -3
390
196F
  0
LAYER
  5
1A41
330
15E0
100
AcDbSymbolTableRecord
100
AcDbLayerTableRecord
  2
AM_5
 70
     0
 62
     3
  6
CONTINUOUS
370
    25
390
196F
1001
AcAecLayerStandard
1000

1000

  0
ENDTAB
  0
TABLE
  2
STYLE
  5
15E1
330
0
100
AcDbSymbolTable
 70
     4
  0
STYLE
  5
15ED
330
15E1
100
AcDbSymbolTableRecord
100
AcDbTextStyleTableRecord
  2
STANDARD
 70
     0
 40
0.0
 41
1.0
 50
0.0
 71
     0
 42
17.5
  3
ISOCP.SHX
  4

  0
STYLE
  5
19E8
330
15E1
100
AcDbSymbolTableRecord
100
AcDbTextStyleTableRecord
  2

 70
     1
 40
0.0
 41
1.0
 50
0.0
 71
     0
 42
17.5
  3
genltshp.shx
  4

  0
STYLE
  5
19EF
330
15E1
100
AcDbSymbolTableRecord
100
AcDbTextStyleTableRecord
  2
ACDINTS
 70
     0
 40
1.0
 41
1.0
 50
0.0
 71
     0
 42
17.5
  3
isocp.shx
  4

  0
STYLE
  5
19FC
330
15E1
100
AcDbSymbolTableRecord
100
AcDbTextStyleTableRecord
  2
ACDINGDT
 70
     0
 40
0.0
 41
1.0
 50
0.0
 71
     0
 42
17.5
  3
AMGDT
  4

  0
ENDTAB
  0
TABLE
  2
VIEW
  5
15E4
330
0
100
AcDbSymbolTable
 70
     6
  0
VIEW
  5
1683
330
15E4
100
AcDbSymbolTableRecord
100
AcDbViewTableRecord
  2
GEN1
 70
     0
 40
525.0
 10
402.9481129999999
 20
787.5
 41
805.8962259999999
 11
0.0
 21
0.0
 31
1.0
 12
0.0
 22
0.0
 32
0.0
 42
50.0
 43
0.0
 44
0.0
 50
0.0
 71
     0
281
     0
 72
     0
  0
VIEW
  5
1684
330
15E4
100
AcDbSymbolTableRecord
100
AcDbViewTableRecord
  2
GEN2
 70
     0
 40
525.0
 10
647.0518869999999
 20
787.5
 41
805.8962259999999
 11
0.0
 21
0.0
 31
1.0
 12
0.0
 22
0.0
 32
0.0
 42
50.0
 43
0.0
 44
0.0
 50
0.0
 71
     0
281
     0
 72
     0
  0
VIEW
  5
1685
330
15E4
100
AcDbSymbolTableRecord
100
AcDbViewTableRecord
  2
GEN3
 70
     0
 40
525.0
 10
402.9481129999999
 20
262.5
 41
805.8962259999999
 11
0.0
 21
0.0
 31
1.0
 12
0.0
 22
0.0
 32
0.0
 42
50.0
 43
0.0
 44
0.0
 50
0.0
 71
     0
281
     0
 72
     0
  0
VIEW
  5
1686
330
15E4
100
AcDbSymbolTableRecord
100
AcDbViewTableRecord
  2
GEN4
 70
     0
 40
525.0
 10
647.0518869999999
 20
262.5
 41
805.8962259999999
 11
0.0
 21
0.0
 31
1.0
 12
0.0
 22
0.0
 32
0.0
 42
50.0
 43
0.0
 44
0.0
 50
0.0
 71
     0
281
     0
 72
     0
  0
VIEW
  5
1687
330
15E4
100
AcDbSymbolTableRecord
100
AcDbViewTableRecord
  2
GEN5
 70
     0
 40
525.0
 10
525.0
 20
525.0
 41
805.8962259999999
 11
0.0
 21
0.0
 31
1.0
 12
0.0
 22
0.0
 32
0.0
 42
50.0
 43
0.0
 44
0.0
 50
0.0
 71
     0
281
     0
 72
     0
  0
VIEW
  5
1688
330
15E4
100
AcDbSymbolTableRecord
100
AcDbViewTableRecord
  2
GEN6
 70
     0
 40
1049.9895
 10
525.0
 20
525.0
 41
1611.776335
 11
0.0
 21
0.0
 31
1.0
 12
0.0
 22
0.0
 32
0.0
 42
50.0
 43
0.0
 44
0.0
 50
0.0
 71
     0
281
     0
 72
     0
  0
ENDTAB
  0
TABLE
  2
UCS
  5
15E5
330
0
100
AcDbSymbolTable
 70
     0
  0
ENDTAB
  0
TABLE
  2
APPID
  5
15E7
330
0
100
AcDbSymbolTable
 70
    39
  0
APPID
  5
15EE
330
15E7
100
AcDbSymbolTableRecord
100
AcDbRegAppTableRecord
  2
ACAD
 70
     0
  0
APPID
  5
1625
330
15E7
100
AcDbSymbolTableRecord
100
AcDbRegAppTableRecord
  2
GENIUS_GENOENT_13
 70
     0
  0
APPID
  5
1626
330
15E7
100
AcDbSymbolTableRecord
100
AcDbRegAppTableRecord
  2
GENIUS_GENCFG_13
 70
     0
1001
GENIUS_GENCFG0_13
1000
GEN@INFO_POS@XLATE
1001
GENIUS_GENCFG1_13
1000
GEN@INFO_POS
1001
GENIUS_GENCFG2_13
1000
GEN@LAYER@DEFS
1001
GENIUS_GENCFG3_13
1000
GEN@LAYER@ENTSORT
1001
GENIUS_GENCFG4_13
1000
GEN
1001
GENIUS_GEVCFG0_13
1000
GEV
1001
GENIUS_DUMCFG0_13
1000
DUM
  0
APPID
  5
1627
330
15E7
100
AcDbSymbolTableRecord
100
AcDbRegAppTableRecord
  2
GENIUS_GENCFG0_13
 70
     0
1001
GENIUS_GENCFG_13
1071
1023340674
1000
1627
1000
GEN@INFO_POS@XLATE
1070
     7
1000
GenCfgObject
1000
GenCfgShort
1000
GenCfgReal
1000
GenCfgBool
1000
GenCfgString
1000
GenCfgDim
1000
GenCfgAttrInf
1000
INFOPOINTS
1070
     0
1002
{
1000
GENINF14
1070
     0
1002
{
1000
2GENINF
1070
     4
1000
2
1002
{
1002
}
1000
5GENINF
1070
     4
1000
5
1002
{
1002
}
1000
7GENINF
1070
     4
1000
7
1002
{
1002
}
1000
9GENINF
1070
     4
1000
9
1002
{
1002
}
1000
11GENINF
1070
     4
1000
11
1002
{
1002
}
1000
14GENINF
1070
     4
1000
14
1002
{
1002
}
1002
}
1000
GENINF13
1070
     0
1002
{
1000
2GENINF
1070
     4
1000
2
1002
{
1002
}
1000
3GENINF
1070
     4
1000
3
1002
{
1002
}
1000
4GENINF
1070
     4
1000
4
1002
{
1002
}
1000
5GENINF
1070
     4
1000
5
1002
{
1002
}
1000
6GENINF
1070
     4
1000
6
1002
{
1002
}
1000
7GENINF
1070
     4
1000
7
1002
{
1002
}
1000
8GENINF
1070
     4
1000
8
1002
{
1002
}
1000
9GENINF
1070
     4
1000
9
1002
{
1002
}
1000
10GENINF
1070
     4
1000
10
1002
{
1002
}
1000
11GENINF
1070
     4
1000
11
1002
{
1002
}
1000
12GENINF
1070
     4
1000
12
1002
{
1002
}
1000
13GENINF
1070
     4
1000
13
1002
{
1002
}
1000
14GENINF
1070
     4
1000
14
1002
{
1002
}
1000
15GENINF
1070
     4
1000
15
1002
{
1002
}
1000
16GENINF
1070
     4
1000
16
1002
{
1002
}
1000
17GENINF
1070
     4
1000
17
1002
{
1002
}
1000
18GENINF
1070
     4
1000
18
1002
{
1002
}
1000
19GENINF
1070
     4
1000
19
1002
{
1002
}
1000
20GENINF
1070
     4
1000
20
1002
{
1002
}
1000
21GENINF
1070
     4
1000
21
1002
{
1002
}
1000
22GENINF
1070
     4
1000
22
1002
{
1002
}
1000
23GENINF
1070
     4
1000
23
1002
{
1002
}
1000
24GENINF
1070
     4
1000
24
1002
{
1002
}
1000
0GENINF
1070
     4
1000
0
1002
{
1002
}
1002
}
1000
GENINFO
1070
     0
1002
{
1000
3GENINF
1070
     4
1000
3
1002
{
1002
}
1000
4GENINF
1070
     4
1000
4
1002
{
1002
}
1000
5GENINF
1070
     4
1000
5
1002
{
1002
}
1000
6GENINF
1070
     4
1000
6
1002
{
1002
}
1000
7GENINF
1070
     4
1000
7
1002
{
1002
}
1000
8GENINF
1070
     4
1000
8
1002
{
1002
}
1000
9GENINF
1070
     4
1000
9
1002
{
1002
}
1000
10GENINF
1070
     4
1000
10
1002
{
1002
}
1000
11GENINF
1070
     4
1000
11
1002
{
1002
}
1000
12GENINF
1070
     4
1000
12
1002
{
1002
}
1000
13GENINF
1070
     4
1000
13
1002
{
1002
}
1000
14GENINF
1070
     4
1000
14
1002
{
1002
}
1000
15GENINF
1070
     4
1000
15
1002
{
1002
}
1000
16GENINF
1070
     4
1000
16
1002
{
1002
}
1000
17GENINF
1070
     4
1000
17
1002
{
1002
}
1000
18GENINF
1070
     4
1000
18
1002
{
1002
}
1000
19GENINF
1070
     4
1000
19
1002
{
1002
}
1000
20GENINF
1070
     4
1000
20
1002
{
1002
}
1000
21GENINF
1070
     4
1000
21
1002
{
1002
}
1000
22GENINF
1070
     4
1000
22
1002
{
1002
}
1002
}
1000
DININFO
1070
     0
1002
{
1000
ST-NAME1
1070
     4
1000
5
1002
{
1002
}
1000
ST-NAME2
1070
     4
1000
6
1002
{
1002
}
1000
ST-NORM1
1070
     4
1000
7
1002
{
1002
}
1000
ST-NORM2
1070
     4
1000
8
1002
{
1002
}
1000
ST-MAT1
1070
     4
1000
9
1002
{
1002
}
1000
ST-MAT2
1070
     4
1000
10
1002
{
1002
}
1002
}
1002
}
1000
POS_NUMBERS
1070
     0
1002
{
1000
GENPOS14
1070
     0
1002
{
1000
1GENPOS
1070
     4
1000
1
1002
{
1002
}
1000
2GENPOS
1070
     4
1000
2
1002
{
1002
}
1000
5GENPOS
1070
     4
1000
5
1002
{
1002
}
1000
7GENPOS
1070
     4
1000
7
1002
{
1002
}
1000
9GENPOS
1070
     4
1000
9
1002
{
1002
}
1000
11GENPOS
1070
     4
1000
11
1002
{
1002
}
1000
14GENPOS
1070
     4
1000
14
1002
{
1002
}
1002
}
1000
GENPOS13
1070
     0
1002
{
1000
1GENPOS
1070
     4
1000
1
1002
{
1002
}
1000
2GENPOS
1070
     4
1000
2
1002
{
1002
}
1000
3GENPOS
1070
     4
1000
3
1002
{
1002
}
1000
4GENPOS
1070
     4
1000
4
1002
{
1002
}
1000
5GENPOS
1070
     4
1000
5
1002
{
1002
}
1000
6GENPOS
1070
     4
1000
6
1002
{
1002
}
1000
7GENPOS
1070
     4
1000
7
1002
{
1002
}
1000
8GENPOS
1070
     4
1000
8
1002
{
1002
}
1000
9GENPOS
1070
     4
1000
9
1002
{
1002
}
1000
10GENPOS
1070
     4
1000
10
1002
{
1002
}
1000
11GENPOS
1070
     4
1000
11
1002
{
1002
}
1000
12GENPOS
1070
     4
1000
12
1002
{
1002
}
1000
13GENPOS
1070
     4
1000
13
1002
{
1002
}
1000
14GENPOS
1070
     4
1000
14
1002
{
1002
}
1000
15GENPOS
1070
     4
1000
15
1002
{
1002
}
1000
16GENPOS
1070
     4
1000
16
1002
{
1002
}
1000
17GENPOS
1070
     4
1000
17
1002
{
1002
}
1000
18GENPOS
1070
     4
1000
18
1002
{
1002
}
1000
19GENPOS
1070
     4
1000
19
1002
{
1002
}
1000
20GENPOS
1070
     4
1000
20
1002
{
1002
}
1000
21GENPOS
1070
     4
1000
21
1002
{
1002
}
1000
22GENPOS
1070
     4
1000
22
1002
{
1002
}
1000
23GENPOS
1070
     4
1000
23
1002
{
1002
}
1000
24GENPOS
1070
     4
1000
24
1002
{
1002
}
1000
0GENPOS
1070
     4
1000
0
1002
{
1002
}
1002
}
1000
GENPOS
1070
     0
1002
{
1000
1GENPOS
1070
     4
1000
1
1002
{
1002
}
1000
2GENPOS
1070
     4
1000
2
1002
{
1002
}
1000
3GENPOS
1070
     4
1000
3
1002
{
1002
}
1000
4GENPOS
1070
     4
1000
4
1002
{
1002
}
1000
5GENPOS
1070
     4
1000
5
1002
{
1002
}
1000
6GENPOS
1070
     4
1000
6
1002
{
1002
}
1000
7GENPOS
1070
     4
1000
7
1002
{
1002
}
1000
8GENPOS
1070
     4
1000
8
1002
{
1002
}
1000
9GENPOS
1070
     4
1000
9
1002
{
1002
}
1000
10GENPOS
1070
     4
1000
10
1002
{
1002
}
1000
11GENPOS
1070
     4
1000
11
1002
{
1002
}
1000
12GENPOS
1070
     4
1000
12
1002
{
1002
}
1000
13GENPOS
1070
     4
1000
13
1002
{
1002
}
1000
14GENPOS
1070
     4
1000
14
1002
{
1002
}
1000
15GENPOS
1070
     4
1000
15
1002
{
1002
}
1000
16GENPOS
1070
     4
1000
16
1002
{
1002
}
1000
17GENPOS
1070
     4
1000
17
1002
{
1002
}
1000
18GENPOS
1070
     4
1000
18
1002
{
1002
}
1000
19GENPOS
1070
     4
1000
19
1002
{
1002
}
1000
20GENPOS
1070
     4
1000
20
1002
{
1002
}
1000
21GENPOS
1070
     4
1000
21
1002
{
1002
}
1000
22GENPOS
1070
     4
1000
22
1002
{
1002
}
1000
23GENPOS
1070
     4
1000
23
1002
{
1002
}
1002
}
1000
DIN985
1070
     0
1002
{
1000
POSITION
1070
     4
1000
1
1002
{
1002
}
1000
MENGE
1070
     4
1000
2
1002
{
1002
}
1000
BLATT
1070
     4
1000
3
1002
{
1002
}
1000
BENENN
1070
     4
1000
5
1002
{
1002
}
1000
BENENN2
1070
     4
1000
6
1002
{
1002
}
1000
NORM
1070
     4
1000
7
1002
{
1002
}
1000
NORM2
1070
     4
1000
8
1002
{
1002
}
1000
WERKSTOFF
1070
     4
1000
9
1002
{
1002
}
1000
WERKSTOFF2
1070
     4
1000
10
1002
{
1002
}
1002
}
1000
DIN986
1070
     0
1002
{
1000
POSITION
1070
     4
1000
1
1002
{
1002
}
1000
MENGE
1070
     4
1000
2
1002
{
1002
}
1000
BLATT
1070
     4
1000
3
1002
{
1002
}
1000
BENENN
1070
     4
1000
5
1002
{
1002
}
1000
BENENN2
1070
     4
1000
6
1002
{
1002
}
1000
NORM
1070
     4
1000
7
1002
{
1002
}
1000
NORM2
1070
     4
1000
8
1002
{
1002
}
1000
WERKSTOFF
1070
     4
1000
9
1002
{
1002
}
1000
WERKSTOFF2
1070
     4
1000
10
1002
{
1002
}
1002
}
1000
DIN987
1070
     0
1002
{
1000
POSITION
1070
     4
1000
1
1002
{
1002
}
1000
MENGE
1070
     4
1000
2
1002
{
1002
}
1000
BLATT
1070
     4
1000
3
1002
{
1002
}
1000
BENENN
1070
     4
1000
5
1002
{
1002
}
1000
BENENN2
1070
     4
1000
6
1002
{
1002
}
1000
NORM
1070
     4
1000
7
1002
{
1002
}
1000
NORM2
1070
     4
1000
8
1002
{
1002
}
1000
WERKSTOFF
1070
     4
1000
9
1002
{
1002
}
1000
WERKSTOFF2
1070
     4
1000
10
1002
{
1002
}
1002
}
1002
}
  0
APPID
  5
1628
330
15E7
100
AcDbSymbolTableRecord
100
AcDbRegAppTableRecord
  2
GENIUS_GENCFG1_13
 70
     0
1001
GENIUS_GENCFG_13
1071
1023340674
1000
1628
1000
GEN@INFO_POS
1070
     7
1000
GenCfgObject
1000
GenCfgShort
1000
GenCfgReal
1000
GenCfgBool
1000
GenCfgString
1000
GenCfgDim
1000
GenCfgAttrInf
1000
DescrText
1070
     4
1000
5, ,6, ,7, ,8
1002
{
1002
}
1000
DescrText2
1070
     4
1000
26
1002
{
1002
}
1000
VisibleAttr1
1070
     4
1000
1
1002
{
1002
}
1000
VisibleAttr2
1070
     4
1000
26
1002
{
1002
}
1000
UpdateBlock
1070
     3
1070
     1
1002
{
1002
}
1000
Attrib
1070
     0
1002
{
1000
0
1070
     6
1002
{
1000
Prompt
1070
     4
1000
(genmsg gendwg 103)
1002
{
1002
}
1000
Value
1070
     4
1000

1002
{
1002
}
1000
EditFlag
1070
     1
1070
     0
1002
{
1002
}
1000
PosInDDATTE
1070
     1
1070
    27
1002
{
1002
}
1000
FieldLen
1070
     1
1070
    -1
1002
{
1002
}
1002
}
1000
1
1070
     6
1002
{
1000
Prompt
1070
     4
1000
(genmsg gendwg 31)
1002
{
1002
}
1000
Value
1070
     4
1000
1
1002
{
1002
}
1000
EditFlag
1070
     1
1070
     1
1002
{
1002
}
1000
PosInDDATTE
1070
     1
1070
     1
1002
{
1002
}
1000
FieldLen
1070
     1
1070
    -1
1002
{
1002
}
1002
}
1000
2
1070
     6
1002
{
1000
Prompt
1070
     4
1000
(genmsg gendwg 32)
1002
{
1002
}
1000
Value
1070
     4
1000
1
1002
{
1002
}
1000
EditFlag
1070
     1
1070
     1
1002
{
1002
}
1000
PosInDDATTE
1070
     1
1070
     2
1002
{
1002
}
1000
FieldLen
1070
     1
1070
    -1
1002
{
1002
}
1002
}
1000
3
1070
     6
1002
{
1000
Prompt
1070
     4
1000
(genmsg gendwg 33)
1002
{
1002
}
1000
Value
1070
     4
1000

1002
{
1002
}
1000
EditFlag
1070
     1
1070
     1
1002
{
1002
}
1000
PosInDDATTE
1070
     1
1070
     3
1002
{
1002
}
1000
FieldLen
1070
     1
1070
    -1
1002
{
1002
}
1002
}
1000
4
1070
     6
1002
{
1000
Prompt
1070
     4
1000
(genmsg gendwg 34)
1002
{
1002
}
1000
Value
1070
     4
1000

1002
{
1002
}
1000
EditFlag
1070
     1
1070
     1
1002
{
1002
}
1000
PosInDDATTE
1070
     1
1070
     4
1002
{
1002
}
1000
FieldLen
1070
     1
1070
    -1
1002
{
1002
}
1002
}
1000
5
1070
     6
1002
{
1000
Prompt
1070
     4
1000
(genmsg gendwg 35)
1002
{
1002
}
1000
Value
1070
     4
1000

1002
{
1002
}
1000
EditFlag
1070
     1
1070
     1
1002
{
1002
}
1000
PosInDDATTE
1070
     1
1070
     5
1002
{
1002
}
1000
FieldLen
1070
     1
1070
    -1
1002
{
1002
}
1002
}
1000
6
1070
     6
1002
{
1000
Prompt
1070
     4
1000
(genmsg gendwg 36)
1002
{
1002
}
1000
Value
1070
     4
1000

1002
{
1002
}
1000
EditFlag
1070
     1
1070
     1
1002
{
1002
}
1000
PosInDDATTE
1070
     1
1070
     6
1002
{
1002
}
1000
FieldLen
1070
     1
1070
    -1
1002
{
1002
}
1002
}
1000
7
1070
     6
1002
{
1000
Prompt
1070
     4
1000
(genmsg gendwg 37)
1002
{
1002
}
1000
Value
1070
     4
1000

1002
{
1002
}
1000
EditFlag
1070
     1
1070
     1
1002
{
1002
}
1000
PosInDDATTE
1070
     1
1070
     7
1002
{
1002
}
1000
FieldLen
1070
     1
1070
    -1
1002
{
1002
}
1002
}
1000
8
1070
     6
1002
{
1000
Prompt
1070
     4
1000
(genmsg gendwg 38)
1002
{
1002
}
1000
Value
1070
     4
1000

1002
{
1002
}
1000
EditFlag
1070
     1
1070
     1
1002
{
1002
}
1000
PosInDDATTE
1070
     1
1070
     8
1002
{
1002
}
1000
FieldLen
1070
     1
1070
    -1
1002
{
1002
}
1002
}
1000
9
1070
     6
1002
{
1000
Prompt
1070
     4
1000
(genmsg gendwg 39)
1002
{
1002
}
1000
Value
1070
     4
1000

1002
{
1002
}
1000
EditFlag
1070
     1
1070
     1
1002
{
1002
}
1000
PosInDDATTE
1070
     1
1070
     9
1002
{
1002
}
1000
FieldLen
1070
     1
1070
    -1
1002
{
1002
}
1002
}
1000
10
1070
     6
1002
{
1000
Prompt
1070
     4
1000
(genmsg gendwg 40)
1002
{
1002
}
1000
Value
1070
     4
1000

1002
{
1002
}
1000
EditFlag
1070
     1
1070
     1
1002
{
1002
}
1000
PosInDDATTE
1070
     1
1070
    10
1002
{
1002
}
1000
FieldLen
1070
     1
1070
    -1
1002
{
1002
}
1002
}
1000
11
1070
     6
1002
{
1000
Prompt
1070
     4
1000
(genmsg gendwg 41)
1002
{
1002
}
1000
Value
1070
     4
1000

1002
{
1002
}
1000
EditFlag
1070
     1
1070
     1
1002
{
1002
}
1000
PosInDDATTE
1070
     1
1070
    11
1002
{
1002
}
1000
FieldLen
1070
     1
1070
    -1
1002
{
1002
}
1002
}
1000
12
1070
     6
1002
{
1000
Prompt
1070
     4
1000
(genmsg gendwg 42)
1002
{
1002
}
1000
Value
1070
     4
1000

1002
{
1002
}
1000
EditFlag
1070
     1
1070
     1
1002
{
1002
}
1000
PosInDDATTE
1070
     1
1070
    12
1002
{
1002
}
1000
FieldLen
1070
     1
1070
    -1
1002
{
1002
}
1002
}
1000
13
1070
     6
1002
{
1000
Prompt
1070
     4
1000
(genmsg gendwg 43)
1002
{
1002
}
1000
Value
1070
     4
1000

1002
{
1002
}
1000
EditFlag
1070
     1
1070
     1
1002
{
1002
}
1000
PosInDDATTE
1070
     1
1070
    13
1002
{
1002
}
1000
FieldLen
1070
     1
1070
    -1
1002
{
1002
}
1002
}
1000
14
1070
     6
1002
{
1000
Prompt
1070
     4
1000
(genmsg gendwg 44)
1002
{
1002
}
1000
Value
1070
     4
1000

1002
{
1002
}
1000
EditFlag
1070
     1
1070
     1
1002
{
1002
}
1000
PosInDDATTE
1070
     1
1070
    14
1002
{
1002
}
1000
FieldLen
1070
     1
1070
    -1
1002
{
1002
}
1002
}
1000
15
1070
     6
1002
{
1000
Prompt
1070
     4
1000
(genmsg gendwg 45)
1002
{
1002
}
1000
Value
1070
     4
1000

1002
{
1002
}
1000
EditFlag
1070
     1
1070
     1
1002
{
1002
}
1000
PosInDDATTE
1070
     1
1070
    15
1002
{
1002
}
1000
FieldLen
1070
     1
1070
    -1
1002
{
1002
}
1002
}
1000
16
1070
     6
1002
{
1000
Prompt
1070
     4
1000
(genmsg gendwg 46)
1002
{
1002
}
1000
Value
1070
     4
1000

1002
{
1002
}
1000
EditFlag
1070
     1
1070
     1
1002
{
1002
}
1000
PosInDDATTE
1070
     1
1070
    16
1002
{
1002
}
1000
FieldLen
1070
     1
1070
    -1
1002
{
1002
}
1002
}
1000
17
1070
     6
1002
{
1000
Prompt
1070
     4
1000
(genmsg gendwg 47)
1002
{
1002
}
1000
Value
1070
     4
1000

1002
{
1002
}
1000
EditFlag
1070
     1
1070
     1
1002
{
1002
}
1000
PosInDDATTE
1070
     1
1070
    17
1002
{
1002
}
1000
FieldLen
1070
     1
1070
    -1
1002
{
1002
}
1002
}
1000
18
1070
     6
1002
{
1000
Prompt
1070
     4
1000
(genmsg gendwg 48)
1002
{
1002
}
1000
Value
1070
     4
1000

1002
{
1002
}
1000
EditFlag
1070
     1
1070
     1
1002
{
1002
}
1000
PosInDDATTE
1070
     1
1070
    18
1002
{
1002
}
1000
FieldLen
1070
     1
1070
    -1
1002
{
1002
}
1002
}
1000
19
1070
     6
1002
{
1000
Prompt
1070
     4
1000
(genmsg gendwg 99)
1002
{
1002
}
1000
Value
1070
     4
1000

1002
{
1002
}
1000
EditFlag
1070
     1
1070
     1
1002
{
1002
}
1000
PosInDDATTE
1070
     1
1070
    19
1002
{
1002
}
1000
FieldLen
1070
     1
1070
    -1
1002
{
1002
}
1002
}
1000
20
1070
     6
1002
{
1000
Prompt
1070
     4
1000
(genmsg gendwg 100)
1002
{
1002
}
1000
Value
1070
     4
1000

1002
{
1002
}
1000
EditFlag
1070
     1
1070
     1
1002
{
1002
}
1000
PosInDDATTE
1070
     1
1070
    20
1002
{
1002
}
1000
FieldLen
1070
     1
1070
    -1
1002
{
1002
}
1002
}
1000
21
1070
     6
1002
{
1000
Prompt
1070
     4
1000
(genmsg gendwg 101)
1002
{
1002
}
1000
Value
1070
     4
1000

1002
{
1002
}
1000
EditFlag
1070
     1
1070
     1
1002
{
1002
}
1000
PosInDDATTE
1070
     1
1070
    21
1002
{
1002
}
1000
FieldLen
1070
     1
1070
    -1
1002
{
1002
}
1002
}
1000
22
1070
     6
1002
{
1000
Prompt
1070
     4
1000
(genmsg gendwg 102)
1002
{
1002
}
1000
Value
1070
     4
1000

1002
{
1002
}
1000
EditFlag
1070
     1
1070
     1
1002
{
1002
}
1000
PosInDDATTE
1070
     1
1070
    22
1002
{
1002
}
1000
FieldLen
1070
     1
1070
    -1
1002
{
1002
}
1002
}
1000
23
1070
     6
1002
{
1000
Prompt
1070
     4
1000
(genmsg gendwg 30)
1002
{
1002
}
1000
Value
1070
     4
1000

1002
{
1002
}
1000
EditFlag
1070
     1
1070
     1
1002
{
1002
}
1000
PosInDDATTE
1070
     1
1070
    23
1002
{
1002
}
1000
FieldLen
1070
     1
1070
    -1
1002
{
1002
}
1002
}
1000
24
1070
     6
1002
{
1000
Prompt
1070
     4
1000
(genmsg gendwg 104)
1002
{
1002
}
1000
Value
1070
     4
1000

1002
{
1002
}
1000
EditFlag
1070
     1
1070
     1
1002
{
1002
}
1000
PosInDDATTE
1070
     1
1070
    24
1002
{
1002
}
1000
FieldLen
1070
     1
1070
    -1
1002
{
1002
}
1002
}
1000
25
1070
     6
1002
{
1000
Prompt
1070
     4
1000
(genmsg gendwg 105)
1002
{
1002
}
1000
Value
1070
     4
1000

1002
{
1002
}
1000
EditFlag
1070
     1
1070
     1
1002
{
1002
}
1000
PosInDDATTE
1070
     1
1070
    25
1002
{
1002
}
1000
FieldLen
1070
     1
1070
    -1
1002
{
1002
}
1002
}
1000
26
1070
     6
1002
{
1000
Prompt
1070
     4
1000
(genmsg gendwg 106)
1002
{
1002
}
1000
Value
1070
     4
1000

1002
{
1002
}
1000
EditFlag
1070
     1
1070
     1
1002
{
1002
}
1000
PosInDDATTE
1070
     1
1070
    26
1002
{
1002
}
1000
FieldLen
1070
     1
1070
    -1
1002
{
1002
}
1002
}
1000
27
1070
     6
1002
{
1000
Prompt
1070
     4
1000
(genmsg gendwg 109)
1002
{
1002
}
1000
Value
1070
     4
1000

1002
{
1002
}
1000
EditFlag
1070
     1
1070
     2
1002
{
1002
}
1000
PosInDDATTE
1070
     1
1070
    27
1002
{
1002
}
1000
FieldLen
1070
     1
1070
    -1
1002
{
1002
}
1002
}
1002
}
1000
Xlate
1070
     0
1002
{
1000
>
1002
}
  0
APPID
  5
1629
330
15E7
100
AcDbSymbolTableRecord
100
AcDbRegAppTableRecord
  2
GENIUS_GENCFG2_13
 70
     0
1001
GENIUS_GENCFG_13
1071
1023340674
1000
1629
1000
GEN@LAYER@DEFS
1070
     9
1000
GenCfgObject
1000
GenCfgShort
1000
GenCfgReal
1000
GenCfgBool
1000
GenCfgString
1000
GenCfgDim
1000
GenCfgAttrInf
1000
GenCfgLaySection
1000
GenCfgLayer
1000
Basic
1070
     0
1002
{
1000
0
1070
     8
1000
0
1002
{
1000
Color
1070
     1
1070
     7
1002
{
1002
}
1000
LType
1070
     4
1000
CONTINUOUS
1002
{
1002
}
1000
Base
1070
     3
1070
     0
1002
{
1002
}
1002
}
1000
1
1070
     8
1000
1
1002
{
1000
Color
1070
     1
1070
    14
1002
{
1002
}
1000
LType
1070
     4
1000
CONTINUOUS
1002
{
1002
}
1000
Base
1070
     3
1070
     0
1002
{
1002
}
1002
}
1000
2
1070
     8
1000
2
1002
{
1000
Color
1070
     1
1070
     5
1002
{
1002
}
1000
LType
1070
     4
1000
CONTINUOUS
1002
{
1002
}
1000
Base
1070
     3
1070
     0
1002
{
1002
}
1002
}
1000
3
1070
     8
1000
3
1002
{
1000
Color
1070
     1
1070
     6
1002
{
1002
}
1000
LType
1070
     4
1000
GEN3
1002
{
1002
}
1000
Base
1070
     3
1070
     0
1002
{
1002
}
1002
}
1000
4
1070
     8
1000
4
1002
{
1000
Color
1070
     1
1070
     3
1002
{
1002
}
1000
LType
1070
     4
1000
CONTINUOUS
1002
{
1002
}
1000
Base
1070
     3
1070
     0
1002
{
1002
}
1002
}
1000
5
1070
     8
1000
5
1002
{
1000
Color
1070
     1
1070
     3
1002
{
1002
}
1000
LType
1070
     4
1000
CONTINUOUS
1002
{
1002
}
1000
Base
1070
     3
1070
     0
1002
{
1002
}
1002
}
1000
6
1070
     8
1000
6
1002
{
1000
Color
1070
     1
1070
     2
1002
{
1002
}
1000
LType
1070
     4
1000
CONTINUOUS
1002
{
1002
}
1000
Base
1070
     3
1070
     0
1002
{
1002
}
1002
}
1000
7
1070
     8
1000
7
1002
{
1000
Color
1070
     1
1070
     4
1002
{
1002
}
1000
LType
1070
     4
1000
GEN7
1002
{
1002
}
1000
Base
1070
     3
1070
     0
1002
{
1002
}
1002
}
1000
8
1070
     8
1000
8
1002
{
1000
Color
1070
     1
1070
     1
1002
{
1002
}
1000
LType
1070
     4
1000
CONTINUOUS
1002
{
1002
}
1000
Base
1070
     3
1070
     0
1002
{
1002
}
1002
}
1000
3A
1070
     8
1000
3A
1002
{
1000
Color
1070
     1
1070
     6
1002
{
1002
}
1000
LType
1070
     4
1000
GEN3A
1002
{
1002
}
1000
Base
1070
     3
1070
     0
1002
{
1002
}
1002
}
1000
7A
1070
     8
1000
7A
1002
{
1000
Color
1070
     1
1070
     4
1002
{
1002
}
1000
LType
1070
     4
1000
GEN7A
1002
{
1002
}
1000
Base
1070
     3
1070
     0
1002
{
1002
}
1002
}
1000
2A
1070
     8
1000
2A
1002
{
1000
Color
1070
     1
1070
     7
1002
{
1002
}
1000
LType
1070
     4
1000
GEN7
1002
{
1002
}
1000
Base
1070
     3
1070
     0
1002
{
1002
}
1002
}
1000
4A
1070
     8
1000
4A
1002
{
1000
Color
1070
     1
1070
     3
1002
{
1002
}
1000
LType
1070
     4
1000
GEN4A
1002
{
1002
}
1000
Base
1070
     3
1070
     0
1002
{
1002
}
1002
}
1000
9
1070
     8
1000
9
1002
{
1000
Color
1070
     1
1070
   253
1002
{
1002
}
1000
LType
1070
     4
1000
CONTINUOUS
1002
{
1002
}
1000
Base
1070
     3
1070
     0
1002
{
1002
}
1002
}
1000
IP
1070
     8
1000
IP
1002
{
1000
Color
1070
     1
1070
     7
1002
{
1002
}
1000
LType
1070
     4
1000
CONTINUOUS
1002
{
1002
}
1000
Base
1070
     3
1070
     0
1002
{
1002
}
1002
}
1002
}
1000
Standard
1070
     0
1002
{
1000
0N
1070
     8
1000
0N
1002
{
1000
Color
1070
     1
1070
     7
1002
{
1002
}
1000
LType
1070
     4
1000
CONTINUOUS
1002
{
1002
}
1000
Base
1070
     3
1070
     0
1002
{
1002
}
1002
}
1000
1N
1070
     8
1000
1N
1002
{
1000
Color
1070
     1
1070
    14
1002
{
1002
}
1000
LType
1070
     4
1000
CONTINUOUS
1002
{
1002
}
1000
Base
1070
     3
1070
     0
1002
{
1002
}
1002
}
1000
2N
1070
     8
1000
2N
1002
{
1000
Color
1070
     1
1070
     5
1002
{
1002
}
1000
LType
1070
     4
1000
CONTINUOUS
1002
{
1002
}
1000
Base
1070
     3
1070
     0
1002
{
1002
}
1002
}
1000
3N
1070
     8
1000
3N
1002
{
1000
Color
1070
     1
1070
     6
1002
{
1002
}
1000
LType
1070
     4
1000
GEN3
1002
{
1002
}
1000
Base
1070
     3
1070
     0
1002
{
1002
}
1002
}
1000
4N
1070
     8
1000
4N
1002
{
1000
Color
1070
     1
1070
     3
1002
{
1002
}
1000
LType
1070
     4
1000
CONTINUOUS
1002
{
1002
}
1000
Base
1070
     3
1070
     0
1002
{
1002
}
1002
}
1000
5N
1070
     8
1000
5N
1002
{
1000
Color
1070
     1
1070
     3
1002
{
1002
}
1000
LType
1070
     4
1000
CONTINUOUS
1002
{
1002
}
1000
Base
1070
     3
1070
     0
1002
{
1002
}
1002
}
1000
6N
1070
     8
1000
6N
1002
{
1000
Color
1070
     1
1070
     2
1002
{
1002
}
1000
LType
1070
     4
1000
CONTINUOUS
1002
{
1002
}
1000
Base
1070
     3
1070
     0
1002
{
1002
}
1002
}
1000
7N
1070
     8
1000
7N
1002
{
1000
Color
1070
     1
1070
     4
1002
{
1002
}
1000
LType
1070
     4
1000
GEN7
1002
{
1002
}
1000
Base
1070
     3
1070
     0
1002
{
1002
}
1002
}
1000
8N
1070
     8
1000
8N
1002
{
1000
Color
1070
     1
1070
     1
1002
{
1002
}
1000
LType
1070
     4
1000
CONTINUOUS
1002
{
1002
}
1000
Base
1070
     3
1070
     0
1002
{
1002
}
1002
}
1000
3AN
1070
     8
1000
3AN
1002
{
1000
Color
1070
     1
1070
     6
1002
{
1002
}
1000
LType
1070
     4
1000
GEN3A
1002
{
1002
}
1000
Base
1070
     3
1070
     0
1002
{
1002
}
1002
}
1000
7AN
1070
     8
1000
7AN
1002
{
1000
Color
1070
     1
1070
     4
1002
{
1002
}
1000
LType
1070
     4
1000
GEN7A
1002
{
1002
}
1000
Base
1070
     3
1070
     0
1002
{
1002
}
1002
}
1000
2AN
1070
     8
1000
2AN
1002
{
1000
Color
1070
     1
1070
     7
1002
{
1002
}
1000
LType
1070
     4
1000
GEN7
1002
{
1002
}
1000
Base
1070
     3
1070
     0
1002
{
1002
}
1002
}
1000
4AN
1070
     8
1000
4AN
1002
{
1000
Color
1070
     1
1070
     3
1002
{
1002
}
1000
LType
1070
     4
1000
GEN4A
1002
{
1002
}
1000
Base
1070
     3
1070
     0
1002
{
1002
}
1002
}
1000
9N
1070
     8
1000
9N
1002
{
1000
Color
1070
     1
1070
   253
1002
{
1002
}
1000
LType
1070
     4
1000
CONTINUOUS
1002
{
1002
}
1000
Base
1070
     3
1070
     0
1002
{
1002
}
1002
}
1000
IPN
1070
     8
1000
IPN
1002
{
1000
Color
1070
     1
1070
     7
1002
{
1002
}
1000
LType
1070
     4
1000
CONTINUOUS
1002
{
1002
}
1000
Base
1070
     3
1070
     0
1002
{
1002
}
1002
}
1002
}
1000
Extra
1070
     0
1002
{
1000
Klin
1070
     8
1000
KLIN
1002
{
1000
Color
1070
     1
1070
     1
1002
{
1002
}
1000
LType
1070
     4
1000
CONTINUOUS
1002
{
1002
}
1000
Base
1070
     3
1070
     1
1002
{
1002
}
1002
}
1000
Info
1070
     8
1000
INFO
1002
{
1000
Color
1070
     1
1070
     4
1002
{
1002
}
1000
LType
1070
     4
1000
CONTINUOUS
1002
{
1002
}
1000
Base
1070
     3
1070
     1
1002
{
1002
}
1002
}
1000
Rahm2
1070
     8
1000
RAHM2
1002
{
1000
Color
1070
     1
1070
     1
1002
{
1002
}
1000
LType
1070
     4
1000
CONTINUOUS
1002
{
1002
}
1000
Base
1070
     3
1070
     1
1002
{
1002
}
1002
}
1000
Rahm3
1070
     8
1000
RAHM3
1002
{
1000
Color
1070
     1
1070
     2
1002
{
1002
}
1000
LType
1070
     4
1000
CONTINUOUS
1002
{
1002
}
1000
Base
1070
     3
1070
     1
1002
{
1002
}
1002
}
1000
Rahm5
1070
     8
1000
RAHM5
1002
{
1000
Color
1070
     1
1070
     7
1002
{
1002
}
1000
LType
1070
     4
1000
CONTINUOUS
1002
{
1002
}
1000
Base
1070
     3
1070
     1
1002
{
1002
}
1002
}
1000
View
1070
     8
1000
VIEW
1002
{
1000
Color
1070
     1
1070
     1
1002
{
1002
}
1000
LType
1070
     4
1000
CONTINUOUS
1002
{
1002
}
1000
Base
1070
     3
1070
     1
1002
{
1002
}
1002
}
1000
Behind
1070
     8
1000
BEHIND
1002
{
1000
Color
1070
     1
1070
   253
1002
{
1002
}
1000
LType
1070
     4
1000
CONTINUOUS
1002
{
1002
}
1000
Base
1070
     3
1070
     1
1002
{
1002
}
1002
}
1002
}
  0
APPID
  5
162A
330
15E7
100
AcDbSymbolTableRecord
100
AcDbRegAppTableRecord
  2
GENIUS_GENCFG3_13
 70
     0
1001
GENIUS_GENCFG_13
1071
1023340674
1000
162A
1000
GEN@LAYER@ENTSORT
1070
    10
1000
GenCfgObject
1000
GenCfgShort
1000
GenCfgReal
1000
GenCfgBool
1000
GenCfgString
1000
GenCfgDim
1000
GenCfgAttrInf
1000
GenCfgLaySection
1000
GenCfgLayer
1000
GenCfgEntSort
1000
ADDL
1070
     9
1000
5
1002
{
1000
Class
1070
     4
1000
SYM
1002
{
1002
}
1000
Color
1070
     1
1070
     1
1002
{
1002
}
1000
LType
1070
     4
1000
BYLAYER
1002
{
1002
}
1002
}
1000
ALTR
1070
     9
1000
4
1002
{
1000
Class
1070
     4
1000

1002
{
1002
}
1000
Color
1070
     1
1070
     7
1002
{
1002
}
1000
LType
1070
     4
1000
GEN3A
1002
{
1002
}
1002
}
1000
BELI
1070
     9
1000
4
1002
{
1000
Class
1070
     4
1000

1002
{
1002
}
1000
Color
1070
     1
1070
   256
1002
{
1002
}
1000
LType
1070
     4
1000
BYLAYER
1002
{
1002
}
1002
}
1000
BHNV
1070
     9
1000
9
1002
{
1000
Class
1070
     4
1000
INV
1002
{
1002
}
1000
Color
1070
     1
1070
   256
1002
{
1002
}
1000
LType
1070
     4
1000
BYLAYER
1002
{
1002
}
1002
}
1000
BHNVS
1070
     9
1000
BEHIND
1002
{
1000
Class
1070
     4
1000
INV
1002
{
1002
}
1000
Color
1070
     1
1070
   256
1002
{
1002
}
1000
LType
1070
     4
1000
BYLAYER
1002
{
1002
}
1002
}
1000
BLID
1070
     9
1000
4A
1002
{
1000
Class
1070
     4
1000

1002
{
1002
}
1000
Color
1070
     1
1070
   256
1002
{
1002
}
1000
LType
1070
     4
1000
BYLAYER
1002
{
1002
}
1002
}
1000
BOAP
1070
     9
1000
4A
1002
{
1000
Class
1070
     4
1000

1002
{
1002
}
1000
Color
1070
     1
1070
   256
1002
{
1002
}
1000
LType
1070
     4
1000
BYLAYER
1002
{
1002
}
1002
}
1000
BOR2
1070
     9
1000
RAHM2
1002
{
1000
Class
1070
     4
1000
SPZ,SYM
1002
{
1002
}
1000
Color
1070
     1
1070
   256
1002
{
1002
}
1000
LType
1070
     4
1000
BYLAYER
1002
{
1002
}
1002
}
1000
BOR3
1070
     9
1000
RAHM3
1002
{
1000
Class
1070
     4
1000
SPZ,SYM
1002
{
1002
}
1000
Color
1070
     1
1070
   256
1002
{
1002
}
1000
LType
1070
     4
1000
BYLAYER
1002
{
1002
}
1002
}
1000
BOR5
1070
     9
1000
RAHM5
1002
{
1000
Class
1070
     4
1000
SPZ,SYM
1002
{
1002
}
1000
Color
1070
     1
1070
   256
1002
{
1002
}
1000
LType
1070
     4
1000
BYLAYER
1002
{
1002
}
1002
}
1000
BOR7
1070
     9
1000
RAHM5
1002
{
1000
Class
1070
     4
1000
SPZ,SYM
1002
{
1002
}
1000
Color
1070
     1
1070
     7
1002
{
1002
}
1000
LType
1070
     4
1000
CONTINUOUS
1002
{
1002
}
1002
}
1000
BPAP
1070
     9
1000
4A
1002
{
1000
Class
1070
     4
1000

1002
{
1002
}
1000
Color
1070
     1
1070
   256
1002
{
1002
}
1000
LType
1070
     4
1000
BYLAYER
1002
{
1002
}
1002
}
1000
BPEX
1070
     9
1000
4A
1002
{
1000
Class
1070
     4
1000

1002
{
1002
}
1000
Color
1070
     1
1070
   256
1002
{
1002
}
1000
LType
1070
     4
1000
BYLAYER
1002
{
1002
}
1002
}
1000
BTDI
1070
     9
1000
5
1002
{
1000
Class
1070
     4
1000
DIM,SYM
1002
{
1002
}
1000
Color
1070
     1
1070
   256
1002
{
1002
}
1000
LType
1070
     4
1000
BYLAYER
1002
{
1002
}
1002
}
1000
CAL2
1070
     9
1000
4
1002
{
1000
Class
1070
     4
1000
SYM
1002
{
1002
}
1000
Color
1070
     1
1070
   256
1002
{
1002
}
1000
LType
1070
     4
1000
BYLAYER
1002
{
1002
}
1002
}
1000
CAL3
1070
     9
1000
4
1002
{
1000
Class
1070
     4
1000
SYM
1002
{
1002
}
1000
Color
1070
     1
1070
     2
1002
{
1002
}
1000
LType
1070
     4
1000
BYLAYER
1002
{
1002
}
1002
}
1000
CAL5
1070
     9
1000
4
1002
{
1000
Class
1070
     4
1000
SYM
1002
{
1002
}
1000
Color
1070
     1
1070
     7
1002
{
1002
}
1000
LType
1070
     4
1000
BYLAYER
1002
{
1002
}
1002
}
1000
CAL7
1070
     9
1000
4
1002
{
1000
Class
1070
     4
1000
SYM
1002
{
1002
}
1000
Color
1070
     1
1070
     5
1002
{
1002
}
1000
LType
1070
     4
1000
BYLAYER
1002
{
1002
}
1002
}
1000
CENN
1070
     9
1000
7A
1002
{
1000
Class
1070
     4
1000
CEN
1002
{
1002
}
1000
Color
1070
     1
1070
   256
1002
{
1002
}
1000
LType
1070
     4
1000
BYLAYER
1002
{
1002
}
1002
}
1000
CENW
1070
     9
1000
7
1002
{
1000
Class
1070
     4
1000
CEN
1002
{
1002
}
1000
Color
1070
     1
1070
   256
1002
{
1002
}
1000
LType
1070
     4
1000
BYLAYER
1002
{
1002
}
1002
}
1000
CLIN
1070
     9
1000
KLIN
1002
{
1000
Class
1070
     4
1000
SPZ
1002
{
1002
}
1000
Color
1070
     1
1070
   256
1002
{
1002
}
1000
LType
1070
     4
1000
BYLAYER
1002
{
1002
}
1002
}
1000
CON1
1070
     9
1000
0
1002
{
1000
Class
1070
     4
1000
CON,BGD
1002
{
1002
}
1000
Color
1070
     1
1070
   256
1002
{
1002
}
1000
LType
1070
     4
1000
BYLAYER
1002
{
1002
}
1002
}
1000
CON2
1070
     9
1000
1
1002
{
1000
Class
1070
     4
1000
CON,BGD
1002
{
1002
}
1000
Color
1070
     1
1070
   256
1002
{
1002
}
1000
LType
1070
     4
1000
BYLAYER
1002
{
1002
}
1002
}
1000
CON3
1070
     9
1000
2
1002
{
1000
Class
1070
     4
1000
CON,BGD
1002
{
1002
}
1000
Color
1070
     1
1070
   256
1002
{
1002
}
1000
LType
1070
     4
1000
BYLAYER
1002
{
1002
}
1002
}
1000
CON4
1070
     9
1000
2
1002
{
1000
Class
1070
     4
1000
CON,BGD
1002
{
1002
}
1000
Color
1070
     1
1070
   256
1002
{
1002
}
1000
LType
1070
     4
1000
BYLAYER
1002
{
1002
}
1002
}
1000
DERP
1070
     9
1000
4
1002
{
1000
Class
1070
     4
1000

1002
{
1002
}
1000
Color
1070
     1
1070
   256
1002
{
1002
}
1000
LType
1070
     4
1000
BYLAYER
1002
{
1002
}
1002
}
1000
DETA
1070
     9
1000
4
1002
{
1000
Class
1070
     4
1000

1002
{
1002
}
1000
Color
1070
     1
1070
   256
1002
{
1002
}
1000
LType
1070
     4
1000
BYLAYER
1002
{
1002
}
1002
}
1000
DIAG
1070
     9
1000
5
1002
{
1000
Class
1070
     4
1000
SYM
1002
{
1002
}
1000
Color
1070
     1
1070
   256
1002
{
1002
}
1000
LType
1070
     4
1000
BYLAYER
1002
{
1002
}
1002
}
1000
DILI
1070
     9
1000
5
1002
{
1000
Class
1070
     4
1000
DIM,SYM
1002
{
1002
}
1000
Color
1070
     1
1070
   256
1002
{
1002
}
1000
LType
1070
     4
1000
BYLAYER
1002
{
1002
}
1002
}
1000
DITO2
1070
     9
1000
5
1002
{
1000
Class
1070
     4
1000
DIM,SYM
1002
{
1002
}
1000
Color
1070
     1
1070
     3
1002
{
1002
}
1000
LType
1070
     4
1000
BYLAYER
1002
{
1002
}
1002
}
1000
DITO3
1070
     9
1000
5
1002
{
1000
Class
1070
     4
1000
DIM,SYM
1002
{
1002
}
1000
Color
1070
     1
1070
     2
1002
{
1002
}
1000
LType
1070
     4
1000
BYLAYER
1002
{
1002
}
1002
}
1000
DITX
1070
     9
1000
5
1002
{
1000
Class
1070
     4
1000
DIM,SYM
1002
{
1002
}
1000
Color
1070
     1
1070
     2
1002
{
1002
}
1000
LType
1070
     4
1000
CONTINUOUS
1002
{
1002
}
1002
}
1000
DIXL
1070
     9
1000
5
1002
{
1000
Class
1070
     4
1000
DIM,SYM
1002
{
1002
}
1000
Color
1070
     1
1070
   256
1002
{
1002
}
1000
LType
1070
     4
1000
BYLAYER
1002
{
1002
}
1002
}
1000
EXMP
1070
     9
1000
4A
1002
{
1000
Class
1070
     4
1000

1002
{
1002
}
1000
Color
1070
     1
1070
   256
1002
{
1002
}
1000
LType
1070
     4
1000
BYLAYER
1002
{
1002
}
1002
}
1000
FEMN
1070
     9
1000
8
1002
{
1000
Class
1070
     4
1000

1002
{
1002
}
1000
Color
1070
     1
1070
   256
1002
{
1002
}
1000
LType
1070
     4
1000
BYLAYER
1002
{
1002
}
1002
}
1000
FEMPN
1070
     9
1000
8
1002
{
1000
Class
1070
     4
1000
SYM
1002
{
1002
}
1000
Color
1070
     1
1070
     3
1002
{
1002
}
1000
LType
1070
     4
1000
BYLAYER
1002
{
1002
}
1002
}
1000
FEMSP
1070
     9
1000
4A
1002
{
1000
Class
1070
     4
1000

1002
{
1002
}
1000
Color
1070
     1
1070
   256
1002
{
1002
}
1000
LType
1070
     4
1000
CONTINUOUS
1002
{
1002
}
1002
}
1000
FEMST
1070
     9
1000
4A
1002
{
1000
Class
1070
     4
1000
SYM
1002
{
1002
}
1000
Color
1070
     1
1070
     3
1002
{
1002
}
1000
LType
1070
     4
1000
BYLAYER
1002
{
1002
}
1002
}
1000
FEMVN
1070
     9
1000
2
1002
{
1000
Class
1070
     4
1000
CON
1002
{
1002
}
1000
Color
1070
     1
1070
   256
1002
{
1002
}
1000
LType
1070
     4
1000
BYLAYER
1002
{
1002
}
1002
}
1000
FEMVT
1070
     9
1000
2
1002
{
1000
Class
1070
     4
1000
SYM
1002
{
1002
}
1000
Color
1070
     1
1070
     3
1002
{
1002
}
1000
LType
1070
     4
1000
BYLAYER
1002
{
1002
}
1002
}
1000
FLAT
1070
     9
1000
0
1002
{
1000
Class
1070
     4
1000

1002
{
1002
}
1000
Color
1070
     1
1070
   256
1002
{
1002
}
1000
LType
1070
     4
1000
BYLAYER
1002
{
1002
}
1002
}
1000
FRAR
1070
     9
1000
4A
1002
{
1000
Class
1070
     4
1000

1002
{
1002
}
1000
Color
1070
     1
1070
   256
1002
{
1002
}
1000
LType
1070
     4
1000
BYLAYER
1002
{
1002
}
1002
}
1000
GRLI
1070
     9
1000
5
1002
{
1000
Class
1070
     4
1000
SYM
1002
{
1002
}
1000
Color
1070
     1
1070
   256
1002
{
1002
}
1000
LType
1070
     4
1000
BYLAYER
1002
{
1002
}
1002
}
1000
GVLI
1070
     9
1000
4A
1002
{
1000
Class
1070
     4
1000

1002
{
1002
}
1000
Color
1070
     1
1070
   256
1002
{
1002
}
1000
LType
1070
     4
1000
BYLAYER
1002
{
1002
}
1002
}
1000
HATC
1070
     9
1000
8
1002
{
1000
Class
1070
     4
1000
HTC,BGD
1002
{
1002
}
1000
Color
1070
     1
1070
   256
1002
{
1002
}
1000
LType
1070
     4
1000
BYLAYER
1002
{
1002
}
1002
}
1000
HIDN
1070
     9
1000
3A
1002
{
1000
Class
1070
     4
1000
HID,BGD
1002
{
1002
}
1000
Color
1070
     1
1070
   256
1002
{
1002
}
1000
LType
1070
     4
1000
BYLAYER
1002
{
1002
}
1002
}
1000
HIDW
1070
     9
1000
3
1002
{
1000
Class
1070
     4
1000
HID,BGD
1002
{
1002
}
1000
Color
1070
     1
1070
   256
1002
{
1002
}
1000
LType
1070
     4
1000
BYLAYER
1002
{
1002
}
1002
}
1000
HLIN
1070
     9
1000
4
1002
{
1000
Class
1070
     4
1000
BGD
1002
{
1002
}
1000
Color
1070
     1
1070
   256
1002
{
1002
}
1000
LType
1070
     4
1000
BYLAYER
1002
{
1002
}
1002
}
1000
HOCN
1070
     9
1000
7A
1002
{
1000
Class
1070
     4
1000
CEN
1002
{
1002
}
1000
Color
1070
     1
1070
   256
1002
{
1002
}
1000
LType
1070
     4
1000
BYLAYER
1002
{
1002
}
1002
}
1000
HOCW
1070
     9
1000
7
1002
{
1000
Class
1070
     4
1000
CEN
1002
{
1002
}
1000
Color
1070
     1
1070
   256
1002
{
1002
}
1000
LType
1070
     4
1000
BYLAYER
1002
{
1002
}
1002
}
1000
INFO
1070
     9
1000
INFO
1002
{
1000
Class
1070
     4
1000
SPZ,SYM
1002
{
1002
}
1000
Color
1070
     1
1070
   256
1002
{
1002
}
1000
LType
1070
     4
1000
BYLAYER
1002
{
1002
}
1002
}
1000
LADI
1070
     9
1000
4
1002
{
1000
Class
1070
     4
1000
BGD
1002
{
1002
}
1000
Color
1070
     1
1070
   256
1002
{
1002
}
1000
LType
1070
     4
1000
BYLAYER
1002
{
1002
}
1002
}
1000
LEAD
1070
     9
1000
5
1002
{
1000
Class
1070
     4
1000
SYM
1002
{
1002
}
1000
Color
1070
     1
1070
   256
1002
{
1002
}
1000
LType
1070
     4
1000
BYLAYER
1002
{
1002
}
1002
}
1000
N_ADDL
1070
     9
1000
5N
1002
{
1000
Class
1070
     4
1000
SYM
1002
{
1002
}
1000
Color
1070
     1
1070
     1
1002
{
1002
}
1000
LType
1070
     4
1000
BYLAYER
1002
{
1002
}
1002
}
1000
N_BHNV
1070
     9
1000
9N
1002
{
1000
Class
1070
     4
1000
INV
1002
{
1002
}
1000
Color
1070
     1
1070
   256
1002
{
1002
}
1000
LType
1070
     4
1000
BYLAYER
1002
{
1002
}
1002
}
1000
N_CON1
1070
     9
1000
0N
1002
{
1000
Class
1070
     4
1000
CON,BGD
1002
{
1002
}
1000
Color
1070
     1
1070
   256
1002
{
1002
}
1000
LType
1070
     4
1000
BYLAYER
1002
{
1002
}
1002
}
1000
N_CON2
1070
     9
1000
1N
1002
{
1000
Class
1070
     4
1000
CON,BGD
1002
{
1002
}
1000
Color
1070
     1
1070
   256
1002
{
1002
}
1000
LType
1070
     4
1000
BYLAYER
1002
{
1002
}
1002
}
1000
N_CON3
1070
     9
1000
2N
1002
{
1000
Class
1070
     4
1000
CON,BGD
1002
{
1002
}
1000
Color
1070
     1
1070
   256
1002
{
1002
}
1000
LType
1070
     4
1000
BYLAYER
1002
{
1002
}
1002
}
1000
N_CON4
1070
     9
1000
2N
1002
{
1000
Class
1070
     4
1000
CON,BGD
1002
{
1002
}
1000
Color
1070
     1
1070
   256
1002
{
1002
}
1000
LType
1070
     4
1000
BYLAYER
1002
{
1002
}
1002
}
1000
N_CENN
1070
     9
1000
7AN
1002
{
1000
Class
1070
     4
1000
CEN
1002
{
1002
}
1000
Color
1070
     1
1070
   256
1002
{
1002
}
1000
LType
1070
     4
1000
BYLAYER
1002
{
1002
}
1002
}
1000
N_CENW
1070
     9
1000
7N
1002
{
1000
Class
1070
     4
1000
CEN
1002
{
1002
}
1000
Color
1070
     1
1070
   256
1002
{
1002
}
1000
LType
1070
     4
1000
BYLAYER
1002
{
1002
}
1002
}
1000
N_DILI
1070
     9
1000
5N
1002
{
1000
Class
1070
     4
1000
DIM,SYM
1002
{
1002
}
1000
Color
1070
     1
1070
   256
1002
{
1002
}
1000
LType
1070
     4
1000
BYLAYER
1002
{
1002
}
1002
}
1000
N_DITX
1070
     9
1000
5N
1002
{
1000
Class
1070
     4
1000
DIM,SYM
1002
{
1002
}
1000
Color
1070
     1
1070
     2
1002
{
1002
}
1000
LType
1070
     4
1000
CONTINUOUS
1002
{
1002
}
1002
}
1000
N_DIXL
1070
     9
1000
5N
1002
{
1000
Class
1070
     4
1000
DIM,SYM
1002
{
1002
}
1000
Color
1070
     1
1070
   256
1002
{
1002
}
1000
LType
1070
     4
1000
BYLAYER
1002
{
1002
}
1002
}
1000
N_HATC
1070
     9
1000
8N
1002
{
1000
Class
1070
     4
1000
HTC,BGD
1002
{
1002
}
1000
Color
1070
     1
1070
   256
1002
{
1002
}
1000
LType
1070
     4
1000
BYLAYER
1002
{
1002
}
1002
}
1000
N_HIDN
1070
     9
1000
3AN
1002
{
1000
Class
1070
     4
1000
HID,BGD
1002
{
1002
}
1000
Color
1070
     1
1070
   256
1002
{
1002
}
1000
LType
1070
     4
1000
BYLAYER
1002
{
1002
}
1002
}
1000
N_HIDW
1070
     9
1000
3N
1002
{
1000
Class
1070
     4
1000
HID,BGD
1002
{
1002
}
1000
Color
1070
     1
1070
   256
1002
{
1002
}
1000
LType
1070
     4
1000
BYLAYER
1002
{
1002
}
1002
}
1000
N_NGIP
1070
     9
1000
IPN
1002
{
1000
Class
1070
     4
1000

1002
{
1002
}
1000
Color
1070
     1
1070
   256
1002
{
1002
}
1000
LType
1070
     4
1000
BYLAYER
1002
{
1002
}
1002
}
1000
N_PHAN
1070
     9
1000
4AN
1002
{
1000
Class
1070
     4
1000

1002
{
1002
}
1000
Color
1070
     1
1070
   256
1002
{
1002
}
1000
LType
1070
     4
1000
BYLAYER
1002
{
1002
}
1002
}
1000
N_POSL
1070
     9
1000
5N
1002
{
1000
Class
1070
     4
1000
SYM
1002
{
1002
}
1000
Color
1070
     1
1070
   256
1002
{
1002
}
1000
LType
1070
     4
1000
BYLAYER
1002
{
1002
}
1002
}
1000
N_TCON
1070
     9
1000
0N
1002
{
1000
Class
1070
     4
1000
CON,BGD
1002
{
1002
}
1000
Color
1070
     1
1070
   256
1002
{
1002
}
1000
LType
1070
     4
1000
BYLAYER
1002
{
1002
}
1002
}
1000
N_THLI
1070
     9
1000
4N
1002
{
1000
Class
1070
     4
1000
BGD
1002
{
1002
}
1000
Color
1070
     1
1070
   256
1002
{
1002
}
1000
LType
1070
     4
1000
BYLAYER
1002
{
1002
}
1002
}
1000
N_TLEN
1070
     9
1000
0N
1002
{
1000
Class
1070
     4
1000
CON,BGD
1002
{
1002
}
1000
Color
1070
     1
1070
   256
1002
{
1002
}
1000
LType
1070
     4
1000
BYLAYER
1002
{
1002
}
1002
}
1000
N_TXT3
1070
     9
1000
6N
1002
{
1000
Class
1070
     4
1000
SYM
1002
{
1002
}
1000
Color
1070
     1
1070
   256
1002
{
1002
}
1000
LType
1070
     4
1000
BYLAYER
1002
{
1002
}
1002
}
1000
N_VPLI
1070
     9
1000
2AN
1002
{
1000
Class
1070
     4
1000

1002
{
1002
}
1000
Color
1070
     1
1070
   256
1002
{
1002
}
1000
LType
1070
     4
1000
BYLAYER
1002
{
1002
}
1002
}
1000
NGIP
1070
     9
1000
IP
1002
{
1000
Class
1070
     4
1000

1002
{
1002
}
1000
Color
1070
     1
1070
   256
1002
{
1002
}
1000
LType
1070
     4
1000
BYLAYER
1002
{
1002
}
1002
}
1000
PAL2
1070
     9
1000
RAHM2
1002
{
1000
Class
1070
     4
1000
SPZ,SYM
1002
{
1002
}
1000
Color
1070
     1
1070
   256
1002
{
1002
}
1000
LType
1070
     4
1000
BYLAYER
1002
{
1002
}
1002
}
1000
PAL3
1070
     9
1000
RAHM3
1002
{
1000
Class
1070
     4
1000
SPZ,SYM
1002
{
1002
}
1000
Color
1070
     1
1070
   256
1002
{
1002
}
1000
LType
1070
     4
1000
BYLAYER
1002
{
1002
}
1002
}
1000
PAL5
1070
     9
1000
RAHM5
1002
{
1000
Class
1070
     4
1000
SPZ,SYM
1002
{
1002
}
1000
Color
1070
     1
1070
   256
1002
{
1002
}
1000
LType
1070
     4
1000
BYLAYER
1002
{
1002
}
1002
}
1000
PAL7
1070
     9
1000
RAHM5
1002
{
1000
Class
1070
     4
1000
SPZ,SYM
1002
{
1002
}
1000
Color
1070
     1
1070
     7
1002
{
1002
}
1000
LType
1070
     4
1000
CONTINUOUS
1002
{
1002
}
1002
}
1000
PHAN
1070
     9
1000
4A
1002
{
1000
Class
1070
     4
1000

1002
{
1002
}
1000
Color
1070
     1
1070
   256
1002
{
1002
}
1000
LType
1070
     4
1000
BYLAYER
1002
{
1002
}
1002
}
1000
POSL
1070
     9
1000
5
1002
{
1000
Class
1070
     4
1000
SYM
1002
{
1002
}
1000
Color
1070
     1
1070
   256
1002
{
1002
}
1000
LType
1070
     4
1000
BYLAYER
1002
{
1002
}
1002
}
1000
POSN
1070
     9
1000
6
1002
{
1000
Class
1070
     4
1000
SYM
1002
{
1002
}
1000
Color
1070
     1
1070
     7
1002
{
1002
}
1000
LType
1070
     4
1000
BYLAYER
1002
{
1002
}
1002
}
1000
POSREF
1070
     9
1000
6
1002
{
1000
Class
1070
     4
1000
SYM
1002
{
1002
}
1000
Color
1070
     1
1070
     5
1002
{
1002
}
1000
LType
1070
     4
1000
BYLAYER
1002
{
1002
}
1002
}
1000
POSX
1070
     9
1000
5
1002
{
1000
Class
1070
     4
1000
SYM
1002
{
1002
}
1000
Color
1070
     1
1070
     2
1002
{
1002
}
1000
LType
1070
     4
1000
CONTINUOUS
1002
{
1002
}
1002
}
1000
PSEC
1070
     9
1000
4A
1002
{
1000
Class
1070
     4
1000

1002
{
1002
}
1000
Color
1070
     1
1070
   256
1002
{
1002
}
1000
LType
1070
     4
1000
BYLAYER
1002
{
1002
}
1002
}
1000
RCGN
1070
     9
1000
7A
1002
{
1000
Class
1070
     4
1000
CEN
1002
{
1002
}
1000
Color
1070
     1
1070
   256
1002
{
1002
}
1000
LType
1070
     4
1000
BYLAYER
1002
{
1002
}
1002
}
1000
RCGW
1070
     9
1000
7
1002
{
1000
Class
1070
     4
1000
CEN
1002
{
1002
}
1000
Color
1070
     1
1070
   256
1002
{
1002
}
1000
LType
1070
     4
1000
BYLAYER
1002
{
1002
}
1002
}
1000
RFDI
1070
     9
1000
4
1002
{
1000
Class
1070
     4
1000
BGD
1002
{
1002
}
1000
Color
1070
     1
1070
   256
1002
{
1002
}
1000
LType
1070
     4
1000
BYLAYER
1002
{
1002
}
1002
}
1000
RQTR
1070
     9
1000
4
1002
{
1000
Class
1070
     4
1000

1002
{
1002
}
1000
Color
1070
     1
1070
     7
1002
{
1002
}
1000
LType
1070
     4
1000
GEN7A
1002
{
1002
}
1002
}
1000
RSBO
1070
     9
1000
4
1002
{
1000
Class
1070
     4
1000
BGD
1002
{
1002
}
1000
Color
1070
     1
1070
   256
1002
{
1002
}
1000
LType
1070
     4
1000
BYLAYER
1002
{
1002
}
1002
}
1000
SBRK
1070
     9
1000
4
1002
{
1000
Class
1070
     4
1000
BGD
1002
{
1002
}
1000
Color
1070
     1
1070
   256
1002
{
1002
}
1000
LType
1070
     4
1000
BYLAYER
1002
{
1002
}
1002
}
1000
SCEN
1070
     9
1000
7
1002
{
1000
Class
1070
     4
1000

1002
{
1002
}
1000
Color
1070
     1
1070
   256
1002
{
1002
}
1000
LType
1070
     4
1000
CONTINUOUS
1002
{
1002
}
1002
}
1000
SECT
1070
     9
1000
4
1002
{
1000
Class
1070
     4
1000
BGD
1002
{
1002
}
1000
Color
1070
     1
1070
   256
1002
{
1002
}
1000
LType
1070
     4
1000
BYLAYER
1002
{
1002
}
1002
}
1000
SELN
1070
     9
1000
7A
1002
{
1000
Class
1070
     4
1000

1002
{
1002
}
1000
Color
1070
     1
1070
   256
1002
{
1002
}
1000
LType
1070
     4
1000
BYLAYER
1002
{
1002
}
1002
}
1000
SELW
1070
     9
1000
7
1002
{
1000
Class
1070
     4
1000

1002
{
1002
}
1000
Color
1070
     1
1070
   256
1002
{
1002
}
1000
LType
1070
     4
1000
BYLAYER
1002
{
1002
}
1002
}
1000
SSYS
1070
     9
1000
0
1002
{
1000
Class
1070
     4
1000

1002
{
1002
}
1000
Color
1070
     1
1070
   256
1002
{
1002
}
1000
LType
1070
     4
1000
BYLAYER
1002
{
1002
}
1002
}
1000
STLI
1070
     9
1000
4
1002
{
1000
Class
1070
     4
1000

1002
{
1002
}
1000
Color
1070
     1
1070
     7
1002
{
1002
}
1000
LType
1070
     4
1000
GEN3A
1002
{
1002
}
1002
}
1000
SYB1
1070
     9
1000
5
1002
{
1000
Class
1070
     4
1000
SYM
1002
{
1002
}
1000
Color
1070
     1
1070
   256
1002
{
1002
}
1000
LType
1070
     4
1000
BYLAYER
1002
{
1002
}
1002
}
1000
SYB2
1070
     9
1000
5
1002
{
1000
Class
1070
     4
1000
SYM
1002
{
1002
}
1000
Color
1070
     1
1070
   256
1002
{
1002
}
1000
LType
1070
     4
1000
BYLAYER
1002
{
1002
}
1002
}
1000
SYB3
1070
     9
1000
6
1002
{
1000
Class
1070
     4
1000
SYM
1002
{
1002
}
1000
Color
1070
     1
1070
   256
1002
{
1002
}
1000
LType
1070
     4
1000
CONTINUOUS
1002
{
1002
}
1002
}
1000
SYB5
1070
     9
1000
5
1002
{
1000
Class
1070
     4
1000
SYM
1002
{
1002
}
1000
Color
1070
     1
1070
     7
1002
{
1002
}
1000
LType
1070
     4
1000
BYLAYER
1002
{
1002
}
1002
}
1000
SYMN
1070
     9
1000
7A
1002
{
1000
Class
1070
     4
1000
CEN
1002
{
1002
}
1000
Color
1070
     1
1070
   256
1002
{
1002
}
1000
LType
1070
     4
1000
BYLAYER
1002
{
1002
}
1002
}
1000
SYMW
1070
     9
1000
7
1002
{
1000
Class
1070
     4
1000
CEN
1002
{
1002
}
1000
Color
1070
     1
1070
   256
1002
{
1002
}
1000
LType
1070
     4
1000
BYLAYER
1002
{
1002
}
1002
}
1000
TCON
1070
     9
1000
0
1002
{
1000
Class
1070
     4
1000
CON,BGD
1002
{
1002
}
1000
Color
1070
     1
1070
   256
1002
{
1002
}
1000
LType
1070
     4
1000
BYLAYER
1002
{
1002
}
1002
}
1000
THLI
1070
     9
1000
4
1002
{
1000
Class
1070
     4
1000
BGD
1002
{
1002
}
1000
Color
1070
     1
1070
   256
1002
{
1002
}
1000
LType
1070
     4
1000
BYLAYER
1002
{
1002
}
1002
}
1000
TIT2
1070
     9
1000
RAHM2
1002
{
1000
Class
1070
     4
1000
SPZ,SYM
1002
{
1002
}
1000
Color
1070
     1
1070
   256
1002
{
1002
}
1000
LType
1070
     4
1000
BYLAYER
1002
{
1002
}
1002
}
1000
TIT3
1070
     9
1000
RAHM3
1002
{
1000
Class
1070
     4
1000
SPZ,SYM
1002
{
1002
}
1000
Color
1070
     1
1070
   256
1002
{
1002
}
1000
LType
1070
     4
1000
BYLAYER
1002
{
1002
}
1002
}
1000
TIT5
1070
     9
1000
RAHM5
1002
{
1000
Class
1070
     4
1000
SPZ,SYM
1002
{
1002
}
1000
Color
1070
     1
1070
   256
1002
{
1002
}
1000
LType
1070
     4
1000
BYLAYER
1002
{
1002
}
1002
}
1000
TIT7
1070
     9
1000
RAHM5
1002
{
1000
Class
1070
     4
1000
SPZ,SYM
1002
{
1002
}
1000
Color
1070
     1
1070
     7
1002
{
1002
}
1000
LType
1070
     4
1000
CONTINUOUS
1002
{
1002
}
1002
}
1000
TLEN
1070
     9
1000
0
1002
{
1000
Class
1070
     4
1000
CON,BGD
1002
{
1002
}
1000
Color
1070
     1
1070
   256
1002
{
1002
}
1000
LType
1070
     4
1000
BYLAYER
1002
{
1002
}
1002
}
1000
TRKN
1070
     9
1000
7A
1002
{
1000
Class
1070
     4
1000

1002
{
1002
}
1000
Color
1070
     1
1070
   256
1002
{
1002
}
1000
LType
1070
     4
1000
BYLAYER
1002
{
1002
}
1002
}
1000
TRKW
1070
     9
1000
7
1002
{
1000
Class
1070
     4
1000

1002
{
1002
}
1000
Color
1070
     1
1070
   256
1002
{
1002
}
1000
LType
1070
     4
1000
BYLAYER
1002
{
1002
}
1002
}
1000
TRLI
1070
     9
1000
4
1002
{
1000
Class
1070
     4
1000
BGD
1002
{
1002
}
1000
Color
1070
     1
1070
   256
1002
{
1002
}
1000
LType
1070
     4
1000
BYLAYER
1002
{
1002
}
1002
}
1000
TXT1
1070
     9
1000
6
1002
{
1000
Class
1070
     4
1000
SYM
1002
{
1002
}
1000
Color
1070
     1
1070
     2
1002
{
1002
}
1000
LType
1070
     4
1000
BYLAYER
1002
{
1002
}
1002
}
1000
TXT2
1070
     9
1000
6
1002
{
1000
Class
1070
     4
1000
SYM
1002
{
1002
}
1000
Color
1070
     1
1070
     2
1002
{
1002
}
1000
LType
1070
     4
1000
BYLAYER
1002
{
1002
}
1002
}
1000
TXT3
1070
     9
1000
6
1002
{
1000
Class
1070
     4
1000
SYM
1002
{
1002
}
1000
Color
1070
     1
1070
   256
1002
{
1002
}
1000
LType
1070
     4
1000
BYLAYER
1002
{
1002
}
1002
}
1000
TXT5
1070
     9
1000
6
1002
{
1000
Class
1070
     4
1000
SYM
1002
{
1002
}
1000
Color
1070
     1
1070
     7
1002
{
1002
}
1000
LType
1070
     4
1000
BYLAYER
1002
{
1002
}
1002
}
1000
TXT7
1070
     9
1000
6
1002
{
1000
Class
1070
     4
1000
SYM
1002
{
1002
}
1000
Color
1070
     1
1070
     7
1002
{
1002
}
1000
LType
1070
     4
1000
BYLAYER
1002
{
1002
}
1002
}
1000
VIEW
1070
     9
1000
VIEW
1002
{
1000
Class
1070
     4
1000
SPZ
1002
{
1002
}
1000
Color
1070
     1
1070
   256
1002
{
1002
}
1000
LType
1070
     4
1000
BYLAYER
1002
{
1002
}
1002
}
1000
VPLI
1070
     9
1000
2A
1002
{
1000
Class
1070
     4
1000

1002
{
1002
}
1000
Color
1070
     1
1070
   256
1002
{
1002
}
1000
LType
1070
     4
1000
BYLAYER
1002
{
1002
}
1002
}
1000
ZIZA
1070
     9
1000
4
1002
{
1000
Class
1070
     4
1000
BGD
1002
{
1002
}
1000
Color
1070
     1
1070
   256
1002
{
1002
}
1000
LType
1070
     4
1000
GENZIGZAG
1002
{
1002
}
1002
}
  0
APPID
  5
162B
330
15E7
100
AcDbSymbolTableRecord
100
AcDbRegAppTableRecord
  2
GENIUS_GENCFG4_13
 70
     0
1001
GENIUS_GENCFG_13
1071
1023340689
1000
162B
1000
GEN
1070
     9
1000
GenCfgObject
1000
GenCfgShort
1000
GenCfgReal
1000
GenCfgBool
1000
GenCfgString
1000
GenCfgDim
1000
GenCfgLaySection
1000
GenCfgLType
1000
GenCfgFilter
1000
Balloon
1070
     0
1002
{
1000
GenIF
1070
     1
1070
     0
1002
{
1002
}
1000
GenPosInc
1070
     1
1070
     1
1002
{
1002
}
1000
GenPosBlk
1070
     1
1070
     8
1002
{
1002
}
1000
GenPosVar
1070
     1
1070
     0
1002
{
1002
}
1000
GenZiCir
1070
     2
1040
1.5
1002
{
1002
}
1000
MaxCharForCenteredText
1070
     1
1070
    30
1002
{
1002
}
1000
Snap
1070
     0
1002
{
1000
ActivationRadius
1070
     2
1040
1.0
1002
{
1002
}
1000
M
1070
     0
1002
{
1000
SnapStepX
1070
     2
1040
20.0
1002
{
1002
}
1000
SnapStepY
1070
     2
1040
10.0
1002
{
1002
}
1002
}
1000
I
1070
     0
1002
{
1000
SnapStepX
1070
     2
1040
1.0
1002
{
1002
}
1000
SnapStepY
1070
     2
1040
0.5
1002
{
1002
}
1002
}
1002
}
1002
}
1000
Centerline
1070
     0
1002
{
1000
ScaleNot
1070
     3
1070
     0
1002
{
1002
}
1000
M
1070
     0
1002
{
1000
GenCenAng
1070
     4
1000
45|90|135
1002
{
1002
}
1000
GenCenDia
1070
     2
1040
10.0
1002
{
1002
}
1000
GenCenDias
1070
     4
1000
10|20|30
1002
{
1002
}
1000
GenCenDist
1070
     2
1040
3.0
1002
{
1002
}
1000
GenCenLen
1070
     2
1040
10.0
1002
{
1002
}
1000
GenCenOff
1070
     2
1040
10.0
1002
{
1002
}
1002
}
1000
I
1070
     0
1002
{
1000
GenCenAng
1070
     4
1000
45|90|135
1002
{
1002
}
1000
GenCenDia
1070
     2
1040
0.5
1002
{
1002
}
1000
GenCenDias
1070
     4
1000
0.5|1.0|1.5
1002
{
1002
}
1000
GenCenDist
1070
     2
1040
0.125
1002
{
1002
}
1000
GenCenLen
1070
     2
1040
0.5
1002
{
1002
}
1000
GenCenOff
1070
     2
1040
0.5
1002
{
1002
}
1002
}
1002
}
1000
CLine
1070
     0
1002
{
1000
CAngArray
1070
     4
1000
30|45|60
1002
{
1002
}
1000
Typ
1070
     4
1000
XLINE
1002
{
1002
}
1000
M
1070
     0
1002
{
1000
CLinArray
1070
     4
1000
10|20|30
1002
{
1002
}
1002
}
1000
I
1070
     0
1002
{
1000
CLinArray
1070
     4
1000
0.125|0.25|0.5
1002
{
1002
}
1002
}
1002
}
1000
Detail
1070
     0
1002
{
1002
}
1000
Dimension
1070
     5
1002
{
1000
DIMALT
1070
     1
1070
     0
1002
{
1002
}
1000
DIMALTD
1070
     1
1070
     2
1002
{
1002
}
1000
DIMALTTD
1070
     1
1070
     4
1002
{
1002
}
1000
DIMALTTZ
1070
     1
1070
     0
1002
{
1002
}
1000
DIMALTU
1070
     1
1070
     2
1002
{
1002
}
1000
DIMALTZ
1070
     1
1070
     0
1002
{
1002
}
1000
DIMAUNIT
1070
     1
1070
     0
1002
{
1002
}
1000
DIMBLK
1070
     4
1000

1002
{
1002
}
1000
DIMBLK1
1070
     4
1000

1002
{
1002
}
1000
DIMBLK2
1070
     4
1000

1002
{
1002
}
1000
DIMCLRD
1070
     1
1070
   256
1002
{
1002
}
1000
DIMCLRE
1070
     1
1070
   256
1002
{
1002
}
1000
DIMCLRT
1070
     1
1070
     2
1002
{
1002
}
1000
DIMDLE
1070
     2
1040
0.0
1002
{
1002
}
1000
DIMFIT
1070
     1
1070
     3
1002
{
1002
}
1000
DIMJUST
1070
     1
1070
     0
1002
{
1002
}
1000
DIMLFAC
1070
     2
1040
1.0
1002
{
1002
}
1000
DIMLIM
1070
     1
1070
     0
1002
{
1002
}
1000
DIMPOST
1070
     4
1000

1002
{
1002
}
1000
DIMRND
1070
     2
1040
0.0
1002
{
1002
}
1000
DIMSAH
1070
     1
1070
     0
1002
{
1002
}
1000
DIMSCALE
1070
     2
1040
1.0
1002
{
1002
}
1000
DIMSD1
1070
     1
1070
     0
1002
{
1002
}
1000
DIMSD2
1070
     1
1070
     0
1002
{
1002
}
1000
DIMSE1
1070
     1
1070
     0
1002
{
1002
}
1000
DIMSE2
1070
     1
1070
     0
1002
{
1002
}
1000
DIMSOXD
1070
     1
1070
     0
1002
{
1002
}
1000
DIMTAD
1070
     1
1070
     0
1002
{
1002
}
1000
DIMTFAC
1070
     2
1040
0.71
1002
{
1002
}
1000
DIMTIH
1070
     1
1070
     0
1002
{
1002
}
1000
DIMTIX
1070
     1
1070
     0
1002
{
1002
}
1000
DIMTM
1070
     2
1040
0.1
1002
{
1002
}
1000
DIMTOFL
1070
     1
1070
     0
1002
{
1002
}
1000
DIMTOH
1070
     1
1070
     0
1002
{
1002
}
1000
DIMTOL
1070
     1
1070
     0
1002
{
1002
}
1000
DIMTOLJ
1070
     1
1070
     1
1002
{
1002
}
1000
DIMTP
1070
     2
1040
0.1
1002
{
1002
}
1000
DIMTSZ
1070
     2
1040
0.0
1002
{
1002
}
1000
DIMTVP
1070
     2
1040
0.0
1002
{
1002
}
1000
DIMTXSTY
1070
     4
1000
STANDARD
1002
{
1002
}
1000
DIMTZIN
1070
     1
1070
     0
1002
{
1002
}
1000
DIMUNIT
1070
     1
1070
     2
1002
{
1002
}
1000
DIMUPT
1070
     1
1070
     0
1002
{
1002
}
1000
M
1070
     0
1002
{
1000
DIMALTF
1070
     2
1040
0.03937
1002
{
1002
}
1000
DIMAPOST
1070
     4
1000
"
1002
{
1002
}
1000
DIMASZ
1070
     2
1040
2.5
1002
{
1002
}
1000
DIMCEN
1070
     2
1040
0.0
1002
{
1002
}
1000
DIMDEC
1070
     1
1070
     2
1002
{
1002
}
1000
DIMDLI
1070
     2
1040
7.0
1002
{
1002
}
1000
DIMEXE
1070
     2
1040
1.0
1002
{
1002
}
1000
DIMEXO
1070
     2
1040
1.0
1002
{
1002
}
1000
DIMGAP
1070
     2
1040
0.6
1002
{
1002
}
1000
DIMTDEC
1070
     1
1070
     3
1002
{
1002
}
1000
DIMTXT
1070
     2
1040
3.5
1002
{
1002
}
1000
DIMZIN
1070
     1
1070
     8
1002
{
1002
}
1002
}
1000
I
1070
     0
1002
{
1000
DIMALTF
1070
     2
1040
25.4
1002
{
1002
}
1000
DIMAPOST
1070
     4
1000
mm
1002
{
1002
}
1000
DIMASZ
1070
     2
1040
0.1
1002
{
1002
}
1000
DIMCEN
1070
     2
1040
0.0
1002
{
1002
}
1000
DIMDEC
1070
     1
1070
     4
1002
{
1002
}
1000
DIMDLI
1070
     2
1040
0.5
1002
{
1002
}
1000
DIMEXE
1070
     2
1040
0.1
1002
{
1002
}
1000
DIMEXO
1070
     2
1040
0.05
1002
{
1002
}
1000
DIMGAP
1070
     2
1040
0.06
1002
{
1002
}
1000
DIMTDEC
1070
     1
1070
     4
1002
{
1002
}
1000
DIMTXT
1070
     2
1040
0.12
1002
{
1002
}
1000
DIMZIN
1070
     1
1070
     7
1002
{
1002
}
1002
}
1000
GEN-ISO
1070
     5
1002
{
1000
NAME
1070
     4
1000
GEN-ISO
1002
{
1002
}
1000
DIMTAD
1070
     1
1070
     1
1002
{
1002
}
1000
DIMTOLJ
1070
     1
1070
     0
1002
{
1002
}
1000
DIMTOFL
1070
     1
1070
     1
1002
{
1002
}
1000
M
1070
     0
1002
{
1002
}
1000
I
1070
     0
1002
{
1002
}
1002
}
1000
GEN-ISO-POS
1070
     5
1002
{
1000
NAME
1070
     4
1000
GEN-ISO-POS
1002
{
1002
}
1000
DIMTOLJ
1070
     1
1070
     0
1002
{
1002
}
1000
DIMTXSTY
1070
     4
1000
STANDARD
1002
{
1002
}
1000
M
1070
     0
1002
{
1000
DIMASZ
1070
     2
1040
2.5
1002
{
1002
}
1000
DIMGAP
1070
     2
1040
1.5
1002
{
1002
}
1000
DIMTXT
1070
     2
1040
5.0
1002
{
1002
}
1002
}
1000
I
1070
     0
1002
{
1000
DIMASZ
1070
     2
1040
0.1
1002
{
1002
}
1000
DIMGAP
1070
     2
1040
0.06
1002
{
1002
}
1000
DIMTXT
1070
     2
1040
0.2
1002
{
1002
}
1002
}
1002
}
1000
GEN-ISO-CIR
1070
     5
1002
{
1000
NAME
1070
     4
1000
GEN-ISO$3
1002
{
1002
}
1000
DIMFIT
1070
     1
1070
     0
1002
{
1002
}
1000
DIMTAD
1070
     1
1070
     1
1002
{
1002
}
1000
DIMTOH
1070
     1
1070
     1
1002
{
1002
}
1000
DIMTOLJ
1070
     1
1070
     0
1002
{
1002
}
1000
DIMUPT
1070
     1
1070
     1
1002
{
1002
}
1000
M
1070
     0
1002
{
1002
}
1000
I
1070
     0
1002
{
1002
}
1002
}
1000
GEN-ISO-RAD
1070
     5
1002
{
1000
NAME
1070
     4
1000
GEN-ISO$4
1002
{
1002
}
1000
DIMFIT
1070
     1
1070
     0
1002
{
1002
}
1000
DIMTAD
1070
     1
1070
     1
1002
{
1002
}
1000
DIMTIH
1070
     1
1070
     0
1002
{
1002
}
1000
DIMTIX
1070
     1
1070
     0
1002
{
1002
}
1000
DIMTOH
1070
     1
1070
     1
1002
{
1002
}
1000
DIMTOLJ
1070
     1
1070
     0
1002
{
1002
}
1000
DIMTOFL
1070
     1
1070
     0
1002
{
1002
}
1000
DIMUPT
1070
     1
1070
     1
1002
{
1002
}
1000
M
1070
     0
1002
{
1002
}
1000
I
1070
     0
1002
{
1002
}
1002
}
1000
GEN-ISO-ORD
1070
     5
1002
{
1000
NAME
1070
     4
1000
GEN-ISO$6
1002
{
1002
}
1000
DIMTOLJ
1070
     1
1070
     0
1002
{
1002
}
1000
M
1070
     0
1002
{
1002
}
1000
I
1070
     0
1002
{
1002
}
1002
}
1000
GEN-ISO-AXE-F
1070
     5
1002
{
1000
NAME
1070
     4
1000
GEN-ISO-AXE-F
1002
{
1002
}
1000
DIMSE1
1070
     1
1070
     1
1002
{
1002
}
1000
DIMSE2
1070
     1
1070
     1
1002
{
1002
}
1000
DIMTAD
1070
     1
1070
     1
1002
{
1002
}
1000
DIMTOLJ
1070
     1
1070
     0
1002
{
1002
}
1000
DIMTOFL
1070
     1
1070
     1
1002
{
1002
}
1000
M
1070
     0
1002
{
1002
}
1000
I
1070
     0
1002
{
1002
}
1002
}
1000
GEN-ISO-AXE-H
1070
     5
1002
{
1000
NAME
1070
     4
1000
GEN-ISO-AXE-H
1002
{
1002
}
1000
DIMBLK1
1070
     4
1000
GENAXEH
1002
{
1002
}
1000
DIMLFAC
1070
     2
1040
2.0
1002
{
1002
}
1000
DIMSAH
1070
     1
1070
     1
1002
{
1002
}
1000
DIMSE1
1070
     1
1070
     1
1002
{
1002
}
1000
DIMSE2
1070
     1
1070
     1
1002
{
1002
}
1000
DIMTAD
1070
     1
1070
     1
1002
{
1002
}
1000
DIMTOLJ
1070
     1
1070
     0
1002
{
1002
}
1000
DIMTOFL
1070
     1
1070
     1
1002
{
1002
}
1000
M
1070
     0
1002
{
1002
}
1000
I
1070
     0
1002
{
1002
}
1002
}
1000
GEN-ANSI
1070
     5
1002
{
1000
NAME
1070
     4
1000
GEN-ANSI
1002
{
1002
}
1000
DIMTIH
1070
     1
1070
     1
1002
{
1002
}
1000
DIMTOH
1070
     1
1070
     1
1002
{
1002
}
1000
DIMTAD
1070
     1
1070
     0
1002
{
1002
}
1000
DIMTOLJ
1070
     1
1070
     1
1002
{
1002
}
1000
M
1070
     0
1002
{
1002
}
1000
I
1070
     0
1002
{
1002
}
1002
}
1000
GEN-ANSI-POS
1070
     5
1002
{
1000
NAME
1070
     4
1000
GEN-ANSI-POS
1002
{
1002
}
1000
DIMTOLJ
1070
     1
1070
     1
1002
{
1002
}
1000
DIMTXSTY
1070
     4
1000
STANDARD
1002
{
1002
}
1000
M
1070
     0
1002
{
1000
DIMASZ
1070
     2
1040
2.5
1002
{
1002
}
1000
DIMGAP
1070
     2
1040
1.5
1002
{
1002
}
1000
DIMTXT
1070
     2
1040
5.0
1002
{
1002
}
1002
}
1000
I
1070
     0
1002
{
1000
DIMASZ
1070
     2
1040
0.1
1002
{
1002
}
1000
DIMGAP
1070
     2
1040
0.06
1002
{
1002
}
1000
DIMTXT
1070
     2
1040
0.2
1002
{
1002
}
1002
}
1002
}
1000
GEN-ANSI-CIR
1070
     5
1002
{
1000
NAME
1070
     4
1000
GEN-ANSI$3
1002
{
1002
}
1000
DIMFIT
1070
     1
1070
     0
1002
{
1002
}
1000
DIMTAD
1070
     1
1070
     0
1002
{
1002
}
1000
DIMTIH
1070
     1
1070
     1
1002
{
1002
}
1000
DIMTIX
1070
     1
1070
     0
1002
{
1002
}
1000
DIMTOFL
1070
     1
1070
     0
1002
{
1002
}
1000
DIMTOH
1070
     1
1070
     1
1002
{
1002
}
1000
DIMTOLJ
1070
     1
1070
     1
1002
{
1002
}
1000
DIMUPT
1070
     1
1070
     1
1002
{
1002
}
1000
M
1070
     0
1002
{
1002
}
1000
I
1070
     0
1002
{
1002
}
1002
}
1000
GEN-ANSI-RAD
1070
     5
1002
{
1000
NAME
1070
     4
1000
GEN-ANSI$4
1002
{
1002
}
1000
DIMFIT
1070
     1
1070
     0
1002
{
1002
}
1000
DIMTAD
1070
     1
1070
     0
1002
{
1002
}
1000
DIMTIH
1070
     1
1070
     1
1002
{
1002
}
1000
DIMTIX
1070
     1
1070
     0
1002
{
1002
}
1000
DIMTOFL
1070
     1
1070
     0
1002
{
1002
}
1000
DIMTOH
1070
     1
1070
     1
1002
{
1002
}
1000
DIMTOLJ
1070
     1
1070
     1
1002
{
1002
}
1000
DIMUPT
1070
     1
1070
     1
1002
{
1002
}
1000
M
1070
     0
1002
{
1002
}
1000
I
1070
     0
1002
{
1002
}
1002
}
1000
GEN-ANSI-ORD
1070
     5
1002
{
1000
NAME
1070
     4
1000
GEN-ANSI$6
1002
{
1002
}
1000
DIMTAD
1070
     1
1070
     0
1002
{
1002
}
1000
DIMTIH
1070
     1
1070
     1
1002
{
1002
}
1000
DIMTOH
1070
     1
1070
     1
1002
{
1002
}
1000
DIMTOLJ
1070
     1
1070
     1
1002
{
1002
}
1000
M
1070
     0
1002
{
1002
}
1000
I
1070
     0
1002
{
1002
}
1002
}
1000
GEN-ANSI-AXE-F
1070
     5
1002
{
1000
NAME
1070
     4
1000
GEN-ANSI-AXE-F
1002
{
1002
}
1000
DIMBLK1
1070
     4
1000
GENAXEH
1002
{
1002
}
1000
DIMSAH
1070
     1
1070
     1
1002
{
1002
}
1000
DIMSE1
1070
     1
1070
     1
1002
{
1002
}
1000
DIMSE2
1070
     1
1070
     1
1002
{
1002
}
1000
DIMTAD
1070
     1
1070
     0
1002
{
1002
}
1000
DIMTIH
1070
     1
1070
     1
1002
{
1002
}
1000
DIMTOH
1070
     1
1070
     1
1002
{
1002
}
1000
DIMTOLJ
1070
     1
1070
     1
1002
{
1002
}
1000
M
1070
     0
1002
{
1002
}
1000
I
1070
     0
1002
{
1002
}
1002
}
1000
GEN-ANSI-AXE-H
1070
     5
1002
{
1000
NAME
1070
     4
1000
GEN-ANSI-AXE-H
1002
{
1002
}
1000
DIMBLK1
1070
     4
1000
GENAXEH
1002
{
1002
}
1000
DIMLFAC
1070
     2
1040
2.0
1002
{
1002
}
1000
DIMSAH
1070
     1
1070
     1
1002
{
1002
}
1000
DIMSE1
1070
     1
1070
     1
1002
{
1002
}
1000
DIMSE2
1070
     1
1070
     1
1002
{
1002
}
1000
DIMTAD
1070
     1
1070
     0
1002
{
1002
}
1000
DIMTOFL
1070
     1
1070
     1
1002
{
1002
}
1000
DIMTOLJ
1070
     1
1070
     1
1002
{
1002
}
1000
M
1070
     0
1002
{
1002
}
1000
I
1070
     0
1002
{
1002
}
1002
}
1002
}
1000
DimSet
1070
     0
1002
{
1000
ChainSum
1070
     3
1070
     0
1002
{
1002
}
1000
DimDclTyp0
1070
     4
1000
dim23
1002
{
1002
}
1000
HorBra
1070
     3
1070
     0
1002
{
1002
}
1000
StrDia
1070
     4
1000
%%c<>
1002
{
1002
}
1000
StrRad
1070
     4
1000
R<>
1002
{
1002
}
1000
TextMinus
1070
     4
1000
<>
1002
{
1002
}
1000
TextPlus
1070
     4
1000
<>
1002
{
1002
}
1000
M
1070
     0
1002
{
1000
DimdliFirst
1070
     2
1040
10.0
1002
{
1002
}
1000
PointMakeDist
1070
     2
1040
10.0
1002
{
1002
}
1002
}
1000
I
1070
     0
1002
{
1000
DimdliFirst
1070
     2
1040
0.5
1002
{
1002
}
1000
PointMakeDist
1070
     2
1040
0.5
1002
{
1002
}
1002
}
1000
FitGrade
1070
     4
1000
h7
1002
{
1002
}
1002
}
1000
Drawing
1070
     0
1002
{
1000
ChamferDimMode
1070
     1
1070
     2
1002
{
1002
}
1000
Gen_Fiso
1070
    -3
1040
1.0
1002
{
1002
}
1000
GenDimStil
1070
     4
1000
ISO
1002
{
1002
}
1000
GenDwgUScale
1070
     2
1040
1.0
1002
{
1002
}
1000
GenInch
1070
     4
1000
M
1002
{
1002
}
1000
GenPlotScale
1070
     4
1000
1:5
1002
{
1002
}
1000
Revisi
1070
     4
1000
0
1002
{
1002
}
1000
Version
1070
    -5
1000
14.01/Apr  1 1998
1002
{
1002
}
1000
Platform
1070
    -5
1000
WINNT
1002
{
1002
}
1002
}
1000
DwgVar
1070
     0
1002
{
1000
M
1070
     0
1002
{
1002
}
1000
I
1070
     0
1002
{
1002
}
1002
}
1000
Hatch
1070
     0
1002
{
1000
GenHtcFlag
1070
     3
1070
     0
1002
{
1002
}
1002
}
1000
Info_Pos
1070
     0
1002
{
1000
>
1002
}
1000
Layer
1070
     6
1002
{
1000
Defs
1070
     0
1002
{
1000
>
1002
}
1000
EntSort
1070
     0
1002
{
1000
>
1002
}
1000
Match
1070
     0
1002
{
1002
}
1000
Settings
1070
     0
1002
{
1000
FocGrNC
1070
     3
1070
     0
1002
{
1002
}
1000
FocGrLo
1070
     3
1070
     0
1002
{
1002
}
1000
FocLoNC
1070
     3
1070
     0
1002
{
1002
}
1000
FocusCol
1070
     1
1070
   253
1002
{
1002
}
1000
GenStdLG
1070
     4
1000

1002
{
1002
}
1000
LayMatch
1070
     3
1070
     0
1002
{
1002
}
1000
LgOff
1070
     3
1070
     0
1002
{
1002
}
1000
CurLG
1070
    -5
1000

1002
{
1002
}
1002
}
1002
}
1000
LType
1070
     0
1002
{
1000
GEN3
1070
     7
1000
genius.lin
1002
{
1002
}
1000
GEN7
1070
     7
1000
genius.lin
1002
{
1002
}
1000
GEN4A
1070
     7
1000
genius.lin
1002
{
1002
}
1000
GEN3A
1070
     7
1000
genius.lin
1002
{
1002
}
1000
GEN7A
1070
     7
1000
genius.lin
1002
{
1002
}
1000
GENZIGZAG
1070
     7
1000
genius.lin
1002
{
1002
}
1002
}
1000
Objecter
1070
     0
1002
{
1000
CreateGroups
1070
     3
1070
     0
1002
{
1002
}
1000
LaySwitch
1070
     3
1070
     1
1002
{
1002
}
1000
LastObj
1070
    -5
1000
168A
1002
{
1002
}
1000
TimeStamp
1070
    -5
1000
20020606.07150729
1002
{
1002
}
1002
}
1000
OSWiz
1070
     0
1002
{
1000
Filter
1070
     0
1002
{
1000
HATCH
1070
     8
1002
{
1000
EntityType
1070
     4
1000
LINE
1002
{
1002
}
1000
Layer
1070
     4
1000
8,8N,*-8,*-8N
1002
{
1002
}
1000
Linetype
1070
     4
1000
*
1002
{
1002
}
1000
Color
1070
     4
1000
*
1002
{
1002
}
1000
ApplyInDims
1070
     3
1070
     1
1002
{
1002
}
1002
}
1000
SYMBOLS
1070
     8
1002
{
1000
EntityType
1070
     4
1000
*
1002
{
1002
}
1000
Layer
1070
     4
1000
[5-6],[5-6]N,*-[5-6],*-[5-6]N
1002
{
1002
}
1000
Linetype
1070
     4
1000
*
1002
{
1002
}
1000
Color
1070
     4
1000
*
1002
{
1002
}
1000
ApplyInDims
1070
     3
1070
     1
1002
{
1002
}
1002
}
1000
FEM
1070
     8
1002
{
1000
EntityType
1070
     4
1000
*
1002
{
1002
}
1000
Layer
1070
     4
1000
4A,4AN,*-4A,*-4AN
1002
{
1002
}
1000
Linetype
1070
     4
1000
*
1002
{
1002
}
1000
Color
1070
     4
1000
*
1002
{
1002
}
1000
ApplyInDims
1070
     3
1070
     1
1002
{
1002
}
1002
}
1002
}
1002
}
1000
PaList
1070
     0
1002
{
1000
AutoUpdatePartList
1070
     1
1070
     0
1002
{
1002
}
1000
ReadInfoPoint
1070
     3
1070
     0
1002
{
1002
}
1000
ReadPosNr
1070
     3
1070
     1
1002
{
1002
}
1000
RevStr
1070
     4
1000
0
1002
{
1002
}
1002
}
1000
Paper
1070
     0
1002
{
1002
}
1000
PartDB
1070
     0
1002
{
1000
GenDbOwner
1070
     4
1000

1002
{
1002
}
1002
}
1000
System
1070
     0
1002
{
1000
Menu
1070
     4
1000
GEV
1002
{
1002
}
1002
}
1000
Title
1070
     0
1002
{
1000
MakeView
1070
     1
1070
     2
1002
{
1002
}
1002
}
1000
Tools
1070
     0
1002
{
1000
Trans
1070
     0
1002
{
1000
Drawingtranslation
1070
    -4
1070
     1
1002
{
1002
}
1000
upreserve
1070
     3
1070
     0
1002
{
1002
}
1000
originally_on
1070
    -4
1070
     0
1002
{
1002
}
1000
sourcelang
1070
    -5
1000
D
1002
{
1002
}
1002
}
1002
}
  0
APPID
  5
162C
330
15E7
100
AcDbSymbolTableRecord
100
AcDbRegAppTableRecord
  2
GENIUS_GEVCFG0_13
 70
     0
1001
GENIUS_GENCFG_13
1071
1023340674
1000
162C
1000
GEV
1070
     1
1000
GenCfgObject
1000
VED
1070
     0
1002
{
1002
}
  0
APPID
  5
1659
330
15E7
100
AcDbSymbolTableRecord
100
AcDbRegAppTableRecord
  2
GENIUS_DUMCFG0_13
 70
     0
1001
GENIUS_GENCFG_13
1071
935996460
1000
1659
1000
DUM
1070
     0
  0
APPID
  5
165A
330
15E7
100
AcDbSymbolTableRecord
100
AcDbRegAppTableRecord
  2
GEV_VCCNULL_SWITCH_OFF
 70
     0
  0
APPID
  5
165B
330
15E7
100
AcDbSymbolTableRecord
100
AcDbRegAppTableRecord
  2
GENIUS_GENDTOL_13
 70
     0
  0
APPID
  5
165C
330
15E7
100
AcDbSymbolTableRecord
100
AcDbRegAppTableRecord
  2
GENIUS_GENBLLY_14
 70
     0
  0
APPID
  5
165D
330
15E7
100
AcDbSymbolTableRecord
100
AcDbRegAppTableRecord
  2
GENIUS_GENODEF_13
 70
     0
  0
APPID
  5
165E
330
15E7
100
AcDbSymbolTableRecord
100
AcDbRegAppTableRecord
  2
GENIUS_GENOBJ-N-CRS_13
 70
     0
  0
APPID
  5
165F
330
15E7
100
AcDbSymbolTableRecord
100
AcDbRegAppTableRecord
  2
GENIUS_GENOREF_13
 70
     0
  0
APPID
  5
1660
330
15E7
100
AcDbSymbolTableRecord
100
AcDbRegAppTableRecord
  2
GENIUS_GENOLIS_13
 70
     0
  0
APPID
  5
1661
330
15E7
100
AcDbSymbolTableRecord
100
AcDbRegAppTableRecord
  2
GENIUS_GEFCFG0_13
 70
     0
  0
APPID
  5
1662
330
15E7
100
AcDbSymbolTableRecord
100
AcDbRegAppTableRecord
  2
GENIUS_VERSION2
 70
     0
  0
APPID
  5
1663
330
15E7
100
AcDbSymbolTableRecord
100
AcDbRegAppTableRecord
  2
GENIUS_GENREC_14
 70
     0
  0
APPID
  5
1664
330
15E7
100
AcDbSymbolTableRecord
100
AcDbRegAppTableRecord
  2
GENIUS_GENOBJ-N-REC_13
 70
     0
  0
APPID
  5
1665
330
15E7
100
AcDbSymbolTableRecord
100
AcDbRegAppTableRecord
  2
GENIUS_GENOBJ-N-TIT_13
 70
     0
  0
APPID
  5
1666
330
15E7
100
AcDbSymbolTableRecord
100
AcDbRegAppTableRecord
  2
GENIUS_GENTITLE_13
 70
     0
  0
APPID
  5
1667
330
15E7
100
AcDbSymbolTableRecord
100
AcDbRegAppTableRecord
  2
GENIUS_GENZVEED_13
 70
     0
  0
APPID
  5
1668
330
15E7
100
AcDbSymbolTableRecord
100
AcDbRegAppTableRecord
  2
GENIUS_GENOBJ-N-SDF_13
 70
     0
  0
APPID
  5
1669
330
15E7
100
AcDbSymbolTableRecord
100
AcDbRegAppTableRecord
  2
GENIUS_GENSCREG_13
 70
     0
  0
APPID
  5
166A
330
15E7
100
AcDbSymbolTableRecord
100
AcDbRegAppTableRecord
  2
GENIUS_GENBLKED_14
 70
     0
  0
APPID
  5
182A
330
15E7
100
AcDbSymbolTableRecord
100
AcDbRegAppTableRecord
  2
GENIUS_GENOBJ-N-HTC_13
 70
     0
  0
APPID
  5
182B
330
15E7
100
AcDbSymbolTableRecord
100
AcDbRegAppTableRecord
  2
GENIUS_GENHATCH_13
 70
     0
  0
APPID
  5
197E
330
15E7
100
AcDbSymbolTableRecord
100
AcDbRegAppTableRecord
  2
MCAD_NO_VIS
 70
     0
  0
APPID
  5
197F
330
15E7
100
AcDbSymbolTableRecord
100
AcDbRegAppTableRecord
  2
ACAD_TEMP_GRAPHIC
 70
     0
  0
APPID
  5
19AF
330
15E7
100
AcDbSymbolTableRecord
100
AcDbRegAppTableRecord
  2
AD_DRAW
 70
     0
  0
APPID
  5
19B2
330
15E7
100
AcDbSymbolTableRecord
100
AcDbRegAppTableRecord
  2
ACATTRIBSERVICES
 70
     0
  0
APPID
  5
19D2
330
15E7
100
AcDbSymbolTableRecord
100
AcDbRegAppTableRecord
  2
DESIGNERASSEMBLIES
 70
     0
  0
APPID
  5
19D8
330
15E7
100
AcDbSymbolTableRecord
100
AcDbRegAppTableRecord
  2
ACADM_DIM_EDIT
 70
     0
  0
APPID
  5
19D9
330
15E7
100
AcDbSymbolTableRecord
100
AcDbRegAppTableRecord
  2
AMDT_DM_ADJ
 70
     0
  0
APPID
  5
1A0B
330
15E7
100
AcDbSymbolTableRecord
100
AcDbRegAppTableRecord
  2
ACAD_DSTYLE_DIMARC_LENGTH_SYMBOL
 70
     0
  0
APPID
  5
1A0C
330
15E7
100
AcDbSymbolTableRecord
100
AcDbRegAppTableRecord
  2
ACAD_DSTYLE_DIMJOGGED_JOGANGLE_SYMBOL
 70
     0
  0
APPID
  5
1A42
330
15E7
100
AcDbSymbolTableRecord
100
AcDbRegAppTableRecord
  2
AcAecLayerStandard
 70
     0
  0
ENDTAB
  0
TABLE
  2
DIMSTYLE
  5
15E8
330
0
100
AcDbSymbolTable
 70
     8
100
AcDbDimStyleTable
 71
     0
  0
DIMSTYLE
105
160F
102
{ACAD_REACTORS
330
1591
330
159A
330
15A4
330
15AE
330
15B9
102
}
330
15E8
100
AcDbSymbolTableRecord
100
AcDbDimStyleTableRecord
  2
GEN-ISO
 70
     0
  4
"
 40
5.0
 41
2.5
 42
1.0
 43
7.0
 44
1.0
 47
0.1
 48
0.1
 73
     0
 74
     0
 77
     1
 78
     8
140
3.5
141
0.0
143
0.03937
146
0.71
147
0.6
172
     1
176
   256
177
   256
178
     2
271
     2
272
     3
274
     4
283
     0
340
15ED
  0
DIMSTYLE
105
1A0A
330
15E8
100
AcDbSymbolTableRecord
100
AcDbDimStyleTableRecord
  2
AM_DIN
 70
     0
  4
"
 41
2.5
 42
1.0
 43
10.0
 44
1.0
 47
0.1
 48
0.1
 73
     0
 74
     0
 77
     1
 78
     8
 79
     2
140
3.5
141
0.0
143
0.0393701
146
0.71
147
1.5
172
     1
176
   256
177
   256
178
     2
271
     2
272
     3
274
     4
283
     0
284
     8
340
15ED
371
    -1
372
    -1
1001
ACAD_DSTYLE_DIMARC_LENGTH_SYMBOL
1070
   379
1070
     0
1001
ACAD_DSTYLE_DIMJOGGED_JOGANGLE_SYMBOL
1070
   384
1040
1.570796326794896
  0
DIMSTYLE
105
1A1B
330
15E8
100
AcDbSymbolTableRecord
100
AcDbDimStyleTableRecord
  2
AM_DIN$3
 70
     0
  4
"
 41
2.5
 42
1.0
 43
10.0
 44
1.0
 47
0.1
 48
0.1
 73
     0
 77
     1
 78
     8
 79
     2
140
3.5
141
0.0
143
0.0393701
146
0.71
147
1.5
176
   256
177
   256
178
     2
271
     2
272
     3
274
     4
283
     0
284
     8
288
     1
289
     0
340
15ED
371
    -1
372
    -1
1001
ACAD_DSTYLE_DIMARC_LENGTH_SYMBOL
1070
   379
1070
     0
1001
ACAD_DSTYLE_DIMJOGGED_JOGANGLE_SYMBOL
1070
   384
1040
1.570796326794896
  0
DIMSTYLE
105
1A20
330
15E8
100
AcDbSymbolTableRecord
100
AcDbDimStyleTableRecord
  2
AM_DIN$4
 70
     0
  4
"
 41
2.5
 42
1.0
 43
10.0
 44
1.0
 47
0.1
 48
0.1
 73
     0
 77
     1
 78
     8
 79
     2
140
3.5
141
0.0
143
0.0393701
146
0.71
147
1.5
176
   256
177
   256
178
     2
271
     2
272
     3
274
     4
283
     0
284
     8
288
     1
289
     0
340
15ED
371
    -1
372
    -1
1001
ACAD_DSTYLE_DIMARC_LENGTH_SYMBOL
1070
   379
1070
     0
1001
ACAD_DSTYLE_DIMJOGGED_JOGANGLE_SYMBOL
1070
   384
1040
1.570796326794896
  0
DIMSTYLE
105
1A25
330
15E8
100
AcDbSymbolTableRecord
100
AcDbDimStyleTableRecord
  2
AM_DIN$6
 70
     0
  4
"
 41
2.5
 42
1.0
 43
10.0
 44
1.0
 47
0.1
 48
0.1
 73
     0
 74
     0
 78
     8
 79
     2
140
3.5
141
0.0
143
0.0393701
146
0.71
147
1.5
172
     1
176
   256
177
   256
178
     2
271
     2
272
     3
274
     4
283
     0
284
     8
340
15ED
371
    -1
372
    -1
1001
ACAD_DSTYLE_DIMARC_LENGTH_SYMBOL
1070
   379
1070
     0
1001
ACAD_DSTYLE_DIMJOGGED_JOGANGLE_SYMBOL
1070
   384
1040
1.570796326794896
  0
DIMSTYLE
105
1A2A
330
15E8
100
AcDbSymbolTableRecord
100
AcDbDimStyleTableRecord
  2
AM_DIN$7
 70
     0
  4
"
 41
2.5
 42
1.0
 43
10.0
 44
1.0
 47
0.1
 48
0.1
 73
     0
 74
     0
 77
     1
 78
     8
 79
     2
140
5.0
141
0.0
143
0.0393701
146
0.71
147
1.5
172
     1
176
   256
177
   256
178
     2
271
     2
272
     3
274
     4
283
     0
284
     8
340
15ED
371
    -1
372
    -1
1001
ACAD_DSTYLE_DIMARC_LENGTH_SYMBOL
1070
   379
1070
     0
1001
ACAD_DSTYLE_DIMJOGGED_JOGANGLE_SYMBOL
1070
   384
1040
1.570796326794896
  0
DIMSTYLE
105
1A2F
330
15E8
100
AcDbSymbolTableRecord
100
AcDbDimStyleTableRecord
  2
AM_DIN$SF
 70
     0
  4
"
 41
2.5
 42
1.0
 43
10.0
 44
1.0
 47
0.1
 48
0.1
 73
     0
 74
     0
 75
     1
 76
     1
 77
     1
 78
     8
 79
     2
140
3.5
141
0.0
143
0.0393701
146
0.71
147
1.5
172
     1
176
   256
177
   256
178
     2
271
     2
272
     3
274
     4
283
     0
284
     8
340
15ED
371
    -1
372
    -1
1001
ACAD_DSTYLE_DIMARC_LENGTH_SYMBOL
1070
   379
1070
     0
1001
ACAD_DSTYLE_DIMJOGGED_JOGANGLE_SYMBOL
1070
   384
1040
1.570796326794896
  0
DIMSTYLE
105
1A38
330
15E8
100
AcDbSymbolTableRecord
100
AcDbDimStyleTableRecord
  2
AM_DIN$SH
 70
     0
  4
"
 41
2.5
 42
1.0
 43
10.0
 44
1.0
 47
0.1
 48
0.1
 73
     0
 74
     0
 75
     1
 76
     1
 77
     1
 78
     8
 79
     2
140
3.5
141
0.0
143
0.0393701
144
2.0
146
0.71
147
1.5
172
     1
173
     1
176
   256
177
   256
178
     2
271
     2
272
     3
274
     4
283
     0
284
     8
340
15ED
343
1A30
371
    -1
372
    -1
1001
ACAD_DSTYLE_DIMARC_LENGTH_SYMBOL
1070
   379
1070
     0
1001
ACAD_DSTYLE_DIMJOGGED_JOGANGLE_SYMBOL
1070
   384
1040
1.570796326794896
  0
ENDTAB
  0
TABLE
  2
BLOCK_RECORD
  5
15DF
330
0
100
AcDbSymbolTable
 70
    12
  0
BLOCK_RECORD
  5
15F6
330
15DF
100
AcDbSymbolTableRecord
100
AcDbBlockTableRecord
  2
*MODEL_SPACE
340
1976
  0
BLOCK_RECORD
  5
15F3
330
15DF
100
AcDbSymbolTableRecord
100
AcDbBlockTableRecord
  2
*PAPER_SPACE
340
1977
  0
BLOCK_RECORD
  5
1611
330
15DF
100
AcDbSymbolTableRecord
100
AcDbBlockTableRecord
  2
*X0
340
0
102
{BLKREFS
331
10B1
102
}
  0
BLOCK_RECORD
  5
1612
330
15DF
100
AcDbSymbolTableRecord
100
AcDbBlockTableRecord
  2
*X1
340
0
102
{BLKREFS
331
10D9
102
}
  0
BLOCK_RECORD
  5
1614
330
15DF
100
AcDbSymbolTableRecord
100
AcDbBlockTableRecord
  2
*X2
340
0
102
{BLKREFS
331
11DF
102
}
  0
BLOCK_RECORD
  5
1630
330
15DF
100
AcDbSymbolTableRecord
100
AcDbBlockTableRecord
  2
KATALOG_LEER
340
0
102
{BLKREFS
331
166C
331
1714
102
}
  0
BLOCK_RECORD
  5
166B
330
15DF
100
AcDbSymbolTableRecord
100
AcDbBlockTableRecord
  2
KATALOG
340
0
  0
BLOCK_RECORD
  5
168B
330
15DF
100
AcDbSymbolTableRecord
100
AcDbBlockTableRecord
  2
*D5
340
0
  0
BLOCK_RECORD
  5
1697
330
15DF
100
AcDbSymbolTableRecord
100
AcDbBlockTableRecord
  2
*D6
340
0
  0
BLOCK_RECORD
  5
16B2
330
15DF
100
AcDbSymbolTableRecord
100
AcDbBlockTableRecord
  2
*D7
340
0
  0
BLOCK_RECORD
  5
16C9
330
15DF
100
AcDbSymbolTableRecord
100
AcDbBlockTableRecord
  2
*D8
340
0
  0
BLOCK_RECORD
  5
16E0
330
15DF
100
AcDbSymbolTableRecord
100
AcDbBlockTableRecord
  2
*D9
340
0
  0
BLOCK_RECORD
  5
1A30
330
15DF
100
AcDbSymbolTableRecord
100
AcDbBlockTableRecord
  2
GENAXEH
340
0
  0
ENDTAB
  0
ENDSEC
  0
SECTION
  2
BLOCKS
  0
BLOCK
  5
15F7
330
15F6
100
AcDbEntity
  8
0
100
AcDbBlockBegin
  2
*MODEL_SPACE
 70
     0
 10
0.0
 20
0.0
 30
0.0
  3
*MODEL_SPACE
  1

  0
ENDBLK
  5
15F8
330
15F6
100
AcDbEntity
  8
0
100
AcDbBlockEnd
  0
BLOCK
  5
15F4
330
15F3
100
AcDbEntity
 67
     1
  8
0
100
AcDbBlockBegin
  2
*PAPER_SPACE
 70
     0
 10
0.0
 20
0.0
 30
0.0
  3
*PAPER_SPACE
  1

  0
ENDBLK
  5
15F5
330
15F3
100
AcDbEntity
 67
     1
  8
0
100
AcDbBlockEnd
  0
BLOCK
  5
10AC
330
1611
100
AcDbEntity
  8
0
100
AcDbBlockBegin
  2
*X0
 70
     1
 10
0.0
 20
0.0
 30
0.0
  3
*X0
  1

  0
LINE
  5
10AD
330
1611
100
AcDbEntity
  8
8
100
AcDbLine
 10
180.5059999999999
 20
514.6599999999999
 30
0.0
 11
188.139
 21
522.2919999999999
 31
0.0
  0
LINE
  5
10AE
330
1611
100
AcDbEntity
  8
8
100
AcDbLine
 10
178.452
 20
517.096
 30
0.0
 11
185.684
 21
524.3269999999999
 31
0.0
  0
LINE
  5
10AF
330
1611
100
AcDbEntity
  8
8
100
AcDbLine
 10
178.627
 20
521.7609999999999
 30
0.0
 11
181.013
 21
524.146
 31
0.0
  0
ENDBLK
  5
10B0
330
1611
100
AcDbEntity
  8
0
100
AcDbBlockEnd
  0
BLOCK
  5
10D4
330
1612
100
AcDbEntity
  8
0
100
AcDbBlockBegin
  2
*X1
 70
     1
 10
0.0
 20
0.0
 30
0.0
  3
*X1
  1

  0
LINE
  5
10D5
330
1612
100
AcDbEntity
  8
8
100
AcDbLine
 10
178.041
 20
519.62
 30
0.0
 11
183.855
 21
513.806
 31
0.0
  0
LINE
  5
10D6
330
1612
100
AcDbEntity
  8
8
100
AcDbLine
 10
179.313
 20
522.838
 30
0.0
 11
187.072
 21
515.079
 31
0.0
  0
LINE
  5
10D7
330
1612
100
AcDbEntity
  8
8
100
AcDbLine
 10
182.062
 20
524.579
 30
0.0
 11
188.852
 21
517.7889999999999
 31
0.0
  0
ENDBLK
  5
10D8
330
1612
100
AcDbEntity
  8
0
100
AcDbBlockEnd
  0
BLOCK
  5
11D7
330
1614
100
AcDbEntity
  8
0
100
AcDbBlockBegin
  2
*X2
 70
     1
 10
0.0
 20
0.0
 30
0.0
  3
*X2
  1

  0
LINE
  5
11D8
330
1614
100
AcDbEntity
  8
8
100
AcDbLine
 10
344.186
 20
514.1449999999999
 30
0.0
 11
351.249
 21
521.2080000000001
 31
0.0
  0
LINE
  5
11D9
330
1614
100
AcDbEntity
  8
8
100
AcDbLine
 10
341.6409999999999
 20
516.091
 30
0.0
 11
349.303
 21
523.753
 31
0.0
  0
LINE
  5
11DA
330
1614
100
AcDbEntity
  8
8
100
AcDbLine
 10
340.627
 20
519.5669999999999
 30
0.0
 11
345.828
 21
524.7669999999999
 31
0.0
  0
LINE
  5
11DB
330
1614
100
AcDbEntity
  8
8
100
AcDbLine
 10
351.562
 20
518.6649999999999
 30
0.0
 11
345.4969999999999
 21
524.73
 31
0.0
  0
LINE
  5
11DC
330
1614
100
AcDbEntity
  8
8
100
AcDbLine
 10
350.176
 20
515.5599999999999
 30
0.0
 11
342.407
 21
523.33
 31
0.0
  0
LINE
  5
11DD
330
1614
100
AcDbEntity
  8
8
100
AcDbLine
 10
347.345
 20
513.9019999999999
 30
0.0
 11
340.734
 21
520.5119999999999
 31
0.0
  0
ENDBLK
  5
11DE
330
1614
100
AcDbEntity
  8
0
100
AcDbBlockEnd
  0
BLOCK
  5
1631
330
1630
100
AcDbEntity
  8
0
100
AcDbBlockBegin
  2
KATALOG_LEER
 70
     0
 10
0.0
 20
0.0
 30
0.0
  3
KATALOG_LEER
  1

  0
ENDBLK
  5
1632
330
1630
100
AcDbEntity
  8
0
100
AcDbBlockEnd
  0
BLOCK
  5
167D
330
166B
100
AcDbEntity
  8
0
100
AcDbBlockBegin
  2
KATALOG
 70
     0
 10
0.0
 20
0.0
 30
0.0
  3
KATALOG
  1

  0
INSERT
  5
166C
330
166B
100
AcDbEntity
  8
0
100
AcDbBlockReference
  2
KATALOG_LEER
 10
205.0
 20
5.0
 30
0.0
1001
GENIUS_GENOREF_13
1005
166D
  0
POINT
  5
166D
330
166B
100
AcDbEntity
  8
0
 60
     1
100
AcDbPoint
 10
0.0
 20
0.0
 30
0.0
1001
GENIUS_GENOBJ-N-TIT_13
1002
{
1000
OWNER
1000
GEN
1002
}
1001
GENIUS_GENOENT_13
1002
{
1000
MYREF
1005
166D
1002
}
1002
{
1000
GRP
1005
0
1002
}
1001
GENIUS_GENOLIS_13
1002
{
1000
ENT
1005
166C
1005
0
1002
}
1001
GENIUS_GENTITLE_13
1002
{
1000
SCALE
1000
1:1
1002
}
1002
{
1000
BORDER
1000
KATALOG
1002
}
1002
{
1000
TITLE
1000
KATALOG_LEER
1002
}
1002
{
1000
UNCHG
1002
{
1000
GEN-TITLE-SCA
1000
GEN-TITLE-SIZ
1002
}
1002
}
1002
{
1000
HRA
1005
0
1002
}
1002
{
1000
HTIT
1005
166C
1002
}
1002
{
1000
GENIUSID
1005
166D
1002
}
1001
GENIUS_GENODEF_13
1002
{
1000
HIER
1070
     1
1002
}
1002
{
1000
MANEDIT
1070
     0
1002
}
1002
{
1000
NOSEL
1070
     0
1002
}
1002
{
1000
BEHIND
1070
     0
1002
}
1002
{
1000
REACTOR
1002
}
  0
TEXT
  5
166E
330
166B
100
AcDbEntity
  8
RAHM3
 60
     1
100
AcDbText
 10
29.391383
 20
162.283165
 30
0.0
 40
3.5
  1
!GENTITLE-MAX
100
AcDbText
  0
TEXT
  5
166F
330
166B
100
AcDbEntity
  8
RAHM3
 60
     1
100
AcDbText
 10
30.988432
 20
153.503279
 30
0.0
 40
3.5
  1
!GENTITLE-RU
100
AcDbText
  0
TEXT
  5
1670
330
166B
100
AcDbEntity
  8
RAHM3
 60
     1
100
AcDbText
 10
-85.995418
 20
56.924537
 30
0.0
 40
3.5
  1
!GENTITLE-LL
100
AcDbText
  0
TEXT
  5
1671
330
166B
100
AcDbEntity
  8
RAHM3
 60
     1
100
AcDbText
 10
50.36794099999999
 20
2.260896999999999
 30
0.0
 40
3.5
  1
!GENTITLE-INSERT
100
AcDbText
  0
LINE
  5
1672
330
166B
100
AcDbEntity
  8
RAHM2
100
AcDbLine
 10
0.0
 20
0.0
 30
0.0
 11
148.5
 21
0.0
 31
0.0
  0
LINE
  5
1673
330
166B
100
AcDbEntity
  8
RAHM2
100
AcDbLine
 10
148.5
 20
210.0
 30
0.0
 11
0.0
 21
210.0
 31
0.0
  0
LINE
  5
1674
330
166B
100
AcDbEntity
  8
RAHM2
100
AcDbLine
 10
0.0
 20
210.0
 30
0.0
 11
0.0
 21
0.0
 31
0.0
  0
TEXT
  5
1675
330
166B
100
AcDbEntity
  8
RAHM3
 60
     1
100
AcDbText
 10
184.023441
 20
165.022268
 30
0.0
 40
3.5
  1
!GENTITLE-MAX
100
AcDbText
  0
TEXT
  5
1676
330
166B
100
AcDbEntity
  8
RAHM3
 60
     1
100
AcDbText
 10
185.620491
 20
156.242382
 30
0.0
 40
3.5
  1
!GENTITLE-RU
100
AcDbText
  0
TEXT
  5
1677
330
166B
100
AcDbEntity
  8
RAHM3
 60
     1
100
AcDbText
 10
68.636641
 20
59.663641
 30
0.0
 40
3.5
  1
!GENTITLE-LL
100
AcDbText
  0
TEXT
  5
1678
330
166B
100
AcDbEntity
  8
RAHM3
 60
     1
100
AcDbText
 10
205.0
 20
5.0
 30
0.0
 40
3.5
  1
!GENTITLE-INSERT
100
AcDbText
  0
LINE
  5
1679
330
166B
100
AcDbEntity
  8
RAHM2
100
AcDbLine
 10
148.5
 20
0.0
 30
0.0
 11
148.5
 21
210.0
 31
0.0
  0
LINE
  5
167A
330
166B
100
AcDbEntity
  8
RAHM2
100
AcDbLine
 10
210.0
 20
148.5
 30
0.0
 11
0.0
 21
148.5
 31
0.0
  0
LINE
  5
167B
330
166B
100
AcDbEntity
  8
RAHM2
100
AcDbLine
 10
210.0
 20
0.0
 30
0.0
 11
210.0
 21
148.5
 31
0.0
  0
LINE
  5
167C
330
166B
100
AcDbEntity
  8
RAHM2
100
AcDbLine
 10
0.0
 20
0.0
 30
0.0
 11
210.0
 21
0.0
 31
0.0
  0
ENDBLK
  5
167E
330
166B
100
AcDbEntity
  8
0
100
AcDbBlockEnd
  0
BLOCK
  5
194C
330
168B
100
AcDbEntity
  8
0
100
AcDbBlockBegin
  2
*D5
 70
     1
 10
0.0
 20
0.0
 30
0.0
  3
*D5
  1

  0
LINE
  5
194D
330
168B
100
AcDbEntity
  8
0
  6
ByBlock
100
AcDbLine
 10
349.612152
 20
463.428615
 30
0.0
 11
187.181286
 21
463.428615
 31
0.0
  0
LINE
  5
194E
330
168B
100
AcDbEntity
  8
0
  6
ByBlock
100
AcDbLine
 10
318.612152
 20
638.428615
 30
0.0
 11
187.181286
 21
638.428615
 31
0.0
  0
LINE
  5
194F
330
168B
100
AcDbEntity
  8
0
  6
ByBlock
100
AcDbLine
 10
192.181286
 20
475.928615
 30
0.0
 11
192.181286
 21
625.928615
 31
0.0
  0
SOLID
  5
1950
330
168B
100
AcDbEntity
  8
0
  6
ByBlock
100
AcDbTrace
 10
190.097953
 20
475.928615
 30
0.0
 11
194.2646189999999
 21
475.928615
 31
0.0
 12
192.181286
 22
463.428615
 32
0.0
 13
192.181286
 23
463.428615
 33
0.0
  0
SOLID
  5
1951
330
168B
100
AcDbEntity
  8
0
  6
ByBlock
100
AcDbTrace
 10
190.097953
 20
625.928615
 30
0.0
 11
194.2646189999999
 21
625.928615
 31
0.0
 12
192.181286
 22
638.428615
 32
0.0
 13
192.181286
 23
638.428615
 33
0.0
  0
MTEXT
  5
1952
330
168B
100
AcDbEntity
  8
0
  6
ByBlock
 62
     2
100
AcDbMText
 10
180.431286
 20
550.928615
 30
0.0
 40
17.5
 41
0.0
 71
     5
 72
     1
  1
175
 11
0.0
 21
1.0
 31
0.0
 73
     1
 44
1.0
1001
ACAD
1000
MTEXTBEGIN
1070
    73
1070
     1
1070
    44
1040
1.0
1070
    74
1070
     0
1000
MTEXTEND
  0
POINT
  5
1953
330
168B
100
AcDbEntity
  8
DEFPOINTS
  6
ByBlock
 62
     0
100
AcDbPoint
 10
354.612152
 20
463.428615
 30
0.0
  0
POINT
  5
1954
330
168B
100
AcDbEntity
  8
DEFPOINTS
  6
ByBlock
 62
     0
100
AcDbPoint
 10
323.612152
 20
638.428615
 30
0.0
  0
POINT
  5
1955
330
168B
100
AcDbEntity
  8
DEFPOINTS
  6
ByBlock
 62
     0
100
AcDbPoint
 10
192.181286
 20
638.428615
 30
0.0
  0
ENDBLK
  5
1956
330
168B
100
AcDbEntity
  8
0
100
AcDbBlockEnd
  0
BLOCK
  5
17DA
330
1697
100
AcDbEntity
  8
0
100
AcDbBlockBegin
  2
*D6
 70
     1
 10
0.0
 20
0.0
 30
0.0
  3
*D6
  1

  0
LINE
  5
17DB
330
1697
100
AcDbEntity
  8
0
  6
ByBlock
100
AcDbLine
 10
302.639152
 20
260.428615
 30
0.0
 11
237.112152
 21
260.428615
 31
0.0
  0
LINE
  5
17DC
330
1697
100
AcDbEntity
  8
0
  6
ByBlock
100
AcDbLine
 10
302.639152
 20
269.428615
 30
0.0
 11
237.112152
 21
269.428615
 31
0.0
  0
LINE
  5
17DD
330
1697
100
AcDbEntity
  8
0
  6
ByBlock
100
AcDbLine
 10
242.112152
 20
247.928615
 30
0.0
 11
242.112152
 21
235.428615
 31
0.0
  0
LINE
  5
17DE
330
1697
100
AcDbEntity
  8
0
  6
ByBlock
100
AcDbLine
 10
242.112152
 20
281.928615
 30
0.0
 11
242.112152
 21
309.345224
 31
0.0
  0
LINE
  5
17DF
330
1697
100
AcDbEntity
  8
0
  6
ByBlock
100
AcDbLine
 10
242.112152
 20
260.428615
 30
0.0
 11
242.112152
 21
269.428615
 31
0.0
  0
SOLID
  5
17E0
330
1697
100
AcDbEntity
  8
0
  6
ByBlock
100
AcDbTrace
 10
240.028818
 20
247.928615
 30
0.0
 11
244.195485
 21
247.928615
 31
0.0
 12
242.112152
 22
260.428615
 32
0.0
 13
242.112152
 23
260.428615
 33
0.0
  0
SOLID
  5
17E1
330
1697
100
AcDbEntity
  8
0
  6
ByBlock
100
AcDbTrace
 10
240.028818
 20
281.928615
 30
0.0
 11
244.195485
 21
281.928615
 31
0.0
 12
242.112152
 22
269.428615
 32
0.0
 13
242.112152
 23
269.428615
 33
0.0
  0
MTEXT
  5
17E2
330
1697
100
AcDbEntity
  8
0
  6
ByBlock
 62
     2
100
AcDbMText
 10
230.362152
 20
301.8869200000001
 30
0.0
 40
17.5
 41
0.0
 71
     5
 72
     1
  1
9
 11
0.0
 21
1.0
 31
0.0
 73
     1
 44
1.0
1001
ACAD
1000
MTEXTBEGIN
1070
    73
1070
     1
1070
    44
1040
1.0
1070
    74
1070
     0
1000
MTEXTEND
  0
POINT
  5
17E3
330
1697
100
AcDbEntity
  8
DEFPOINTS
  6
ByBlock
 62
     0
100
AcDbPoint
 10
307.639152
 20
260.428615
 30
0.0
  0
POINT
  5
17E4
330
1697
100
AcDbEntity
  8
DEFPOINTS
  6
ByBlock
 62
     0
100
AcDbPoint
 10
307.639152
 20
269.428615
 30
0.0
  0
POINT
  5
17E5
330
1697
100
AcDbEntity
  8
DEFPOINTS
  6
ByBlock
 62
     0
100
AcDbPoint
 10
242.112152
 20
269.428615
 30
0.0
  0
ENDBLK
  5
17E6
330
1697
100
AcDbEntity
  8
0
100
AcDbBlockEnd
  0
BLOCK
  5
17FE
330
16B2
100
AcDbEntity
  8
0
100
AcDbBlockBegin
  2
*D7
 70
     1
 10
0.0
 20
0.0
 30
0.0
  3
*D7
  1

  0
LINE
  5
17FF
330
16B2
100
AcDbEntity
  8
0
  6
ByBlock
100
AcDbLine
 10
292.112152
 20
232.411615
 30
0.0
 11
292.112152
 21
111.428615
 31
0.0
  0
LINE
  5
1800
330
16B2
100
AcDbEntity
  8
0
  6
ByBlock
100
AcDbLine
 10
552.1121519999999
 20
232.411615
 30
0.0
 11
552.1121519999999
 21
111.428615
 31
0.0
  0
LINE
  5
1801
330
16B2
100
AcDbEntity
  8
0
  6
ByBlock
100
AcDbLine
 10
304.612152
 20
116.428615
 30
0.0
 11
539.6121519999999
 21
116.428615
 31
0.0
  0
SOLID
  5
1802
330
16B2
100
AcDbEntity
  8
0
  6
ByBlock
100
AcDbTrace
 10
304.612152
 20
118.511948
 30
0.0
 11
304.612152
 21
114.345282
 31
0.0
 12
292.112152
 22
116.428615
 32
0.0
 13
292.112152
 23
116.428615
 33
0.0
  0
SOLID
  5
1803
330
16B2
100
AcDbEntity
  8
0
  6
ByBlock
100
AcDbTrace
 10
539.6121519999999
 20
118.511948
 30
0.0
 11
539.6121519999999
 21
114.345282
 31
0.0
 12
552.1121519999999
 22
116.428615
 32
0.0
 13
552.1121519999999
 23
116.428615
 33
0.0
  0
MTEXT
  5
1804
330
16B2
100
AcDbEntity
  8
0
  6
ByBlock
 62
     2
100
AcDbMText
 10
422.1121519999999
 20
128.1803379999999
 30
0.0
 40
17.5
 41
0.0
 71
     5
 72
     1
  1
260
 73
     1
 44
1.0
1001
ACAD
1000
MTEXTBEGIN
1070
    73
1070
     1
1070
    44
1040
1.0
1070
    74
1070
     0
1000
MTEXTEND
  0
POINT
  5
1805
330
16B2
100
AcDbEntity
  8
DEFPOINTS
  6
ByBlock
 62
     0
100
AcDbPoint
 10
292.112152
 20
237.411615
 30
0.0
  0
POINT
  5
1806
330
16B2
100
AcDbEntity
  8
DEFPOINTS
  6
ByBlock
 62
     0
100
AcDbPoint
 10
552.1121519999999
 20
237.411615
 30
0.0
  0
POINT
  5
1807
330
16B2
100
AcDbEntity
  8
DEFPOINTS
  6
ByBlock
 62
     0
100
AcDbPoint
 10
552.1121519999999
 20
116.428615
 30
0.0
  0
ENDBLK
  5
1808
330
16B2
100
AcDbEntity
  8
0
100
AcDbBlockEnd
  0
BLOCK
  5
1817
330
16C9
100
AcDbEntity
  8
0
100
AcDbBlockBegin
  2
*D8
 70
     1
 10
0.0
 20
0.0
 30
0.0
  3
*D8
  1
GEVFRAME
  0
LINE
  5
1818
330
16C9
100
AcDbEntity
  8
0
  6
ByBlock
100
AcDbLine
 10
316.519152
 20
166.428615
 30
0.0
 11
202.112152
 21
166.428615
 31
0.0
  0
LINE
  5
1819
330
16C9
100
AcDbEntity
  8
0
  6
ByBlock
100
AcDbLine
 10
316.519152
 20
363.428615
 30
0.0
 11
202.112152
 21
363.428615
 31
0.0
  0
LINE
  5
181A
330
16C9
100
AcDbEntity
  8
0
  6
ByBlock
100
AcDbLine
 10
207.112152
 20
178.928615
 30
0.0
 11
207.112152
 21
350.928615
 31
0.0
  0
SOLID
  5
181B
330
16C9
100
AcDbEntity
  8
0
  6
ByBlock
100
AcDbTrace
 10
205.028818
 20
178.928615
 30
0.0
 11
209.195485
 21
178.928615
 31
0.0
 12
207.112152
 22
166.428615
 32
0.0
 13
207.112152
 23
166.428615
 33
0.0
  0
SOLID
  5
181C
330
16C9
100
AcDbEntity
  8
0
  6
ByBlock
100
AcDbTrace
 10
205.028818
 20
350.928615
 30
0.0
 11
209.195485
 21
350.928615
 31
0.0
 12
207.112152
 22
363.428615
 32
0.0
 13
207.112152
 23
363.428615
 33
0.0
  0
MTEXT
  5
181D
330
16C9
100
AcDbEntity
  8
0
  6
ByBlock
 62
     2
100
AcDbMText
 10
195.362152
 20
264.928615
 30
0.0
 40
17.5
 41
0.0
 71
     5
 72
     1
  1
{\Fgeniso.shx|c0;\U+25A1}197
 11
0.0
 21
1.0
 31
0.0
 73
     1
 44
1.0
1001
ACAD
1000
MTEXTBEGIN
1070
    73
1070
     1
1070
    44
1040
1.0
1070
    74
1070
     0
1000
MTEXTEND
  0
POINT
  5
181E
330
16C9
100
AcDbEntity
  8
DEFPOINTS
  6
ByBlock
 62
     0
100
AcDbPoint
 10
321.519152
 20
166.428615
 30
0.0
  0
POINT
  5
181F
330
16C9
100
AcDbEntity
  8
DEFPOINTS
  6
ByBlock
 62
     0
100
AcDbPoint
 10
321.519152
 20
363.428615
 30
0.0
  0
POINT
  5
1820
330
16C9
100
AcDbEntity
  8
DEFPOINTS
  6
ByBlock
 62
     0
100
AcDbPoint
 10
207.112152
 20
363.428615
 30
0.0
  0
ENDBLK
  5
1821
330
16C9
100
AcDbEntity
  8
0
100
AcDbBlockEnd
  0
BLOCK
  5
179F
330
16E0
100
AcDbEntity
  8
0
100
AcDbBlockBegin
  2
*D9
 70
     1
 10
0.0
 20
0.0
 30
0.0
  3
*D9
  1

  0
LINE
  5
17A0
330
16E0
100
AcDbEntity
  8
0
  6
ByBlock
100
AcDbLine
 10
287.112152
 20
588.4287019999999
 30
0.0
 11
237.180788
 21
588.4295739999999
 31
0.0
  0
LINE
  5
17A1
330
16E0
100
AcDbEntity
  8
0
  6
ByBlock
100
AcDbLine
 10
269.115152
 20
638.4257019999999
 30
0.0
 11
237.18166
 21
638.4262599999999
 31
0.0
  0
LINE
  5
17A2
330
16E0
100
AcDbEntity
  8
0
  6
ByBlock
100
AcDbLine
 10
242.181006
 20
600.9294869999999
 30
0.0
 11
242.181442
 21
625.9261719999999
 31
0.0
  0
SOLID
  5
17A3
330
16E0
100
AcDbEntity
  8
0
  6
ByBlock
100
AcDbTrace
 10
240.097672
 20
600.929523
 30
0.0
 11
244.264339
 21
600.92945
 31
0.0
 12
242.180788
 22
588.4294869999999
 32
0.0
 13
242.180788
 23
588.4294869999999
 33
0.0
  0
SOLID
  5
17A4
330
16E0
100
AcDbEntity
  8
0
  6
ByBlock
100
AcDbTrace
 10
240.098109
 20
625.926209
 30
0.0
 11
244.264775
 21
625.926136
 31
0.0
 12
242.18166
 22
638.4261719999999
 32
0.0
 13
242.18166
 23
638.4261719999999
 33
0.0
  0
MTEXT
  5
17A5
330
16E0
100
AcDbEntity
  8
0
  6
ByBlock
 62
     2
100
AcDbMText
 10
230.431224
 20
613.4280349999999
 30
0.0
 40
17.5
 41
0.0
 71
     5
 72
     1
  1
50
 11
0.0000169999999975
 21
0.9999999998555001
 31
0.0
 73
     1
 44
1.0
1001
ACAD
1000
MTEXTBEGIN
1070
    73
1070
     1
1070
    44
1040
1.0
1070
    74
1070
     0
1000
MTEXTEND
  0
POINT
  5
17A6
330
16E0
100
AcDbEntity
  8
DEFPOINTS
  6
ByBlock
 62
     0
100
AcDbPoint
 10
292.112152
 20
588.428615
 30
0.0
  0
POINT
  5
17A7
330
16E0
100
AcDbEntity
  8
DEFPOINTS
  6
ByBlock
 62
     0
100
AcDbPoint
 10
274.115152
 20
638.4256149999999
 30
0.0
  0
POINT
  5
17A8
330
16E0
100
AcDbEntity
  8
DEFPOINTS
  6
ByBlock
 62
     0
100
AcDbPoint
 10
242.18166
 20
638.4261719999999
 30
0.0
  0
ENDBLK
  5
17A9
330
16E0
100
AcDbEntity
  8
0
100
AcDbBlockEnd
  0
BLOCK
  5
1A32
330
1A30
100
AcDbEntity
  8
0
100
AcDbBlockBegin
  2
GENAXEH
 70
     0
 10
0.0
 20
0.0
 30
0.0
  3
GENAXEH
  1

  0
LINE
  5
1A31
330
1A30
100
AcDbEntity
  8
0
100
AcDbLine
 10
-1.0
 20
0.0
 30
0.0
 11
1.0
 21
0.0
 31
0.0
  0
ENDBLK
  5
1A33
330
1A30
100
AcDbEntity
  8
0
100
AcDbBlockEnd
  0
ENDSEC
  0
SECTION
  2
ENTITIES
  0
POINT
  5
1001
330
15F6
100
AcDbEntity
  8
PUNKTE
100
AcDbPoint
 10
307.639152
 20
269.428615
 30
0.0
  0
POINT
  5
1002
330
15F6
100
AcDbEntity
  8
PUNKTE
100
AcDbPoint
 10
307.639152
 20
260.428615
 30
0.0
  0
LINE
  5
1003
330
15F6
100
AcDbEntity
  8
0
100
AcDbLine
 10
323.612152
 20
638.428615
 30
0.0
 11
422.1121519999999
 21
638.428615
 31
0.0
  0
LINE
  5
1004
330
15F6
100
AcDbEntity
  8
0
100
AcDbLine
 10
321.518152
 20
598.4836149999999
 30
0.0
 11
323.612152
 21
638.428615
 31
0.0
  0
LINE
  5
1005
330
15F6
100
AcDbEntity
  8
0
100
AcDbLine
 10
292.112152
 20
588.428615
 30
0.0
 11
292.635152
 21
598.414615
 31
0.0
  0
LINE
  5
1006
330
15F6
100
AcDbEntity
  8
0
100
AcDbLine
 10
321.519152
 20
598.4836149999999
 30
0.0
 11
292.639152
 21
598.4836149999999
 31
0.0
  0
LINE
  5
1007
330
15F6
100
AcDbEntity
  8
0
100
AcDbLine
 10
335.321152
 20
597.832615
 30
0.0
 11
334.763152
 21
629.771615
 31
0.0
  0
LINE
  5
1008
330
15F6
100
AcDbEntity
  8
0
100
AcDbLine
 10
331.612152
 20
638.428615
 30
0.0
 11
334.763152
 21
629.770615
 31
0.0
  0
ARC
  5
1009
330
15F6
100
AcDbEntity
  8
0
100
AcDbCircle
 10
340.820152
 20
597.928615
 30
0.0
 40
5.5
100
AcDbArc
 50
181.0
 51
270.0
  0
LINE
  5
100A
330
15F6
100
AcDbEntity
  8
0
100
AcDbLine
 10
489.612152
 20
463.428615
 30
0.0
 11
354.612152
 21
463.428615
 31
0.0
  0
LINE
  5
100B
330
15F6
100
AcDbEntity
  8
0
100
AcDbLine
 10
292.112152
 20
588.428615
 30
0.0
 11
327.295152
 21
588.428615
 31
0.0
  0
LINE
  5
100C
330
15F6
100
AcDbEntity
  8
0
100
AcDbLine
 10
346.612152
 20
592.428615
 30
0.0
 11
347.219152
 21
557.630615
 31
0.0
  0
LINE
  5
100D
330
15F6
100
AcDbEntity
  8
0
100
AcDbLine
 10
338.334152
 20
558.850615
 30
0.0
 11
337.281152
 21
578.951615
 31
0.0
  0
ARC
  5
100E
330
15F6
100
AcDbEntity
  8
0
100
AcDbCircle
 10
327.295152
 20
578.428615
 30
0.0
 40
10.0
100
AcDbArc
 50
3.0
 51
90.0
  0
LINE
  5
100F
330
15F6
100
AcDbEntity
  8
0
100
AcDbLine
 10
300.889152
 20
598.4836149999999
 30
0.0
 11
303.139152
 21
588.428615
 31
0.0
  0
LINE
  5
1010
330
15F6
100
AcDbEntity
  8
0
100
AcDbLine
 10
312.139152
 20
588.428615
 30
0.0
 11
314.389152
 21
598.4836149999999
 31
0.0
  0
CIRCLE
  5
1011
330
15F6
100
AcDbEntity
  8
0
100
AcDbCircle
 10
340.820152
 20
597.928615
 30
0.0
 40
5.5
  0
LINE
  5
1012
330
15F6
100
AcDbEntity
  8
0
100
AcDbLine
 10
492.6121519999999
 20
598.428615
 30
0.0
 11
346.297152
 21
598.428615
 31
0.0
  0
LINE
  5
1013
330
15F6
100
AcDbEntity
  8
0
100
AcDbLine
 10
358.983152
 20
630.428615
 30
0.0
 11
422.1121519999999
 21
630.428615
 31
0.0
  0
LINE
  5
1014
330
15F6
100
AcDbEntity
  8
0
100
AcDbLine
 10
351.612152
 20
598.428615
 30
0.0
 11
352.991152
 21
624.7426149999999
 31
0.0
  0
ARC
  5
1015
330
15F6
100
AcDbEntity
  8
0
100
AcDbCircle
 10
358.983152
 20
624.428615
 30
0.0
 40
6.0
100
AcDbArc
 50
90.0
 51
177.0
  0
LINE
  5
1016
330
15F6
100
AcDbEntity
  8
0
100
AcDbLine
 10
336.613152
 20
638.428615
 30
0.0
 11
336.787152
 21
633.428615
 31
0.0
  0
LINE
  5
1017
330
15F6
100
AcDbEntity
  8
0
100
AcDbLine
 10
338.842152
 20
631.883615
 30
0.0
 11
339.839152
 21
603.3396149999999
 31
0.0
  0
LINE
  5
1018
330
15F6
100
AcDbEntity
  8
0
100
AcDbLine
 10
336.787152
 20
633.428615
 30
0.0
 11
337.243152
 21
633.428615
 31
0.0
  0
ARC
  5
1019
330
15F6
100
AcDbEntity
  8
0
100
AcDbCircle
 10
337.243152
 20
631.828615
 30
0.0
 40
1.6
100
AcDbArc
 50
2.0
 51
90.0
  0
LINE
  5
101A
330
15F6
100
AcDbEntity
  8
0
100
AcDbLine
 10
520.6121519999999
 20
638.428615
 30
0.0
 11
422.1121519999999
 21
638.428615
 31
0.0
  0
LINE
  5
101B
330
15F6
100
AcDbEntity
  8
0
100
AcDbLine
 10
522.7061519999999
 20
598.4826149999999
 30
0.0
 11
520.6121519999999
 21
638.427615
 31
0.0
  0
LINE
  5
101C
330
15F6
100
AcDbEntity
  8
0
100
AcDbLine
 10
552.1121519999999
 20
588.428615
 30
0.0
 11
551.5891519999999
 21
598.414615
 31
0.0
  0
LINE
  5
101D
330
15F6
100
AcDbEntity
  8
0
100
AcDbLine
 10
522.7061519999999
 20
598.4836149999999
 30
0.0
 11
551.585152
 21
598.4836149999999
 31
0.0
  0
LINE
  5
101E
330
15F6
100
AcDbEntity
  8
0
100
AcDbLine
 10
508.9031519999999
 20
597.832615
 30
0.0
 11
509.4611519999999
 21
629.771615
 31
0.0
  0
LINE
  5
101F
330
15F6
100
AcDbEntity
  8
0
100
AcDbLine
 10
512.6121519999998
 20
638.428615
 30
0.0
 11
509.4611519999999
 21
629.770615
 31
0.0
  0
ARC
  5
1020
330
15F6
100
AcDbEntity
  8
0
100
AcDbCircle
 10
503.4041519999999
 20
597.928615
 30
0.0
 40
5.5
100
AcDbArc
 50
270.0
 51
359.0
  0
LINE
  5
1021
330
15F6
100
AcDbEntity
  8
0
100
AcDbLine
 10
552.1121519999999
 20
588.428615
 30
0.0
 11
516.9291519999999
 21
588.428615
 31
0.0
  0
LINE
  5
1022
330
15F6
100
AcDbEntity
  8
0
100
AcDbLine
 10
497.6121519999999
 20
592.428615
 30
0.0
 11
497.0051519999999
 21
557.630615
 31
0.0
  0
LINE
  5
1023
330
15F6
100
AcDbEntity
  8
0
100
AcDbLine
 10
505.8901519999999
 20
558.850615
 30
0.0
 11
506.9431519999999
 21
578.951615
 31
0.0
  0
ARC
  5
1024
330
15F6
100
AcDbEntity
  8
0
100
AcDbCircle
 10
516.9291519999999
 20
578.428615
 30
0.0
 40
10.0
100
AcDbArc
 50
90.0
 51
177.0
  0
LINE
  5
1025
330
15F6
100
AcDbEntity
  8
0
100
AcDbLine
 10
543.335152
 20
598.4836149999999
 30
0.0
 11
541.085152
 21
588.428615
 31
0.0
  0
LINE
  5
1026
330
15F6
100
AcDbEntity
  8
0
100
AcDbLine
 10
532.0851519999999
 20
588.428615
 30
0.0
 11
529.8351519999999
 21
598.4826149999999
 31
0.0
  0
CIRCLE
  5
1027
330
15F6
100
AcDbEntity
  8
0
100
AcDbCircle
 10
503.4041519999999
 20
597.928615
 30
0.0
 40
5.5
  0
LINE
  5
1028
330
15F6
100
AcDbEntity
  8
0
100
AcDbLine
 10
485.2411519999999
 20
630.428615
 30
0.0
 11
422.1121519999999
 21
630.428615
 31
0.0
  0
LINE
  5
1029
330
15F6
100
AcDbEntity
  8
0
100
AcDbLine
 10
492.6121519999999
 20
598.428615
 30
0.0
 11
491.2331519999999
 21
624.7426149999999
 31
0.0
  0
ARC
  5
102A
330
15F6
100
AcDbEntity
  8
0
100
AcDbCircle
 10
485.2411519999999
 20
624.428615
 30
0.0
 40
6.0
100
AcDbArc
 50
3.0
 51
90.0
  0
LINE
  5
102B
330
15F6
100
AcDbEntity
  8
0
100
AcDbLine
 10
507.612152
 20
638.428615
 30
0.0
 11
507.4371519999999
 21
633.428615
 31
0.0
  0
LINE
  5
102C
330
15F6
100
AcDbEntity
  8
0
100
AcDbLine
 10
505.3821519999999
 20
631.883615
 30
0.0
 11
504.386152
 21
603.3396149999999
 31
0.0
  0
LINE
  5
102D
330
15F6
100
AcDbEntity
  8
0
100
AcDbLine
 10
507.4371519999999
 20
633.428615
 30
0.0
 11
506.981152
 21
633.428615
 31
0.0
  0
ARC
  5
102E
330
15F6
100
AcDbEntity
  8
0
100
AcDbCircle
 10
506.981152
 20
631.828615
 30
0.0
 40
1.6
100
AcDbArc
 50
90.0
 51
178.0
  0
LINE
  5
102F
330
15F6
100
AcDbEntity
  8
0
100
AcDbLine
 10
503.4041519999999
 20
592.428615
 30
0.0
 11
340.820152
 21
592.428615
 31
0.0
  0
LINE
  5
1030
330
15F6
100
AcDbEntity
  8
0
100
AcDbLine
 10
343.321152
 20
550.713615
 30
0.0
 11
351.612152
 21
545.9266150000001
 31
0.0
  0
LINE
  5
1031
330
15F6
100
AcDbEntity
  8
0
100
AcDbLine
 10
492.6121519999999
 20
545.9266150000001
 30
0.0
 11
500.9031519999999
 21
550.713615
 31
0.0
  0
LINE
  5
1032
330
15F6
100
AcDbEntity
  8
0
100
AcDbLine
 10
487.6121519999999
 20
549.9676149999999
 30
0.0
 11
495.0051519999999
 21
554.236615
 31
0.0
  0
ARC
  5
1033
330
15F6
100
AcDbEntity
  8
0
100
AcDbCircle
 10
495.9031519999999
 20
559.374615
 30
0.0
 40
10.0
100
AcDbArc
 50
300.0
 51
357.0
  0
ARC
  5
1034
330
15F6
100
AcDbEntity
  8
0
100
AcDbCircle
 10
348.321152
 20
559.374615
 30
0.0
 40
10.0
100
AcDbArc
 50
183.0
 51
240.0
  0
ARC
  5
1035
330
15F6
100
AcDbEntity
  8
0
100
AcDbCircle
 10
351.219152
 20
557.700615
 30
0.0
 40
4.0
100
AcDbArc
 50
181.0
 51
240.0
  0
ARC
  5
1036
330
15F6
100
AcDbEntity
  8
0
100
AcDbCircle
 10
493.0051519999999
 20
557.700615
 30
0.0
 40
4.0
100
AcDbArc
 50
300.0
 51
359.0
  0
LINE
  5
1037
330
15F6
100
AcDbEntity
  8
0
100
AcDbLine
 10
489.612152
 20
540.7306150000001
 30
0.0
 11
489.612152
 21
463.428615
 31
0.0
  0
LINE
  5
1038
330
15F6
100
AcDbEntity
  8
0
100
AcDbLine
 10
354.612152
 20
540.7306150000001
 30
0.0
 11
354.612152
 21
463.428615
 31
0.0
  0
LINE
  5
1039
330
15F6
100
AcDbEntity
  8
0
100
AcDbLine
 10
361.612152
 20
541.3076150000001
 30
0.0
 11
361.612152
 21
488.428615
 31
0.0
  0
LINE
  5
103A
330
15F6
100
AcDbEntity
  8
0
100
AcDbLine
 10
362.292152
 20
483.428615
 30
0.0
 11
362.292152
 21
463.428615
 31
0.0
  0
LINE
  5
103B
330
15F6
100
AcDbEntity
  8
0
100
AcDbLine
 10
361.612152
 20
488.428615
 30
0.0
 11
362.292152
 21
483.428615
 31
0.0
  0
LINE
  5
103C
330
15F6
100
AcDbEntity
  8
0
100
AcDbLine
 10
482.612152
 20
541.3076150000001
 30
0.0
 11
482.612152
 21
488.428615
 31
0.0
  0
LINE
  5
103D
330
15F6
100
AcDbEntity
  8
0
100
AcDbLine
 10
481.9321519999999
 20
483.428615
 30
0.0
 11
481.9321519999999
 21
463.428615
 31
0.0
  0
LINE
  5
103E
330
15F6
100
AcDbEntity
  8
0
100
AcDbLine
 10
482.612152
 20
488.428615
 30
0.0
 11
481.9321519999999
 21
483.428615
 31
0.0
  0
LINE
  5
103F
330
15F6
100
AcDbEntity
  8
0
100
AcDbLine
 10
349.219152
 20
554.236615
 30
0.0
 11
356.612152
 21
549.968615
 31
0.0
  0
ARC
  5
1040
330
15F6
100
AcDbEntity
  8
0
100
AcDbCircle
 10
348.612152
 20
540.7306150000001
 30
0.0
 40
6.0
100
AcDbArc
 50
0.0
 51
60.0
  0
ARC
  5
1041
330
15F6
100
AcDbEntity
  8
0
100
AcDbCircle
 10
495.6121519999999
 20
540.7306150000001
 30
0.0
 40
6.0
100
AcDbArc
 50
120.0
 51
180.0
  0
ARC
  5
1042
330
15F6
100
AcDbEntity
  8
0
100
AcDbCircle
 10
492.6121519999999
 20
541.3076150000001
 30
0.0
 40
10.0
100
AcDbArc
 50
120.0
 51
180.0
  0
ARC
  5
1043
330
15F6
100
AcDbEntity
  8
0
100
AcDbCircle
 10
351.612152
 20
541.3076150000001
 30
0.0
 40
10.0
100
AcDbArc
 50
0.0
 51
60.0
  0
LINE
  5
1044
330
15F6
100
AcDbEntity
  8
0
100
AcDbLine
 10
292.112152
 20
237.411615
 30
0.0
 11
292.112152
 21
292.444615
 31
0.0
  0
LINE
  5
1045
330
15F6
100
AcDbEntity
  8
0
100
AcDbLine
 10
323.612152
 20
168.428615
 30
0.0
 11
323.612152
 21
361.428615
 31
0.0
  0
LINE
  5
1046
330
15F6
100
AcDbEntity
  8
0
100
AcDbLine
 10
336.612152
 20
179.428615
 30
0.0
 11
336.612152
 21
350.428615
 31
0.0
  0
LINE
  5
1047
330
15F6
100
AcDbEntity
  8
0
100
AcDbLine
 10
321.519152
 20
166.428615
 30
0.0
 11
321.519152
 21
363.428615
 31
0.0
  0
LINE
  5
1048
330
15F6
100
AcDbEntity
  8
0
100
AcDbLine
 10
336.612152
 20
179.428615
 30
0.0
 11
507.612152
 21
179.428615
 31
0.0
  0
LINE
  5
1049
330
15F6
100
AcDbEntity
  8
0
100
AcDbLine
 10
522.7061519999999
 20
166.428615
 30
0.0
 11
321.519152
 21
166.428615
 31
0.0
  0
LINE
  5
104A
330
15F6
100
AcDbEntity
  8
0
100
AcDbLine
 10
520.6121519999999
 20
168.428615
 30
0.0
 11
323.612152
 21
168.428615
 31
0.0
  0
LINE
  5
104C
330
15F6
100
AcDbEntity
  8
0
100
AcDbLine
 10
294.112152
 20
237.411615
 30
0.0
 11
294.112152
 21
292.444615
 31
0.0
  0
LINE
  5
104D
330
15F6
100
AcDbEntity
  8
0
100
AcDbLine
 10
321.518152
 20
304.928615
 30
0.0
 11
296.559152
 21
298.240615
 31
0.0
  0
LINE
  5
104E
330
15F6
100
AcDbEntity
  8
0
100
AcDbLine
 10
321.519152
 20
224.928615
 30
0.0
 11
296.559152
 21
231.616615
 31
0.0
  0
LINE
  5
104F
330
15F6
100
AcDbEntity
  8
0
100
AcDbLine
 10
321.518152
 20
302.857615
 30
0.0
 11
297.076152
 21
296.308615
 31
0.0
  0
LINE
  5
1050
330
15F6
100
AcDbEntity
  8
0
100
AcDbLine
 10
321.519152
 20
226.998615
 30
0.0
 11
297.077152
 21
233.547615
 31
0.0
  0
ARC
  5
1051
330
15F6
100
AcDbEntity
  8
0
100
AcDbCircle
 10
298.112152
 20
292.444615
 30
0.0
 40
6.0
100
AcDbArc
 50
105.0
 51
180.0
  0
ARC
  5
1052
330
15F6
100
AcDbEntity
  8
0
100
AcDbCircle
 10
298.112152
 20
237.411615
 30
0.0
 40
6.0
100
AcDbArc
 50
180.0
 51
255.0
  0
ARC
  5
1053
330
15F6
100
AcDbEntity
  8
0
100
AcDbCircle
 10
298.112152
 20
292.444615
 30
0.0
 40
4.0
100
AcDbArc
 50
105.0
 51
180.0
  0
ARC
  5
1054
330
15F6
100
AcDbEntity
  8
0
100
AcDbCircle
 10
298.112152
 20
237.411615
 30
0.0
 40
4.0
100
AcDbArc
 50
180.0
 51
255.0
  0
LINE
  5
1055
330
15F6
100
AcDbEntity
  8
0
100
AcDbLine
 10
334.612152
 20
352.428615
 30
0.0
 11
509.6121519999999
 21
352.428615
 31
0.0
  0
LINE
  5
1056
330
15F6
100
AcDbEntity
  8
0
100
AcDbLine
 10
334.612152
 20
177.428615
 30
0.0
 11
334.612152
 21
251.428615
 31
0.0
  0
LINE
  5
1057
330
15F6
100
AcDbEntity
  8
0
100
AcDbLine
 10
334.612152
 20
177.428615
 30
0.0
 11
509.6121519999999
 21
177.428615
 31
0.0
  0
CIRCLE
  5
1058
330
15F6
100
AcDbEntity
  8
0
100
AcDbCircle
 10
307.639152
 20
264.928615
 30
0.0
 40
6.75
  0
LINE
  5
1059
330
15F6
100
AcDbEntity
  8
0
100
AcDbLine
 10
348.437152
 20
194.000615
 30
0.0
 11
354.937152
 21
190.248615
 31
0.0
  0
LINE
  5
105A
330
15F6
100
AcDbEntity
  8
0
100
AcDbLine
 10
354.939152
 20
190.248615
 30
0.0
 11
361.437152
 21
194.000615
 31
0.0
  0
LINE
  5
105B
330
15F6
100
AcDbEntity
  8
0
100
AcDbLine
 10
361.437152
 20
194.001615
 30
0.0
 11
361.437152
 21
201.504615
 31
0.0
  0
LINE
  5
105C
330
15F6
100
AcDbEntity
  8
0
100
AcDbLine
 10
361.437152
 20
201.505615
 30
0.0
 11
354.936152
 21
205.259615
 31
0.0
  0
LINE
  5
105D
330
15F6
100
AcDbEntity
  8
0
100
AcDbLine
 10
348.437152
 20
201.507615
 30
0.0
 11
348.437152
 21
194.000615
 31
0.0
  0
LINE
  5
105E
330
15F6
100
AcDbEntity
  8
0
100
AcDbLine
 10
354.935152
 20
205.259615
 30
0.0
 11
348.438152
 21
201.509615
 31
0.0
  0
LINE
  5
105F
330
15F6
100
AcDbEntity
  8
0
100
AcDbLine
 10
482.788152
 20
328.349615
 30
0.0
 11
489.2871519999999
 21
324.597615
 31
0.0
  0
LINE
  5
1060
330
15F6
100
AcDbEntity
  8
0
100
AcDbLine
 10
489.2881519999999
 20
324.597615
 30
0.0
 11
495.7881519999999
 21
328.349615
 31
0.0
  0
LINE
  5
1061
330
15F6
100
AcDbEntity
  8
0
100
AcDbLine
 10
495.7881519999999
 20
328.350615
 30
0.0
 11
495.7881519999999
 21
335.856615
 31
0.0
  0
LINE
  5
1062
330
15F6
100
AcDbEntity
  8
0
100
AcDbLine
 10
495.7871519999999
 20
335.857615
 30
0.0
 11
489.2881519999999
 21
339.6096149999999
 31
0.0
  0
LINE
  5
1063
330
15F6
100
AcDbEntity
  8
0
100
AcDbLine
 10
482.7871519999999
 20
335.856615
 30
0.0
 11
482.7871519999999
 21
328.350615
 31
0.0
  0
LINE
  5
1064
330
15F6
100
AcDbEntity
  8
0
100
AcDbLine
 10
489.2871519999999
 20
339.6096149999999
 30
0.0
 11
482.788152
 21
335.857615
 31
0.0
  0
LINE
  5
1069
330
15F6
100
AcDbEntity
  8
0
100
AcDbLine
 10
552.1121519999999
 20
237.411615
 30
0.0
 11
552.1121519999999
 21
292.444615
 31
0.0
  0
LINE
  5
106A
330
15F6
100
AcDbEntity
  8
0
100
AcDbLine
 10
520.6121519999999
 20
168.428615
 30
0.0
 11
520.6121519999999
 21
361.428615
 31
0.0
  0
LINE
  5
106B
330
15F6
100
AcDbEntity
  8
0
100
AcDbLine
 10
507.612152
 20
179.428615
 30
0.0
 11
507.612152
 21
350.428615
 31
0.0
  0
LINE
  5
106C
330
15F6
100
AcDbEntity
  8
0
100
AcDbLine
 10
522.7061519999999
 20
166.428615
 30
0.0
 11
522.7061519999999
 21
363.428615
 31
0.0
  0
LINE
  5
106D
330
15F6
100
AcDbEntity
  8
0
100
AcDbLine
 10
507.612152
 20
350.428615
 30
0.0
 11
336.612152
 21
350.428615
 31
0.0
  0
LINE
  5
106E
330
15F6
100
AcDbEntity
  8
0
100
AcDbLine
 10
323.612152
 20
361.428615
 30
0.0
 11
520.6121519999999
 21
361.428615
 31
0.0
  0
LINE
  5
106F
330
15F6
100
AcDbEntity
  8
0
100
AcDbLine
 10
321.519152
 20
363.428615
 30
0.0
 11
522.7061519999999
 21
363.428615
 31
0.0
  0
LINE
  5
1070
330
15F6
100
AcDbEntity
  8
0
100
AcDbLine
 10
550.1121519999998
 20
237.411615
 30
0.0
 11
550.1121519999998
 21
292.444615
 31
0.0
  0
LINE
  5
1071
330
15F6
100
AcDbEntity
  8
0
100
AcDbLine
 10
522.7051519999999
 20
304.928615
 30
0.0
 11
547.6651519999998
 21
298.240615
 31
0.0
  0
LINE
  5
1072
330
15F6
100
AcDbEntity
  8
0
100
AcDbLine
 10
522.7061519999999
 20
224.928615
 30
0.0
 11
547.6651519999998
 21
231.616615
 31
0.0
  0
LINE
  5
1073
330
15F6
100
AcDbEntity
  8
0
100
AcDbLine
 10
522.7051519999999
 20
302.857615
 30
0.0
 11
547.147152
 21
296.308615
 31
0.0
  0
LINE
  5
1074
330
15F6
100
AcDbEntity
  8
0
100
AcDbLine
 10
522.7061519999999
 20
226.998615
 30
0.0
 11
547.147152
 21
233.548615
 31
0.0
  0
ARC
  5
1075
330
15F6
100
AcDbEntity
  8
0
100
AcDbCircle
 10
546.1121519999998
 20
292.444615
 30
0.0
 40
6.0
100
AcDbArc
 50
0.0
 51
75.0
  0
ARC
  5
1076
330
15F6
100
AcDbEntity
  8
0
100
AcDbCircle
 10
546.1121519999998
 20
237.411615
 30
0.0
 40
6.0
100
AcDbArc
 50
285.0
 51
0.0
  0
ARC
  5
1077
330
15F6
100
AcDbEntity
  8
0
100
AcDbCircle
 10
546.1121519999998
 20
292.444615
 30
0.0
 40
4.0
100
AcDbArc
 50
0.0
 51
75.0
  0
ARC
  5
1078
330
15F6
100
AcDbEntity
  8
0
100
AcDbCircle
 10
546.1121519999998
 20
237.411615
 30
0.0
 40
4.0
100
AcDbArc
 50
285.0
 51
0.0
  0
LINE
  5
1079
330
15F6
100
AcDbEntity
  8
0
100
AcDbLine
 10
509.6121519999999
 20
177.428615
 30
0.0
 11
509.6121519999999
 21
251.428615
 31
0.0
  0
CIRCLE
  5
107A
330
15F6
100
AcDbEntity
  8
0
100
AcDbCircle
 10
536.5851519999999
 20
264.928615
 30
0.0
 40
6.75
  0
CIRCLE
  5
107B
330
15F6
100
AcDbEntity
  8
0
100
AcDbCircle
 10
354.937152
 20
197.753615
 30
0.0
 40
11.0
  0
CIRCLE
  5
107C
330
15F6
100
AcDbEntity
  8
0
100
AcDbCircle
 10
489.2871519999999
 20
332.103615
 30
0.0
 40
11.0
  0
LINE
  5
107D
330
15F6
100
AcDbEntity
  8
0
100
AcDbLine
 10
329.612152
 20
251.428615
 30
0.0
 11
334.612152
 21
251.428615
 31
0.0
  0
LINE
  5
107E
330
15F6
100
AcDbEntity
  8
0
100
AcDbLine
 10
329.612152
 20
281.428615
 30
0.0
 11
334.612152
 21
281.428615
 31
0.0
  0
LINE
  5
107F
330
15F6
100
AcDbEntity
  8
0
100
AcDbLine
 10
329.612152
 20
251.428615
 30
0.0
 11
329.612152
 21
281.428615
 31
0.0
  0
LINE
  5
1080
330
15F6
100
AcDbEntity
  8
0
100
AcDbLine
 10
514.6121519999999
 20
251.428615
 30
0.0
 11
509.6121519999999
 21
251.428615
 31
0.0
  0
LINE
  5
1081
330
15F6
100
AcDbEntity
  8
0
100
AcDbLine
 10
514.6121519999999
 20
281.428615
 30
0.0
 11
509.6121519999999
 21
281.428615
 31
0.0
  0
LINE
  5
1082
330
15F6
100
AcDbEntity
  8
0
100
AcDbLine
 10
514.6121519999999
 20
251.428615
 30
0.0
 11
514.6121519999999
 21
281.428615
 31
0.0
  0
LINE
  5
1083
330
15F6
100
AcDbEntity
  8
0
100
AcDbLine
 10
334.612152
 20
281.428615
 30
0.0
 11
334.612152
 21
352.428615
 31
0.0
  0
LINE
  5
1084
330
15F6
100
AcDbEntity
  8
0
100
AcDbLine
 10
509.6121519999999
 20
281.428615
 30
0.0
 11
509.6121519999999
 21
352.428615
 31
0.0
  0
LINE
  5
1085
330
15F6
100
AcDbEntity
  8
4
100
AcDbLine
 10
479.0081519999999
 20
546.4026150000001
 30
0.0
 11
365.217152
 21
546.4026150000001
 31
0.0
  0
LINE
  5
1086
330
15F6
100
AcDbEntity
  8
4
100
AcDbLine
 10
491.5011519999999
 20
555.757615
 30
0.0
 11
352.723152
 21
555.757615
 31
0.0
  0
CIRCLE
  5
1087
330
15F6
100
AcDbEntity
  8
0
100
AcDbCircle
 10
536.5851519999999
 20
264.928615
 30
0.0
 40
4.5
  0
CIRCLE
  5
1088
330
15F6
100
AcDbEntity
  8
0
100
AcDbCircle
 10
307.639152
 20
264.928615
 30
0.0
 40
4.5
  0
POLYLINE
  5
108A
330
15F6
100
AcDbEntity
  8
SCHRAFFUR_RAND
100
AcDb2dPolyline
 66
     1
 10
0.0
 20
0.0
 30
0.0
 70
     1
  0
VERTEX
  5
108B
330
108A
100
AcDbEntity
  8
SCHRAFFUR_RAND
100
AcDbVertex
100
AcDb2dVertex
 10
337.864152
 20
602.5666150000001
 30
0.0
  0
VERTEX
  5
108C
330
108A
100
AcDbEntity
  8
SCHRAFFUR_RAND
100
AcDbVertex
100
AcDb2dVertex
 10
337.632152
 20
602.444615
 30
0.0
  0
VERTEX
  5
108D
330
108A
100
AcDbEntity
  8
SCHRAFFUR_RAND
100
AcDbVertex
100
AcDb2dVertex
 10
336.531152
 20
601.4166150000001
 30
0.0
  0
VERTEX
  5
108E
330
108A
100
AcDbEntity
  8
SCHRAFFUR_RAND
100
AcDbVertex
100
AcDb2dVertex
 10
335.750152
 20
600.130615
 30
0.0
  0
VERTEX
  5
108F
330
108A
100
AcDbEntity
  8
SCHRAFFUR_RAND
100
AcDbVertex
100
AcDb2dVertex
 10
335.343152
 20
598.6806149999999
 30
0.0
  0
VERTEX
  5
1090
330
108A
100
AcDbEntity
  8
SCHRAFFUR_RAND
100
AcDbVertex
100
AcDb2dVertex
 10
335.320152
 20
597.832615
 30
0.0
  0
VERTEX
  5
1091
330
108A
100
AcDbEntity
  8
SCHRAFFUR_RAND
100
AcDbVertex
100
AcDb2dVertex
 10
335.501152
 20
596.4206149999999
 30
0.0
  0
VERTEX
  5
1092
330
108A
100
AcDbEntity
  8
SCHRAFFUR_RAND
100
AcDbVertex
100
AcDb2dVertex
 10
335.750152
 20
595.726615
 30
0.0
  0
VERTEX
  5
1093
330
108A
100
AcDbEntity
  8
SCHRAFFUR_RAND
100
AcDbVertex
100
AcDb2dVertex
 10
336.065152
 20
595.108615
 30
0.0
  0
VERTEX
  5
1094
330
108A
100
AcDbEntity
  8
SCHRAFFUR_RAND
100
AcDbVertex
100
AcDb2dVertex
 10
336.531152
 20
594.439615
 30
0.0
  0
VERTEX
  5
1095
330
108A
100
AcDbEntity
  8
SCHRAFFUR_RAND
100
AcDbVertex
100
AcDb2dVertex
 10
336.945152
 20
593.985615
 30
0.0
  0
VERTEX
  5
1096
330
108A
100
AcDbEntity
  8
SCHRAFFUR_RAND
100
AcDbVertex
100
AcDb2dVertex
 10
337.632152
 20
593.412615
 30
0.0
  0
VERTEX
  5
1097
330
108A
100
AcDbEntity
  8
SCHRAFFUR_RAND
100
AcDbVertex
100
AcDb2dVertex
 10
338.084152
 20
593.124615
 30
0.0
  0
VERTEX
  5
1098
330
108A
100
AcDbEntity
  8
SCHRAFFUR_RAND
100
AcDbVertex
100
AcDb2dVertex
 10
338.969152
 20
592.7196150000001
 30
0.0
  0
VERTEX
  5
1099
330
108A
100
AcDbEntity
  8
SCHRAFFUR_RAND
100
AcDbVertex
100
AcDb2dVertex
 10
339.404152
 20
592.5846149999999
 30
0.0
  0
VERTEX
  5
109A
330
108A
100
AcDbEntity
  8
SCHRAFFUR_RAND
100
AcDbVertex
100
AcDb2dVertex
 10
340.820152
 20
592.428615
 30
0.0
  0
VERTEX
  5
109B
330
108A
100
AcDbEntity
  8
SCHRAFFUR_RAND
100
AcDbVertex
100
AcDb2dVertex
 10
341.945152
 20
592.515615
 30
0.0
  0
VERTEX
  5
109C
330
108A
100
AcDbEntity
  8
SCHRAFFUR_RAND
100
AcDbVertex
100
AcDb2dVertex
 10
343.363152
 20
593.019615
 30
0.0
  0
VERTEX
  5
109D
330
108A
100
AcDbEntity
  8
SCHRAFFUR_RAND
100
AcDbVertex
100
AcDb2dVertex
 10
344.593152
 20
593.888615
 30
0.0
  0
VERTEX
  5
109E
330
108A
100
AcDbEntity
  8
SCHRAFFUR_RAND
100
AcDbVertex
100
AcDb2dVertex
 10
345.543152
 20
595.0556149999999
 30
0.0
  0
VERTEX
  5
109F
330
108A
100
AcDbEntity
  8
SCHRAFFUR_RAND
100
AcDbVertex
100
AcDb2dVertex
 10
346.143152
 20
596.437615
 30
0.0
  0
VERTEX
  5
10A0
330
108A
100
AcDbEntity
  8
SCHRAFFUR_RAND
100
AcDbVertex
100
AcDb2dVertex
 10
346.320152
 20
597.928615
 30
0.0
  0
VERTEX
  5
10A1
330
108A
100
AcDbEntity
  8
SCHRAFFUR_RAND
100
AcDbVertex
100
AcDb2dVertex
 10
346.297152
 20
598.428615
 30
0.0
  0
VERTEX
  5
10A2
330
108A
100
AcDbEntity
  8
SCHRAFFUR_RAND
100
AcDbVertex
100
AcDb2dVertex
 10
346.143152
 20
599.419615
 30
0.0
  0
VERTEX
  5
10A3
330
108A
100
AcDbEntity
  8
SCHRAFFUR_RAND
100
AcDbVertex
100
AcDb2dVertex
 10
345.543152
 20
600.8006149999999
 30
0.0
  0
VERTEX
  5
10A4
330
108A
100
AcDbEntity
  8
SCHRAFFUR_RAND
100
AcDbVertex
100
AcDb2dVertex
 10
344.593152
 20
601.968615
 30
0.0
  0
VERTEX
  5
10A5
330
108A
100
AcDbEntity
  8
SCHRAFFUR_RAND
100
AcDbVertex
100
AcDb2dVertex
 10
343.363152
 20
602.836615
 30
0.0
  0
VERTEX
  5
10A6
330
108A
100
AcDbEntity
  8
SCHRAFFUR_RAND
100
AcDbVertex
100
AcDb2dVertex
 10
341.945152
 20
603.3406150000001
 30
0.0
  0
VERTEX
  5
10A7
330
108A
100
AcDbEntity
  8
SCHRAFFUR_RAND
100
AcDbVertex
100
AcDb2dVertex
 10
340.443152
 20
603.443615
 30
0.0
  0
VERTEX
  5
10A8
330
108A
100
AcDbEntity
  8
SCHRAFFUR_RAND
100
AcDbVertex
100
AcDb2dVertex
 10
339.839152
 20
603.3406150000001
 30
0.0
  0
VERTEX
  5
10A9
330
108A
100
AcDbEntity
  8
SCHRAFFUR_RAND
100
AcDbVertex
100
AcDb2dVertex
 10
338.969152
 20
603.1376149999999
 30
0.0
  0
VERTEX
  5
10AA
330
108A
100
AcDbEntity
  8
SCHRAFFUR_RAND
100
AcDbVertex
100
AcDb2dVertex
 10
337.864152
 20
602.5666150000001
 30
0.0
  0
SEQEND
  5
10AB
330
108A
100
AcDbEntity
  8
SCHRAFFUR_RAND
  0
INSERT
  5
10B1
330
15F6
100
AcDbEntity
  8
8
100
AcDbBlockReference
  2
*X0
 10
157.291152
 20
78.647615
 30
0.0
1001
ACAD
1000
HATCH
1002
{
1070
    19
1000
ANSI31,_I
1040
3.174999999999999
1040
5.497999999999999
1002
}
  0
POLYLINE
  5
10B2
330
15F6
100
AcDbEntity
  8
SCHRAFFUR_RAND
100
AcDb2dPolyline
 66
     1
 10
0.0
 20
0.0
 30
0.0
 70
     1
  0
VERTEX
  5
10B3
330
10B2
100
AcDbEntity
  8
SCHRAFFUR_RAND
100
AcDbVertex
100
AcDb2dVertex
 10
337.864152
 20
602.5666150000001
 30
0.0
  0
VERTEX
  5
10B4
330
10B2
100
AcDbEntity
  8
SCHRAFFUR_RAND
100
AcDbVertex
100
AcDb2dVertex
 10
337.632152
 20
602.444615
 30
0.0
  0
VERTEX
  5
10B5
330
10B2
100
AcDbEntity
  8
SCHRAFFUR_RAND
100
AcDbVertex
100
AcDb2dVertex
 10
336.531152
 20
601.4166150000001
 30
0.0
  0
VERTEX
  5
10B6
330
10B2
100
AcDbEntity
  8
SCHRAFFUR_RAND
100
AcDbVertex
100
AcDb2dVertex
 10
335.750152
 20
600.130615
 30
0.0
  0
VERTEX
  5
10B7
330
10B2
100
AcDbEntity
  8
SCHRAFFUR_RAND
100
AcDbVertex
100
AcDb2dVertex
 10
335.343152
 20
598.6806149999999
 30
0.0
  0
VERTEX
  5
10B8
330
10B2
100
AcDbEntity
  8
SCHRAFFUR_RAND
100
AcDbVertex
100
AcDb2dVertex
 10
335.320152
 20
597.832615
 30
0.0
  0
VERTEX
  5
10B9
330
10B2
100
AcDbEntity
  8
SCHRAFFUR_RAND
100
AcDbVertex
100
AcDb2dVertex
 10
335.501152
 20
596.4206149999999
 30
0.0
  0
VERTEX
  5
10BA
330
10B2
100
AcDbEntity
  8
SCHRAFFUR_RAND
100
AcDbVertex
100
AcDb2dVertex
 10
335.750152
 20
595.726615
 30
0.0
  0
VERTEX
  5
10BB
330
10B2
100
AcDbEntity
  8
SCHRAFFUR_RAND
100
AcDbVertex
100
AcDb2dVertex
 10
336.065152
 20
595.108615
 30
0.0
  0
VERTEX
  5
10BC
330
10B2
100
AcDbEntity
  8
SCHRAFFUR_RAND
100
AcDbVertex
100
AcDb2dVertex
 10
336.531152
 20
594.439615
 30
0.0
  0
VERTEX
  5
10BD
330
10B2
100
AcDbEntity
  8
SCHRAFFUR_RAND
100
AcDbVertex
100
AcDb2dVertex
 10
336.945152
 20
593.985615
 30
0.0
  0
VERTEX
  5
10BE
330
10B2
100
AcDbEntity
  8
SCHRAFFUR_RAND
100
AcDbVertex
100
AcDb2dVertex
 10
337.632152
 20
593.412615
 30
0.0
  0
VERTEX
  5
10BF
330
10B2
100
AcDbEntity
  8
SCHRAFFUR_RAND
100
AcDbVertex
100
AcDb2dVertex
 10
338.084152
 20
593.124615
 30
0.0
  0
VERTEX
  5
10C0
330
10B2
100
AcDbEntity
  8
SCHRAFFUR_RAND
100
AcDbVertex
100
AcDb2dVertex
 10
338.969152
 20
592.7196150000001
 30
0.0
  0
VERTEX
  5
10C1
330
10B2
100
AcDbEntity
  8
SCHRAFFUR_RAND
100
AcDbVertex
100
AcDb2dVertex
 10
339.404152
 20
592.5846149999999
 30
0.0
  0
VERTEX
  5
10C2
330
10B2
100
AcDbEntity
  8
SCHRAFFUR_RAND
100
AcDbVertex
100
AcDb2dVertex
 10
340.820152
 20
592.428615
 30
0.0
  0
VERTEX
  5
10C3
330
10B2
100
AcDbEntity
  8
SCHRAFFUR_RAND
100
AcDbVertex
100
AcDb2dVertex
 10
341.945152
 20
592.515615
 30
0.0
  0
VERTEX
  5
10C4
330
10B2
100
AcDbEntity
  8
SCHRAFFUR_RAND
100
AcDbVertex
100
AcDb2dVertex
 10
343.363152
 20
593.019615
 30
0.0
  0
VERTEX
  5
10C5
330
10B2
100
AcDbEntity
  8
SCHRAFFUR_RAND
100
AcDbVertex
100
AcDb2dVertex
 10
344.593152
 20
593.888615
 30
0.0
  0
VERTEX
  5
10C6
330
10B2
100
AcDbEntity
  8
SCHRAFFUR_RAND
100
AcDbVertex
100
AcDb2dVertex
 10
345.543152
 20
595.0556149999999
 30
0.0
  0
VERTEX
  5
10C7
330
10B2
100
AcDbEntity
  8
SCHRAFFUR_RAND
100
AcDbVertex
100
AcDb2dVertex
 10
346.143152
 20
596.437615
 30
0.0
  0
VERTEX
  5
10C8
330
10B2
100
AcDbEntity
  8
SCHRAFFUR_RAND
100
AcDbVertex
100
AcDb2dVertex
 10
346.320152
 20
597.928615
 30
0.0
  0
VERTEX
  5
10C9
330
10B2
100
AcDbEntity
  8
SCHRAFFUR_RAND
100
AcDbVertex
100
AcDb2dVertex
 10
346.297152
 20
598.428615
 30
0.0
  0
VERTEX
  5
10CA
330
10B2
100
AcDbEntity
  8
SCHRAFFUR_RAND
100
AcDbVertex
100
AcDb2dVertex
 10
346.143152
 20
599.419615
 30
0.0
  0
VERTEX
  5
10CB
330
10B2
100
AcDbEntity
  8
SCHRAFFUR_RAND
100
AcDbVertex
100
AcDb2dVertex
 10
345.543152
 20
600.8006149999999
 30
0.0
  0
VERTEX
  5
10CC
330
10B2
100
AcDbEntity
  8
SCHRAFFUR_RAND
100
AcDbVertex
100
AcDb2dVertex
 10
344.593152
 20
601.968615
 30
0.0
  0
VERTEX
  5
10CD
330
10B2
100
AcDbEntity
  8
SCHRAFFUR_RAND
100
AcDbVertex
100
AcDb2dVertex
 10
343.363152
 20
602.836615
 30
0.0
  0
VERTEX
  5
10CE
330
10B2
100
AcDbEntity
  8
SCHRAFFUR_RAND
100
AcDbVertex
100
AcDb2dVertex
 10
341.945152
 20
603.3406150000001
 30
0.0
  0
VERTEX
  5
10CF
330
10B2
100
AcDbEntity
  8
SCHRAFFUR_RAND
100
AcDbVertex
100
AcDb2dVertex
 10
340.443152
 20
603.443615
 30
0.0
  0
VERTEX
  5
10D0
330
10B2
100
AcDbEntity
  8
SCHRAFFUR_RAND
100
AcDbVertex
100
AcDb2dVertex
 10
339.839152
 20
603.3406150000001
 30
0.0
  0
VERTEX
  5
10D1
330
10B2
100
AcDbEntity
  8
SCHRAFFUR_RAND
100
AcDbVertex
100
AcDb2dVertex
 10
338.969152
 20
603.1376149999999
 30
0.0
  0
VERTEX
  5
10D2
330
10B2
100
AcDbEntity
  8
SCHRAFFUR_RAND
100
AcDbVertex
100
AcDb2dVertex
 10
337.864152
 20
602.5666150000001
 30
0.0
  0
SEQEND
  5
10D3
330
10B2
100
AcDbEntity
  8
SCHRAFFUR_RAND
  0
INSERT
  5
10D9
330
15F6
100
AcDbEntity
  8
8
100
AcDbBlockReference
  2
*X1
 10
157.291152
 20
78.647615
 30
0.0
1001
ACAD
1000
HATCH
1002
{
1070
    19
1000
ANSI31,_I
1040
3.174999999999999
1040
3.926999999999999
1002
}
  0
POLYLINE
  5
10DA
330
15F6
100
AcDbEntity
  8
SCHRAFFUR_RAND
100
AcDb2dPolyline
 66
     1
 10
0.0
 20
0.0
 30
0.0
 70
     1
  0
VERTEX
  5
10DB
330
10DA
100
AcDbEntity
  8
SCHRAFFUR_RAND
100
AcDbVertex
100
AcDb2dVertex
 10
507.612152
 20
638.428615
 30
0.0
  0
VERTEX
  5
10DC
330
10DA
100
AcDbEntity
  8
SCHRAFFUR_RAND
100
AcDbVertex
100
AcDb2dVertex
 10
422.1121519999999
 20
638.428615
 30
0.0
  0
VERTEX
  5
10DD
330
10DA
100
AcDbEntity
  8
SCHRAFFUR_RAND
100
AcDbVertex
100
AcDb2dVertex
 10
336.612152
 20
638.428615
 30
0.0
  0
VERTEX
  5
10DE
330
10DA
100
AcDbEntity
  8
SCHRAFFUR_RAND
100
AcDbVertex
100
AcDb2dVertex
 10
336.787152
 20
633.428615
 30
0.0
  0
VERTEX
  5
10DF
330
10DA
100
AcDbEntity
  8
SCHRAFFUR_RAND
100
AcDbVertex
100
AcDb2dVertex
 10
337.243152
 20
633.428615
 30
0.0
  0
VERTEX
  5
10E0
330
10DA
100
AcDbEntity
  8
SCHRAFFUR_RAND
100
AcDbVertex
100
AcDb2dVertex
 10
337.855152
 20
633.3436149999999
 30
0.0
  0
VERTEX
  5
10E1
330
10DA
100
AcDbEntity
  8
SCHRAFFUR_RAND
100
AcDbVertex
100
AcDb2dVertex
 10
338.378152
 20
633.0046150000001
 30
0.0
  0
VERTEX
  5
10E2
330
10DA
100
AcDbEntity
  8
SCHRAFFUR_RAND
100
AcDbVertex
100
AcDb2dVertex
 10
338.736152
 20
632.493615
 30
0.0
  0
VERTEX
  5
10E3
330
10DA
100
AcDbEntity
  8
SCHRAFFUR_RAND
100
AcDbVertex
100
AcDb2dVertex
 10
338.842152
 20
631.883615
 30
0.0
  0
VERTEX
  5
10E4
330
10DA
100
AcDbEntity
  8
SCHRAFFUR_RAND
100
AcDbVertex
100
AcDb2dVertex
 10
339.839152
 20
603.3406150000001
 30
0.0
  0
VERTEX
  5
10E5
330
10DA
100
AcDbEntity
  8
SCHRAFFUR_RAND
100
AcDbVertex
100
AcDb2dVertex
 10
341.234152
 20
603.447615
 30
0.0
  0
VERTEX
  5
10E6
330
10DA
100
AcDbEntity
  8
SCHRAFFUR_RAND
100
AcDbVertex
100
AcDb2dVertex
 10
342.842152
 20
603.080615
 30
0.0
  0
VERTEX
  5
10E7
330
10DA
100
AcDbEntity
  8
SCHRAFFUR_RAND
100
AcDbVertex
100
AcDb2dVertex
 10
344.271152
 20
602.255615
 30
0.0
  0
VERTEX
  5
10E8
330
10DA
100
AcDbEntity
  8
SCHRAFFUR_RAND
100
AcDbVertex
100
AcDb2dVertex
 10
345.393152
 20
601.045615
 30
0.0
  0
VERTEX
  5
10E9
330
10DA
100
AcDbEntity
  8
SCHRAFFUR_RAND
100
AcDbVertex
100
AcDb2dVertex
 10
346.108152
 20
599.5596149999999
 30
0.0
  0
VERTEX
  5
10EA
330
10DA
100
AcDbEntity
  8
SCHRAFFUR_RAND
100
AcDbVertex
100
AcDb2dVertex
 10
346.297152
 20
598.428615
 30
0.0
  0
VERTEX
  5
10EB
330
10DA
100
AcDbEntity
  8
SCHRAFFUR_RAND
100
AcDbVertex
100
AcDb2dVertex
 10
351.612152
 20
598.428615
 30
0.0
  0
VERTEX
  5
10EC
330
10DA
100
AcDbEntity
  8
SCHRAFFUR_RAND
100
AcDbVertex
100
AcDb2dVertex
 10
352.991152
 20
624.7426149999999
 30
0.0
  0
VERTEX
  5
10ED
330
10DA
100
AcDbEntity
  8
SCHRAFFUR_RAND
100
AcDbVertex
100
AcDb2dVertex
 10
353.228152
 20
626.243615
 30
0.0
  0
VERTEX
  5
10EE
330
10DA
100
AcDbEntity
  8
SCHRAFFUR_RAND
100
AcDbVertex
100
AcDb2dVertex
 10
353.865152
 20
627.626615
 30
0.0
  0
VERTEX
  5
10EF
330
10DA
100
AcDbEntity
  8
SCHRAFFUR_RAND
100
AcDbVertex
100
AcDb2dVertex
 10
354.829152
 20
628.805615
 30
0.0
  0
VERTEX
  5
10F0
330
10DA
100
AcDbEntity
  8
SCHRAFFUR_RAND
100
AcDbVertex
100
AcDb2dVertex
 10
356.057152
 20
629.706615
 30
0.0
  0
VERTEX
  5
10F1
330
10DA
100
AcDbEntity
  8
SCHRAFFUR_RAND
100
AcDbVertex
100
AcDb2dVertex
 10
357.472152
 20
630.270615
 30
0.0
  0
VERTEX
  5
10F2
330
10DA
100
AcDbEntity
  8
SCHRAFFUR_RAND
100
AcDbVertex
100
AcDb2dVertex
 10
358.983152
 20
630.428615
 30
0.0
  0
VERTEX
  5
10F3
330
10DA
100
AcDbEntity
  8
SCHRAFFUR_RAND
100
AcDbVertex
100
AcDb2dVertex
 10
422.1121519999999
 20
630.428615
 30
0.0
  0
VERTEX
  5
10F4
330
10DA
100
AcDbEntity
  8
SCHRAFFUR_RAND
100
AcDbVertex
100
AcDb2dVertex
 10
485.2411519999999
 20
630.428615
 30
0.0
  0
VERTEX
  5
10F5
330
10DA
100
AcDbEntity
  8
SCHRAFFUR_RAND
100
AcDbVertex
100
AcDb2dVertex
 10
486.7521519999999
 20
630.270615
 30
0.0
  0
VERTEX
  5
10F6
330
10DA
100
AcDbEntity
  8
SCHRAFFUR_RAND
100
AcDbVertex
100
AcDb2dVertex
 10
488.1671519999999
 20
629.706615
 30
0.0
  0
VERTEX
  5
10F7
330
10DA
100
AcDbEntity
  8
SCHRAFFUR_RAND
100
AcDbVertex
100
AcDb2dVertex
 10
489.3951519999999
 20
628.805615
 30
0.0
  0
VERTEX
  5
10F8
330
10DA
100
AcDbEntity
  8
SCHRAFFUR_RAND
100
AcDbVertex
100
AcDb2dVertex
 10
490.3591519999999
 20
627.626615
 30
0.0
  0
VERTEX
  5
10F9
330
10DA
100
AcDbEntity
  8
SCHRAFFUR_RAND
100
AcDbVertex
100
AcDb2dVertex
 10
490.997152
 20
626.243615
 30
0.0
  0
VERTEX
  5
10FA
330
10DA
100
AcDbEntity
  8
SCHRAFFUR_RAND
100
AcDbVertex
100
AcDb2dVertex
 10
491.2331519999999
 20
624.7426149999999
 30
0.0
  0
VERTEX
  5
10FB
330
10DA
100
AcDbEntity
  8
SCHRAFFUR_RAND
100
AcDbVertex
100
AcDb2dVertex
 10
492.6121519999999
 20
598.428615
 30
0.0
  0
VERTEX
  5
10FC
330
10DA
100
AcDbEntity
  8
SCHRAFFUR_RAND
100
AcDbVertex
100
AcDb2dVertex
 10
497.927152
 20
598.428615
 30
0.0
  0
VERTEX
  5
10FD
330
10DA
100
AcDbEntity
  8
SCHRAFFUR_RAND
100
AcDbVertex
100
AcDb2dVertex
 10
497.932152
 20
598.7536150000001
 30
0.0
  0
VERTEX
  5
10FE
330
10DA
100
AcDbEntity
  8
SCHRAFFUR_RAND
100
AcDbVertex
100
AcDb2dVertex
 10
498.4181519999999
 20
600.3296149999999
 30
0.0
  0
VERTEX
  5
10FF
330
10DA
100
AcDbEntity
  8
SCHRAFFUR_RAND
100
AcDbVertex
100
AcDb2dVertex
 10
499.3471519999999
 20
601.692615
 30
0.0
  0
VERTEX
  5
1100
330
10DA
100
AcDbEntity
  8
SCHRAFFUR_RAND
100
AcDbVertex
100
AcDb2dVertex
 10
500.637152
 20
602.721615
 30
0.0
  0
VERTEX
  5
1101
330
10DA
100
AcDbEntity
  8
SCHRAFFUR_RAND
100
AcDbVertex
100
AcDb2dVertex
 10
502.1731519999999
 20
603.324615
 30
0.0
  0
VERTEX
  5
1102
330
10DA
100
AcDbEntity
  8
SCHRAFFUR_RAND
100
AcDbVertex
100
AcDb2dVertex
 10
503.8181519999999
 20
603.447615
 30
0.0
  0
VERTEX
  5
1103
330
10DA
100
AcDbEntity
  8
SCHRAFFUR_RAND
100
AcDbVertex
100
AcDb2dVertex
 10
504.386152
 20
603.3406150000001
 30
0.0
  0
VERTEX
  5
1104
330
10DA
100
AcDbEntity
  8
SCHRAFFUR_RAND
100
AcDbVertex
100
AcDb2dVertex
 10
505.3821519999999
 20
631.883615
 30
0.0
  0
VERTEX
  5
1105
330
10DA
100
AcDbEntity
  8
SCHRAFFUR_RAND
100
AcDbVertex
100
AcDb2dVertex
 10
505.4881519999999
 20
632.493615
 30
0.0
  0
VERTEX
  5
1106
330
10DA
100
AcDbEntity
  8
SCHRAFFUR_RAND
100
AcDbVertex
100
AcDb2dVertex
 10
505.8461519999999
 20
633.0046150000001
 30
0.0
  0
VERTEX
  5
1107
330
10DA
100
AcDbEntity
  8
SCHRAFFUR_RAND
100
AcDbVertex
100
AcDb2dVertex
 10
506.3691519999999
 20
633.3436149999999
 30
0.0
  0
VERTEX
  5
1108
330
10DA
100
AcDbEntity
  8
SCHRAFFUR_RAND
100
AcDbVertex
100
AcDb2dVertex
 10
506.981152
 20
633.428615
 30
0.0
  0
VERTEX
  5
1109
330
10DA
100
AcDbEntity
  8
SCHRAFFUR_RAND
100
AcDbVertex
100
AcDb2dVertex
 10
507.4371519999999
 20
633.428615
 30
0.0
  0
VERTEX
  5
110A
330
10DA
100
AcDbEntity
  8
SCHRAFFUR_RAND
100
AcDbVertex
100
AcDb2dVertex
 10
507.612152
 20
638.428615
 30
0.0
  0
SEQEND
  5
110B
330
10DA
100
AcDbEntity
  8
SCHRAFFUR_RAND
  0
POLYLINE
  5
11AF
330
15F6
100
AcDbEntity
  8
SCHRAFFUR_RAND
100
AcDb2dPolyline
 66
     1
 10
0.0
 20
0.0
 30
0.0
 70
     1
  0
VERTEX
  5
11B0
330
11AF
100
AcDbEntity
  8
SCHRAFFUR_RAND
100
AcDbVertex
100
AcDb2dVertex
 10
504.386152
 20
603.3406150000001
 30
0.0
  0
VERTEX
  5
11B1
330
11AF
100
AcDbEntity
  8
SCHRAFFUR_RAND
100
AcDbVertex
100
AcDb2dVertex
 10
503.4041519999999
 20
603.446615
 30
0.0
  0
VERTEX
  5
11B2
330
11AF
100
AcDbEntity
  8
SCHRAFFUR_RAND
100
AcDbVertex
100
AcDb2dVertex
 10
502.1761519999999
 20
603.308615
 30
0.0
  0
VERTEX
  5
11B3
330
11AF
100
AcDbEntity
  8
SCHRAFFUR_RAND
100
AcDbVertex
100
AcDb2dVertex
 10
501.0101519999999
 20
602.900615
 30
0.0
  0
VERTEX
  5
11B4
330
11AF
100
AcDbEntity
  8
SCHRAFFUR_RAND
100
AcDbVertex
100
AcDb2dVertex
 10
499.9641519999999
 20
602.242615
 30
0.0
  0
VERTEX
  5
11B5
330
11AF
100
AcDbEntity
  8
SCHRAFFUR_RAND
100
AcDbVertex
100
AcDb2dVertex
 10
499.0901519999999
 20
601.3696150000001
 30
0.0
  0
VERTEX
  5
11B6
330
11AF
100
AcDbEntity
  8
SCHRAFFUR_RAND
100
AcDbVertex
100
AcDb2dVertex
 10
498.4321519999999
 20
600.322615
 30
0.0
  0
VERTEX
  5
11B7
330
11AF
100
AcDbEntity
  8
SCHRAFFUR_RAND
100
AcDbVertex
100
AcDb2dVertex
 10
498.0241519999999
 20
599.1566149999999
 30
0.0
  0
VERTEX
  5
11B8
330
11AF
100
AcDbEntity
  8
SCHRAFFUR_RAND
100
AcDbVertex
100
AcDb2dVertex
 10
497.8861519999999
 20
597.928615
 30
0.0
  0
VERTEX
  5
11B9
330
11AF
100
AcDbEntity
  8
SCHRAFFUR_RAND
100
AcDbVertex
100
AcDb2dVertex
 10
498.0241519999999
 20
596.7006150000001
 30
0.0
  0
VERTEX
  5
11BA
330
11AF
100
AcDbEntity
  8
SCHRAFFUR_RAND
100
AcDbVertex
100
AcDb2dVertex
 10
498.4321519999999
 20
595.533615
 30
0.0
  0
VERTEX
  5
11BB
330
11AF
100
AcDbEntity
  8
SCHRAFFUR_RAND
100
AcDbVertex
100
AcDb2dVertex
 10
499.0901519999999
 20
594.4876149999999
 30
0.0
  0
VERTEX
  5
11BC
330
11AF
100
AcDbEntity
  8
SCHRAFFUR_RAND
100
AcDbVertex
100
AcDb2dVertex
 10
499.9641519999999
 20
593.613615
 30
0.0
  0
VERTEX
  5
11BD
330
11AF
100
AcDbEntity
  8
SCHRAFFUR_RAND
100
AcDbVertex
100
AcDb2dVertex
 10
501.0101519999999
 20
592.956615
 30
0.0
  0
VERTEX
  5
11BE
330
11AF
100
AcDbEntity
  8
SCHRAFFUR_RAND
100
AcDbVertex
100
AcDb2dVertex
 10
502.1761519999999
 20
592.547615
 30
0.0
  0
VERTEX
  5
11BF
330
11AF
100
AcDbEntity
  8
SCHRAFFUR_RAND
100
AcDbVertex
100
AcDb2dVertex
 10
503.4041519999999
 20
592.428615
 30
0.0
  0
VERTEX
  5
11C0
330
11AF
100
AcDbEntity
  8
SCHRAFFUR_RAND
100
AcDbVertex
100
AcDb2dVertex
 10
504.4691519999999
 20
592.5136150000001
 30
0.0
  0
VERTEX
  5
11C1
330
11AF
100
AcDbEntity
  8
SCHRAFFUR_RAND
100
AcDbVertex
100
AcDb2dVertex
 10
504.6321519999999
 20
592.547615
 30
0.0
  0
VERTEX
  5
11C2
330
11AF
100
AcDbEntity
  8
SCHRAFFUR_RAND
100
AcDbVertex
100
AcDb2dVertex
 10
505.4941519999998
 20
592.8206150000001
 30
0.0
  0
VERTEX
  5
11C3
330
11AF
100
AcDbEntity
  8
SCHRAFFUR_RAND
100
AcDbVertex
100
AcDb2dVertex
 10
505.7991519999999
 20
592.956615
 30
0.0
  0
VERTEX
  5
11C4
330
11AF
100
AcDbEntity
  8
SCHRAFFUR_RAND
100
AcDbVertex
100
AcDb2dVertex
 10
506.4401519999999
 20
593.3196149999999
 30
0.0
  0
VERTEX
  5
11C5
330
11AF
100
AcDbEntity
  8
SCHRAFFUR_RAND
100
AcDbVertex
100
AcDb2dVertex
 10
506.8451519999999
 20
593.613615
 30
0.0
  0
VERTEX
  5
11C6
330
11AF
100
AcDbEntity
  8
SCHRAFFUR_RAND
100
AcDbVertex
100
AcDb2dVertex
 10
507.2721519999999
 20
593.9926149999999
 30
0.0
  0
VERTEX
  5
11C7
330
11AF
100
AcDbEntity
  8
SCHRAFFUR_RAND
100
AcDbVertex
100
AcDb2dVertex
 10
507.7191519999999
 20
594.4876149999999
 30
0.0
  0
VERTEX
  5
11C8
330
11AF
100
AcDbEntity
  8
SCHRAFFUR_RAND
100
AcDbVertex
100
AcDb2dVertex
 10
507.959152
 20
594.812615
 30
0.0
  0
VERTEX
  5
11C9
330
11AF
100
AcDbEntity
  8
SCHRAFFUR_RAND
100
AcDbVertex
100
AcDb2dVertex
 10
508.3761519999999
 20
595.533615
 30
0.0
  0
VERTEX
  5
11CA
330
11AF
100
AcDbEntity
  8
SCHRAFFUR_RAND
100
AcDbVertex
100
AcDb2dVertex
 10
508.475152
 20
595.749615
 30
0.0
  0
VERTEX
  5
11CB
330
11AF
100
AcDbEntity
  8
SCHRAFFUR_RAND
100
AcDbVertex
100
AcDb2dVertex
 10
508.785152
 20
596.7006150000001
 30
0.0
  0
VERTEX
  5
11CC
330
11AF
100
AcDbEntity
  8
SCHRAFFUR_RAND
100
AcDbVertex
100
AcDb2dVertex
 10
508.8001519999999
 20
596.769615
 30
0.0
  0
VERTEX
  5
11CD
330
11AF
100
AcDbEntity
  8
SCHRAFFUR_RAND
100
AcDbVertex
100
AcDb2dVertex
 10
508.9031519999999
 20
597.832615
 30
0.0
  0
VERTEX
  5
11CE
330
11AF
100
AcDbEntity
  8
SCHRAFFUR_RAND
100
AcDbVertex
100
AcDb2dVertex
 10
508.9041519999999
 20
597.928615
 30
0.0
  0
VERTEX
  5
11CF
330
11AF
100
AcDbEntity
  8
SCHRAFFUR_RAND
100
AcDbVertex
100
AcDb2dVertex
 10
508.785152
 20
599.1566149999999
 30
0.0
  0
VERTEX
  5
11D0
330
11AF
100
AcDbEntity
  8
SCHRAFFUR_RAND
100
AcDbVertex
100
AcDb2dVertex
 10
508.3771519999999
 20
600.322615
 30
0.0
  0
VERTEX
  5
11D1
330
11AF
100
AcDbEntity
  8
SCHRAFFUR_RAND
100
AcDbVertex
100
AcDb2dVertex
 10
507.7191519999999
 20
601.3696150000001
 30
0.0
  0
VERTEX
  5
11D2
330
11AF
100
AcDbEntity
  8
SCHRAFFUR_RAND
100
AcDbVertex
100
AcDb2dVertex
 10
506.8451519999999
 20
602.242615
 30
0.0
  0
VERTEX
  5
11D3
330
11AF
100
AcDbEntity
  8
SCHRAFFUR_RAND
100
AcDbVertex
100
AcDb2dVertex
 10
505.7991519999999
 20
602.900615
 30
0.0
  0
VERTEX
  5
11D4
330
11AF
100
AcDbEntity
  8
SCHRAFFUR_RAND
100
AcDbVertex
100
AcDb2dVertex
 10
504.6321519999999
 20
603.308615
 30
0.0
  0
VERTEX
  5
11D5
330
11AF
100
AcDbEntity
  8
SCHRAFFUR_RAND
100
AcDbVertex
100
AcDb2dVertex
 10
504.386152
 20
603.3406150000001
 30
0.0
  0
SEQEND
  5
11D6
330
11AF
100
AcDbEntity
  8
SCHRAFFUR_RAND
  0
INSERT
  5
11DF
330
15F6
100
AcDbEntity
  8
8
100
AcDbBlockReference
  2
*X2
 10
157.291152
 20
78.647615
 30
0.0
1001
ACAD
1000
HATCH
1002
{
1070
    19
1000
ANSI37,_I
1040
3.174999999999999
1040
8.638999999999999
1002
}
  0
POLYLINE
  5
11E0
330
15F6
100
AcDbEntity
  8
SCHRAFFUR_RAND
100
AcDb2dPolyline
 66
     1
 10
0.0
 20
0.0
 30
0.0
 70
     1
  0
VERTEX
  5
11E1
330
11E0
100
AcDbEntity
  8
SCHRAFFUR_RAND
100
AcDbVertex
100
AcDb2dVertex
 10
331.612152
 20
638.428615
 30
0.0
  0
VERTEX
  5
11E2
330
11E0
100
AcDbEntity
  8
SCHRAFFUR_RAND
100
AcDbVertex
100
AcDb2dVertex
 10
323.612152
 20
638.428615
 30
0.0
  0
VERTEX
  5
11E3
330
11E0
100
AcDbEntity
  8
SCHRAFFUR_RAND
100
AcDbVertex
100
AcDb2dVertex
 10
321.519152
 20
598.4836149999999
 30
0.0
  0
VERTEX
  5
11E4
330
11E0
100
AcDbEntity
  8
SCHRAFFUR_RAND
100
AcDbVertex
100
AcDb2dVertex
 10
314.389152
 20
598.4836149999999
 30
0.0
  0
VERTEX
  5
11E5
330
11E0
100
AcDbEntity
  8
SCHRAFFUR_RAND
100
AcDbVertex
100
AcDb2dVertex
 10
312.139152
 20
588.428615
 30
0.0
  0
VERTEX
  5
11E6
330
11E0
100
AcDbEntity
  8
SCHRAFFUR_RAND
100
AcDbVertex
100
AcDb2dVertex
 10
327.295152
 20
588.428615
 30
0.0
  0
VERTEX
  5
11E7
330
11E0
100
AcDbEntity
  8
SCHRAFFUR_RAND
100
AcDbVertex
100
AcDb2dVertex
 10
331.052152
 20
587.845615
 30
0.0
  0
VERTEX
  5
11E8
330
11E0
100
AcDbEntity
  8
SCHRAFFUR_RAND
100
AcDbVertex
100
AcDb2dVertex
 10
334.274152
 20
585.7826150000001
 30
0.0
  0
VERTEX
  5
11E9
330
11E0
100
AcDbEntity
  8
SCHRAFFUR_RAND
100
AcDbVertex
100
AcDb2dVertex
 10
336.502152
 20
582.673615
 30
0.0
  0
VERTEX
  5
11EA
330
11E0
100
AcDbEntity
  8
SCHRAFFUR_RAND
100
AcDbVertex
100
AcDb2dVertex
 10
337.281152
 20
578.951615
 30
0.0
  0
VERTEX
  5
11EB
330
11E0
100
AcDbEntity
  8
SCHRAFFUR_RAND
100
AcDbVertex
100
AcDb2dVertex
 10
338.334152
 20
558.850615
 30
0.0
  0
VERTEX
  5
11EC
330
11E0
100
AcDbEntity
  8
SCHRAFFUR_RAND
100
AcDbVertex
100
AcDb2dVertex
 10
338.921152
 20
555.575615
 30
0.0
  0
VERTEX
  5
11ED
330
11E0
100
AcDbEntity
  8
SCHRAFFUR_RAND
100
AcDbVertex
100
AcDb2dVertex
 10
340.669152
 20
552.722615
 30
0.0
  0
VERTEX
  5
11EE
330
11E0
100
AcDbEntity
  8
SCHRAFFUR_RAND
100
AcDbVertex
100
AcDb2dVertex
 10
343.321152
 20
550.713615
 30
0.0
  0
VERTEX
  5
11EF
330
11E0
100
AcDbEntity
  8
SCHRAFFUR_RAND
100
AcDbVertex
100
AcDb2dVertex
 10
351.612152
 20
545.9266150000001
 30
0.0
  0
VERTEX
  5
11F0
330
11E0
100
AcDbEntity
  8
SCHRAFFUR_RAND
100
AcDbVertex
100
AcDb2dVertex
 10
353.314152
 20
544.6766150000001
 30
0.0
  0
VERTEX
  5
11F1
330
11E0
100
AcDbEntity
  8
SCHRAFFUR_RAND
100
AcDbVertex
100
AcDb2dVertex
 10
354.381152
 20
542.829615
 30
0.0
  0
VERTEX
  5
11F2
330
11E0
100
AcDbEntity
  8
SCHRAFFUR_RAND
100
AcDbVertex
100
AcDb2dVertex
 10
354.612152
 20
540.770615
 30
0.0
  0
VERTEX
  5
11F3
330
11E0
100
AcDbEntity
  8
SCHRAFFUR_RAND
100
AcDbVertex
100
AcDb2dVertex
 10
354.612152
 20
524.7706149999999
 30
0.0
  0
VERTEX
  5
11F4
330
11E0
100
AcDbEntity
  8
SCHRAFFUR_RAND
100
AcDbVertex
100
AcDb2dVertex
 10
354.612152
 20
513.428615
 30
0.0
  0
VERTEX
  5
11F5
330
11E0
100
AcDbEntity
  8
SCHRAFFUR_RAND
100
AcDbVertex
100
AcDb2dVertex
 10
354.612152
 20
502.131615
 30
0.0
  0
VERTEX
  5
11F6
330
11E0
100
AcDbEntity
  8
SCHRAFFUR_RAND
100
AcDbVertex
100
AcDb2dVertex
 10
354.612152
 20
480.302615
 30
0.0
  0
VERTEX
  5
11F7
330
11E0
100
AcDbEntity
  8
SCHRAFFUR_RAND
100
AcDbVertex
100
AcDb2dVertex
 10
354.612152
 20
463.428615
 30
0.0
  0
VERTEX
  5
11F8
330
11E0
100
AcDbEntity
  8
SCHRAFFUR_RAND
100
AcDbVertex
100
AcDb2dVertex
 10
362.292152
 20
463.428615
 30
0.0
  0
VERTEX
  5
11F9
330
11E0
100
AcDbEntity
  8
SCHRAFFUR_RAND
100
AcDbVertex
100
AcDb2dVertex
 10
362.292152
 20
483.428615
 30
0.0
  0
VERTEX
  5
11FA
330
11E0
100
AcDbEntity
  8
SCHRAFFUR_RAND
100
AcDbVertex
100
AcDb2dVertex
 10
361.612152
 20
488.428615
 30
0.0
  0
VERTEX
  5
11FB
330
11E0
100
AcDbEntity
  8
SCHRAFFUR_RAND
100
AcDbVertex
100
AcDb2dVertex
 10
361.612152
 20
541.3076150000001
 30
0.0
  0
VERTEX
  5
11FC
330
11E0
100
AcDbEntity
  8
SCHRAFFUR_RAND
100
AcDbVertex
100
AcDb2dVertex
 10
361.139152
 20
544.775615
 30
0.0
  0
VERTEX
  5
11FD
330
11E0
100
AcDbEntity
  8
SCHRAFFUR_RAND
100
AcDbVertex
100
AcDb2dVertex
 10
359.379152
 20
547.824615
 30
0.0
  0
VERTEX
  5
11FE
330
11E0
100
AcDbEntity
  8
SCHRAFFUR_RAND
100
AcDbVertex
100
AcDb2dVertex
 10
356.612152
 20
549.9676149999999
 30
0.0
  0
VERTEX
  5
11FF
330
11E0
100
AcDbEntity
  8
SCHRAFFUR_RAND
100
AcDbVertex
100
AcDb2dVertex
 10
349.219152
 20
554.236615
 30
0.0
  0
VERTEX
  5
1200
330
11E0
100
AcDbEntity
  8
SCHRAFFUR_RAND
100
AcDbVertex
100
AcDb2dVertex
 10
347.772152
 20
555.670615
 30
0.0
  0
VERTEX
  5
1201
330
11E0
100
AcDbEntity
  8
SCHRAFFUR_RAND
100
AcDbVertex
100
AcDb2dVertex
 10
347.219152
 20
557.630615
 30
0.0
  0
VERTEX
  5
1202
330
11E0
100
AcDbEntity
  8
SCHRAFFUR_RAND
100
AcDbVertex
100
AcDb2dVertex
 10
346.612152
 20
592.428615
 30
0.0
  0
VERTEX
  5
1203
330
11E0
100
AcDbEntity
  8
SCHRAFFUR_RAND
100
AcDbVertex
100
AcDb2dVertex
 10
340.820152
 20
592.428615
 30
0.0
  0
VERTEX
  5
1204
330
11E0
100
AcDbEntity
  8
SCHRAFFUR_RAND
100
AcDbVertex
100
AcDb2dVertex
 10
340.017152
 20
592.3476149999999
 30
0.0
  0
VERTEX
  5
1205
330
11E0
100
AcDbEntity
  8
SCHRAFFUR_RAND
100
AcDbVertex
100
AcDb2dVertex
 10
338.029152
 20
593.028615
 30
0.0
  0
VERTEX
  5
1206
330
11E0
100
AcDbEntity
  8
SCHRAFFUR_RAND
100
AcDbVertex
100
AcDb2dVertex
 10
337.128152
 20
593.6676150000001
 30
0.0
  0
VERTEX
  5
1207
330
11E0
100
AcDbEntity
  8
SCHRAFFUR_RAND
100
AcDbVertex
100
AcDb2dVertex
 10
335.970152
 20
595.052615
 30
0.0
  0
VERTEX
  5
1208
330
11E0
100
AcDbEntity
  8
SCHRAFFUR_RAND
100
AcDbVertex
100
AcDb2dVertex
 10
335.410152
 20
596.339615
 30
0.0
  0
VERTEX
  5
1209
330
11E0
100
AcDbEntity
  8
SCHRAFFUR_RAND
100
AcDbVertex
100
AcDb2dVertex
 10
335.320152
 20
597.832615
 30
0.0
  0
VERTEX
  5
120A
330
11E0
100
AcDbEntity
  8
SCHRAFFUR_RAND
100
AcDbVertex
100
AcDb2dVertex
 10
335.410152
 20
599.516615
 30
0.0
  0
VERTEX
  5
120B
330
11E0
100
AcDbEntity
  8
SCHRAFFUR_RAND
100
AcDbVertex
100
AcDb2dVertex
 10
334.763152
 20
629.770615
 30
0.0
  0
VERTEX
  5
120C
330
11E0
100
AcDbEntity
  8
SCHRAFFUR_RAND
100
AcDbVertex
100
AcDb2dVertex
 10
331.612152
 20
638.428615
 30
0.0
  0
SEQEND
  5
120D
330
11E0
100
AcDbEntity
  8
SCHRAFFUR_RAND
  0
POLYLINE
  5
1395
330
15F6
100
AcDbEntity
  8
SCHRAFFUR_RAND
100
AcDb2dPolyline
 66
     1
 10
0.0
 20
0.0
 30
0.0
 70
     1
  0
VERTEX
  5
1396
330
1395
100
AcDbEntity
  8
SCHRAFFUR_RAND
100
AcDbVertex
100
AcDb2dVertex
 10
489.612152
 20
540.770615
 30
0.0
  0
VERTEX
  5
1397
330
1395
100
AcDbEntity
  8
SCHRAFFUR_RAND
100
AcDbVertex
100
AcDb2dVertex
 10
489.8441519999999
 20
542.829615
 30
0.0
  0
VERTEX
  5
1398
330
1395
100
AcDbEntity
  8
SCHRAFFUR_RAND
100
AcDbVertex
100
AcDb2dVertex
 10
490.910152
 20
544.6766150000001
 30
0.0
  0
VERTEX
  5
1399
330
1395
100
AcDbEntity
  8
SCHRAFFUR_RAND
100
AcDbVertex
100
AcDb2dVertex
 10
492.6121519999999
 20
545.9266150000001
 30
0.0
  0
VERTEX
  5
139A
330
1395
100
AcDbEntity
  8
SCHRAFFUR_RAND
100
AcDbVertex
100
AcDb2dVertex
 10
500.9031519999999
 20
550.713615
 30
0.0
  0
VERTEX
  5
139B
330
1395
100
AcDbEntity
  8
SCHRAFFUR_RAND
100
AcDbVertex
100
AcDb2dVertex
 10
503.5551519999999
 20
552.722615
 30
0.0
  0
VERTEX
  5
139C
330
1395
100
AcDbEntity
  8
SCHRAFFUR_RAND
100
AcDbVertex
100
AcDb2dVertex
 10
505.3041519999999
 20
555.575615
 30
0.0
  0
VERTEX
  5
139D
330
1395
100
AcDbEntity
  8
SCHRAFFUR_RAND
100
AcDbVertex
100
AcDb2dVertex
 10
505.8901519999999
 20
558.850615
 30
0.0
  0
VERTEX
  5
139E
330
1395
100
AcDbEntity
  8
SCHRAFFUR_RAND
100
AcDbVertex
100
AcDb2dVertex
 10
506.9431519999999
 20
578.951615
 30
0.0
  0
VERTEX
  5
139F
330
1395
100
AcDbEntity
  8
SCHRAFFUR_RAND
100
AcDbVertex
100
AcDb2dVertex
 10
507.7221519999999
 20
582.673615
 30
0.0
  0
VERTEX
  5
13A0
330
1395
100
AcDbEntity
  8
SCHRAFFUR_RAND
100
AcDbVertex
100
AcDb2dVertex
 10
509.951152
 20
585.7826150000001
 30
0.0
  0
VERTEX
  5
13A1
330
1395
100
AcDbEntity
  8
SCHRAFFUR_RAND
100
AcDbVertex
100
AcDb2dVertex
 10
513.1731519999999
 20
587.845615
 30
0.0
  0
VERTEX
  5
13A2
330
1395
100
AcDbEntity
  8
SCHRAFFUR_RAND
100
AcDbVertex
100
AcDb2dVertex
 10
516.9291519999999
 20
588.428615
 30
0.0
  0
VERTEX
  5
13A3
330
1395
100
AcDbEntity
  8
SCHRAFFUR_RAND
100
AcDbVertex
100
AcDb2dVertex
 10
532.0851519999999
 20
588.428615
 30
0.0
  0
VERTEX
  5
13A4
330
1395
100
AcDbEntity
  8
SCHRAFFUR_RAND
100
AcDbVertex
100
AcDb2dVertex
 10
529.8351519999999
 20
598.4836149999999
 30
0.0
  0
VERTEX
  5
13A5
330
1395
100
AcDbEntity
  8
SCHRAFFUR_RAND
100
AcDbVertex
100
AcDb2dVertex
 10
522.7061519999999
 20
598.4836149999999
 30
0.0
  0
VERTEX
  5
13A6
330
1395
100
AcDbEntity
  8
SCHRAFFUR_RAND
100
AcDbVertex
100
AcDb2dVertex
 10
520.6121519999999
 20
638.428615
 30
0.0
  0
VERTEX
  5
13A7
330
1395
100
AcDbEntity
  8
SCHRAFFUR_RAND
100
AcDbVertex
100
AcDb2dVertex
 10
512.6121519999998
 20
638.428615
 30
0.0
  0
VERTEX
  5
13A8
330
1395
100
AcDbEntity
  8
SCHRAFFUR_RAND
100
AcDbVertex
100
AcDb2dVertex
 10
509.4611519999999
 20
629.770615
 30
0.0
  0
VERTEX
  5
13A9
330
1395
100
AcDbEntity
  8
SCHRAFFUR_RAND
100
AcDbVertex
100
AcDb2dVertex
 10
508.9031519999999
 20
597.832615
 30
0.0
  0
VERTEX
  5
13AA
330
1395
100
AcDbEntity
  8
SCHRAFFUR_RAND
100
AcDbVertex
100
AcDb2dVertex
 10
508.2541519999999
 20
595.052615
 30
0.0
  0
VERTEX
  5
13AB
330
1395
100
AcDbEntity
  8
SCHRAFFUR_RAND
100
AcDbVertex
100
AcDb2dVertex
 10
506.195152
 20
593.028615
 30
0.0
  0
VERTEX
  5
13AC
330
1395
100
AcDbEntity
  8
SCHRAFFUR_RAND
100
AcDbVertex
100
AcDb2dVertex
 10
505.7471519999999
 20
592.799615
 30
0.0
  0
VERTEX
  5
13AD
330
1395
100
AcDbEntity
  8
SCHRAFFUR_RAND
100
AcDbVertex
100
AcDb2dVertex
 10
503.4041519999999
 20
592.428615
 30
0.0
  0
VERTEX
  5
13AE
330
1395
100
AcDbEntity
  8
SCHRAFFUR_RAND
100
AcDbVertex
100
AcDb2dVertex
 10
502.6021519999999
 20
592.3476149999999
 30
0.0
  0
VERTEX
  5
13AF
330
1395
100
AcDbEntity
  8
SCHRAFFUR_RAND
100
AcDbVertex
100
AcDb2dVertex
 10
497.6121519999999
 20
592.428615
 30
0.0
  0
VERTEX
  5
13B0
330
1395
100
AcDbEntity
  8
SCHRAFFUR_RAND
100
AcDbVertex
100
AcDb2dVertex
 10
497.0051519999999
 20
557.630615
 30
0.0
  0
VERTEX
  5
13B1
330
1395
100
AcDbEntity
  8
SCHRAFFUR_RAND
100
AcDbVertex
100
AcDb2dVertex
 10
496.4521519999999
 20
555.670615
 30
0.0
  0
VERTEX
  5
13B2
330
1395
100
AcDbEntity
  8
SCHRAFFUR_RAND
100
AcDbVertex
100
AcDb2dVertex
 10
495.0051519999999
 20
554.236615
 30
0.0
  0
VERTEX
  5
13B3
330
1395
100
AcDbEntity
  8
SCHRAFFUR_RAND
100
AcDbVertex
100
AcDb2dVertex
 10
487.6121519999999
 20
549.9676149999999
 30
0.0
  0
VERTEX
  5
13B4
330
1395
100
AcDbEntity
  8
SCHRAFFUR_RAND
100
AcDbVertex
100
AcDb2dVertex
 10
484.8461519999999
 20
547.824615
 30
0.0
  0
VERTEX
  5
13B5
330
1395
100
AcDbEntity
  8
SCHRAFFUR_RAND
100
AcDbVertex
100
AcDb2dVertex
 10
483.0851519999999
 20
544.775615
 30
0.0
  0
VERTEX
  5
13B6
330
1395
100
AcDbEntity
  8
SCHRAFFUR_RAND
100
AcDbVertex
100
AcDb2dVertex
 10
482.612152
 20
541.3076150000001
 30
0.0
  0
VERTEX
  5
13B7
330
1395
100
AcDbEntity
  8
SCHRAFFUR_RAND
100
AcDbVertex
100
AcDb2dVertex
 10
482.612152
 20
488.428615
 30
0.0
  0
VERTEX
  5
13B8
330
1395
100
AcDbEntity
  8
SCHRAFFUR_RAND
100
AcDbVertex
100
AcDb2dVertex
 10
481.9321519999999
 20
483.428615
 30
0.0
  0
VERTEX
  5
13B9
330
1395
100
AcDbEntity
  8
SCHRAFFUR_RAND
100
AcDbVertex
100
AcDb2dVertex
 10
481.9321519999999
 20
463.428615
 30
0.0
  0
VERTEX
  5
13BA
330
1395
100
AcDbEntity
  8
SCHRAFFUR_RAND
100
AcDbVertex
100
AcDb2dVertex
 10
489.612152
 20
463.428615
 30
0.0
  0
VERTEX
  5
13BB
330
1395
100
AcDbEntity
  8
SCHRAFFUR_RAND
100
AcDbVertex
100
AcDb2dVertex
 10
489.612152
 20
480.302615
 30
0.0
  0
VERTEX
  5
13BC
330
1395
100
AcDbEntity
  8
SCHRAFFUR_RAND
100
AcDbVertex
100
AcDb2dVertex
 10
489.612152
 20
502.131615
 30
0.0
  0
VERTEX
  5
13BD
330
1395
100
AcDbEntity
  8
SCHRAFFUR_RAND
100
AcDbVertex
100
AcDb2dVertex
 10
489.612152
 20
513.428615
 30
0.0
  0
VERTEX
  5
13BE
330
1395
100
AcDbEntity
  8
SCHRAFFUR_RAND
100
AcDbVertex
100
AcDb2dVertex
 10
489.612152
 20
524.7706149999999
 30
0.0
  0
VERTEX
  5
13BF
330
1395
100
AcDbEntity
  8
SCHRAFFUR_RAND
100
AcDbVertex
100
AcDb2dVertex
 10
489.612152
 20
540.770615
 30
0.0
  0
SEQEND
  5
13C0
330
1395
100
AcDbEntity
  8
SCHRAFFUR_RAND
  0
POLYLINE
  5
1548
330
15F6
100
AcDbEntity
  8
SCHRAFFUR_RAND
100
AcDb2dPolyline
 66
     1
 10
0.0
 20
0.0
 30
0.0
 70
     1
  0
VERTEX
  5
1549
330
1548
100
AcDbEntity
  8
SCHRAFFUR_RAND
100
AcDbVertex
100
AcDb2dVertex
 10
541.085152
 20
588.428615
 30
0.0
  0
VERTEX
  5
154A
330
1548
100
AcDbEntity
  8
SCHRAFFUR_RAND
100
AcDbVertex
100
AcDb2dVertex
 10
552.1121519999999
 20
588.428615
 30
0.0
  0
VERTEX
  5
154B
330
1548
100
AcDbEntity
  8
SCHRAFFUR_RAND
100
AcDbVertex
100
AcDb2dVertex
 10
551.5891519999999
 20
598.414615
 30
0.0
  0
VERTEX
  5
154C
330
1548
100
AcDbEntity
  8
SCHRAFFUR_RAND
100
AcDbVertex
100
AcDb2dVertex
 10
543.335152
 20
598.4836149999999
 30
0.0
  0
VERTEX
  5
154D
330
1548
100
AcDbEntity
  8
SCHRAFFUR_RAND
100
AcDbVertex
100
AcDb2dVertex
 10
541.085152
 20
588.428615
 30
0.0
  0
SEQEND
  5
154E
330
1548
100
AcDbEntity
  8
SCHRAFFUR_RAND
  0
POLYLINE
  5
1568
330
15F6
100
AcDbEntity
  8
SCHRAFFUR_RAND
100
AcDb2dPolyline
 66
     1
 10
0.0
 20
0.0
 30
0.0
 70
     1
  0
VERTEX
  5
1569
330
1568
100
AcDbEntity
  8
SCHRAFFUR_RAND
100
AcDbVertex
100
AcDb2dVertex
 10
300.889152
 20
598.4836149999999
 30
0.0
  0
VERTEX
  5
156A
330
1568
100
AcDbEntity
  8
SCHRAFFUR_RAND
100
AcDbVertex
100
AcDb2dVertex
 10
292.636152
 20
598.414615
 30
0.0
  0
VERTEX
  5
156B
330
1568
100
AcDbEntity
  8
SCHRAFFUR_RAND
100
AcDbVertex
100
AcDb2dVertex
 10
292.112152
 20
588.428615
 30
0.0
  0
VERTEX
  5
156C
330
1568
100
AcDbEntity
  8
SCHRAFFUR_RAND
100
AcDbVertex
100
AcDb2dVertex
 10
303.139152
 20
588.428615
 30
0.0
  0
VERTEX
  5
156D
330
1568
100
AcDbEntity
  8
SCHRAFFUR_RAND
100
AcDbVertex
100
AcDb2dVertex
 10
300.889152
 20
598.4836149999999
 30
0.0
  0
SEQEND
  5
156E
330
1568
100
AcDbEntity
  8
SCHRAFFUR_RAND
  0
DIMENSION
  5
1591
330
15F6
100
AcDbEntity
  8
5
100
AcDbDimension
  2
*D5
 10
192.181286
 20
638.428615
 30
0.0
 11
180.431286
 21
550.928615
 31
0.0
 70
    32
  1
175
 71
     5
 42
-1.0
  3
GEN-ISO
100
AcDbAlignedDimension
 13
354.612152
 23
463.428615
 33
0.0
 14
323.612152
 24
638.428615
 34
0.0
 50
90.0
100
AcDbRotatedDimension
  0
DIMENSION
  5
159A
330
15F6
100
AcDbEntity
  8
5
100
AcDbDimension
  2
*D9
 10
242.18166
 20
638.4261719999999
 30
0.0
 11
230.431224
 21
613.4280349999999
 31
0.0
 70
    32
  1
50
 71
     5
 42
-1.0
  3
GEN-ISO
100
AcDbAlignedDimension
 13
292.112152
 23
588.428615
 33
0.0
 14
274.115152
 24
638.4256149999999
 34
0.0
 50
89.999
100
AcDbRotatedDimension
  0
DIMENSION
  5
15A4
330
15F6
100
AcDbEntity
  8
5
100
AcDbDimension
  2
*D8
 10
207.112152
 20
363.428615
 30
0.0
 11
195.362152
 21
264.928615
 31
0.0
 70
    32
  1
{\Fgeniso.shx;\U+25A1}197
 71
     5
 42
-1.0
  3
GEN-ISO
100
AcDbAlignedDimension
 13
321.519152
 23
166.428615
 33
0.0
 14
321.519152
 24
363.428615
 34
0.0
 50
90.0
100
AcDbRotatedDimension
1001
GENIUS_GENDTOL_13
1000

1000
B2/max
1000

1040
0.0
1000
{\Fgeniso.shx;\U+25A1}197
  0
DIMENSION
  5
15AE
330
15F6
100
AcDbEntity
  8
5
100
AcDbDimension
  2
*D7
 10
552.1121519999999
 20
116.428615
 30
0.0
 11
422.1121519999999
 21
128.1803379999999
 31
0.0
 70
    32
  1
260
 71
     5
 42
-1.0
  3
GEN-ISO
100
AcDbAlignedDimension
 13
292.112152
 23
237.411615
 33
0.0
 14
552.1121519999999
 24
237.411615
 34
0.0
100
AcDbRotatedDimension
  0
DIMENSION
  5
15B9
330
15F6
100
AcDbEntity
  8
5
100
AcDbDimension
  2
*D6
 10
242.112152
 20
269.428615
 30
0.0
 11
230.362152
 21
301.8869200000001
 31
0.0
 70
    32
  1
9
 71
     5
 42
-1.0
  3
GEN-ISO
100
AcDbAlignedDimension
 13
307.639152
 23
260.428615
 33
0.0
 14
307.639152
 24
269.428615
 34
0.0
 50
90.0
100
AcDbRotatedDimension
  0
POINT
  5
168A
330
15F6
100
AcDbEntity
  8
0
 60
     1
100
AcDbPoint
 10
0.0
 20
0.0
 30
0.0
1001
GENIUS_GENOBJ-N-TIT_13
1002
{
1000
OWNER
1000
GEN
1002
}
1001
GENIUS_GENOENT_13
1002
{
1000
MYREF
1005
168A
1002
}
1002
{
1000
GRP
1005
0
1002
}
1001
GENIUS_GENOLIS_13
1002
{
1000
ENT
1005
1714
1002
}
1001
GENIUS_GENTITLE_13
1002
{
1000
SCALE
1000
1:5
1002
}
1002
{
1000
BORDER
1000
KATALOG
1002
}
1002
{
1000
TITLE
1000
KATALOG_LEER
1002
}
1002
{
1000
UNCHG
1002
{
1000
GEN-TITLE-SCA
1000
GEN-TITLE-SIZ
1002
}
1002
}
1002
{
1000
HRA
1005
1682
1002
}
1002
{
1000
HTIT
1005
1714
1002
}
1002
{
1000
GENIUSID
1005
168A
1002
}
1001
GENIUS_GENODEF_13
1002
{
1000
HIER
1070
     1
1002
}
1002
{
1000
MANEDIT
1070
     1
1002
}
1002
{
1000
NOSEL
1070
     0
1002
}
1002
{
1000
BEHIND
1070
     0
1002
}
1002
{
1000
REACTOR
1002
}
  0
INSERT
  5
1714
330
15F6
100
AcDbEntity
  8
0
100
AcDbBlockReference
  2
KATALOG_LEER
 10
251.839706
 20
11.304483
 30
0.0
 41
5.0
 42
5.0
 43
5.0
1001
GENIUS_GENOREF_13
1005
168A
  0
HATCH
  5
1829
330
15F6
100
AcDbEntity
  8
8
100
AcDbHatch
 10
0.0
 20
0.0
 30
0.0
210
0.0
220
0.0
230
1.0
  2
_U
 70
     0
 71
     0
 91
        1
 92
        1
 93
        4
 72
     1
 10
303.139152
 20
588.428615
 11
300.889152
 21
598.4836149999999
 72
     1
 10
300.889152
 20
598.4836149999999
 11
292.636152
 21
598.414615
 72
     1
 10
292.636152
 20
598.414615
 11
292.112152
 21
588.428615
 72
     1
 10
292.112152
 20
588.428615
 11
303.139152
 21
588.428615
 97
        0
 75
     0
 76
     0
 52
45.0
 41
2.5
 77
     0
 78
     1
 53
45.0
 43
0.0
 44
0.0
 45
-1.767766952966368
 46
1.767766952966368
 79
     0
 98
        1
 10
0.0
 20
0.0
1001
GENIUS_GENODEF_13
1002
{
1000
HIER
1070
     0
1002
}
1002
{
1000
MANEDIT
1070
     0
1002
}
1002
{
1000
NOSEL
1070
     0
1002
}
1002
{
1000
BEHIND
1070
     0
1002
}
1002
{
1000
REACTOR
1002
}
1001
GENIUS_GENOBJ-N-HTC_13
1002
{
1000
OWNER
1000
GEN
1002
}
1001
GENIUS_GENHATCH_13
1002
{
1000
DATA
1040
45.0
1042
2.5
1000
_U
1070
     0
1011
296.269112
1021
593.6987519999998
1031
0.0
1002
}
1002
{
1000
UCS
1010
0.0
1020
0.0
1030
0.0
1010
1.0
1020
0.0
1030
0.0
1010
0.0
1020
1.0
1030
0.0
1002
}
  0
HATCH
  5
186A
330
15F6
100
AcDbEntity
  8
8
100
AcDbHatch
 10
0.0
 20
0.0
 30
0.0
210
0.0
220
0.0
230
1.0
  2
_U
 70
     0
 71
     0
 91
        1
 92
        1
 93
       59
 72
     1
 10
347.773096
 20
555.669679
 11
347.772152
 21
555.670615
 72
     1
 10
347.772152
 20
555.670615
 11
347.77179
 21
555.6718969999999
 72
     2
 10
351.219152
 20
557.700615
 40
4.0
 50
149.523856
 51
178.964076
 73
     0
 72
     1
 10
347.219805
 20
557.6282980000001
 11
347.219152
 21
557.630615
 72
     1
 10
347.219152
 20
557.630615
 11
346.612152
 21
592.428615
 72
     1
 10
346.612152
 20
592.428615
 11
340.820152
 21
592.428615
 72
     1
 10
340.820152
 20
592.428615
 11
340.017152
 21
592.3476149999999
 72
     1
 10
340.017152
 20
592.3476149999999
 11
338.029152
 21
593.028615
 72
     1
 10
338.029152
 20
593.028615
 11
337.128152
 21
593.6676150000001
 72
     1
 10
337.128152
 20
593.6676150000001
 11
335.970152
 21
595.052615
 72
     1
 10
335.970152
 20
595.052615
 11
335.410152
 21
596.339615
 72
     1
 10
335.410152
 20
596.339615
 11
335.347214
 21
597.3836809999998
 72
     2
 10
340.820152
 20
597.928615
 40
5.5
 50
174.313863
 51
178.786757
 73
     0
 72
     1
 10
335.321385
 20
597.812161
 11
335.320152
 21
597.832615
 72
     1
 10
335.320152
 20
597.832615
 11
335.320682
 21
597.8521919999999
 72
     2
 10
340.820152
 20
597.928615
 40
5.5
 50
179.203844
 51
179.438985
 73
     0
 72
     1
 10
335.320415
 20
597.874762
 11
334.7632470000001
 21
629.7661519999999
 72
     1
 10
334.7632470000001
 20
629.7661519999999
 11
334.763152
 21
629.770615
 72
     1
 10
334.763152
 20
629.770615
 11
331.612152
 21
638.428615
 72
     1
 10
331.612152
 20
638.428615
 11
323.612152
 21
638.428615
 72
     1
 10
323.612152
 20
638.428615
 11
321.519152
 21
598.4836149999999
 72
     1
 10
321.519152
 20
598.4836149999999
 11
314.389152
 21
598.4836149999999
 72
     1
 10
314.389152
 20
598.4836149999999
 11
312.139152
 21
588.428615
 72
     1
 10
312.139152
 20
588.428615
 11
327.295152
 21
588.428615
 72
     2
 10
327.295152
 20
578.428615
 40
10.0
 50
270.0
 51
287.6412730000001
 73
     0
 72
     1
 10
330.325716
 20
587.958341
 11
331.052152
 21
587.845615
 72
     1
 10
331.052152
 20
587.845615
 11
331.879344
 21
587.315976
 72
     2
 10
327.295152
 20
578.428615
 40
10.0
 50
297.28515
 51
307.976546
 73
     0
 72
     1
 10
333.44854
 20
586.311242
 11
334.274152
 21
585.7826150000001
 72
     1
 10
334.274152
 20
585.7826150000001
 11
334.845013
 21
584.986023
 72
     2
 10
327.295152
 20
578.428615
 40
10.0
 50
319.024159
 51
329.722867
 73
     0
 72
     1
 10
335.93112
 20
583.470445
 11
336.502152
 21
582.673615
 72
     1
 10
336.502152
 20
582.673615
 11
337.281152
 21
578.951615
 72
     1
 10
337.281152
 20
578.951615
 11
338.334152
 21
558.850615
 72
     1
 10
338.334152
 20
558.850615
 11
338.335198
 21
558.844778
 72
     1
 10
338.335198
 20
558.844778
 11
338.772819
 21
556.4031929999999
 72
     2
 10
348.321152
 20
559.374615
 40
10.0
 50
197.286041
 51
211.275202
 73
     1
 72
     1
 10
339.774316
 20
554.183123
 11
339.814456
 21
554.117607
 72
     2
 10
348.321152
 20
559.374615
 40
10.0
 50
211.715434
 51
225.7365640000001
 73
     1
 72
     1
 10
341.341567
 20
552.213232
 11
343.317004
 21
550.716757
 72
     1
 10
343.317004
 20
550.716757
 11
343.321152
 21
550.713615
 72
     1
 10
343.321152
 20
550.713615
 11
351.612152
 21
545.9266150000001
 72
     1
 10
351.612152
 20
545.9266150000001
 11
353.314152
 21
544.6766150000001
 72
     1
 10
353.314152
 20
544.6766150000001
 11
354.381152
 21
542.829615
 72
     1
 10
354.381152
 20
542.829615
 11
354.471994
 21
542.019895
 72
     2
 10
348.612152
 20
540.7306150000001
 40
6.0
 50
347.591517
 51
359.605947
 73
     0
 72
     1
 10
354.61201
 20
540.77188
 11
354.612152
 21
540.770615
 72
     1
 10
354.612152
 20
540.770615
 11
354.612152
 21
463.428615
 72
     1
 10
354.612152
 20
463.428615
 11
362.292152
 21
463.428615
 72
     1
 10
362.292152
 20
463.428615
 11
362.292152
 21
483.428615
 72
     1
 10
362.292152
 20
483.428615
 11
361.612152
 21
488.428615
 72
     1
 10
361.612152
 20
488.428615
 11
361.612152
 21
541.3076150000001
 72
     1
 10
361.612152
 20
541.3076150000001
 11
361.246902
 21
543.985596
 72
     2
 10
351.612152
 20
541.3076150000001
 40
10.0
 50
15.533281
 51
26.832774
 73
     1
 72
     1
 10
360.535429
 20
545.821495
 11
359.9838430000001
 21
546.7770559999999
 72
     2
 10
351.612152
 20
541.3076150000001
 40
10.0
 50
33.157615
 51
44.476989
 73
     1
 72
     1
 10
358.74747
 20
548.313843
 11
356.612152
 21
549.9676149999999
 72
     1
 10
356.612152
 20
549.9676149999999
 11
349.219152
 21
554.236615
 72
     1
 10
349.219152
 20
554.236615
 11
347.773096
 21
555.669679
 97
        0
 75
     0
 76
     0
 52
45.0
 41
2.5
 77
     0
 78
     1
 53
45.0
 43
0.0
 44
0.0
 45
-1.767766952966368
 46
1.767766952966368
 79
     0
 98
        1
 10
0.0
 20
0.0
1001
GENIUS_GENODEF_13
1002
{
1000
HIER
1070
     0
1002
}
1002
{
1000
MANEDIT
1070
     0
1002
}
1002
{
1000
NOSEL
1070
     0
1002
}
1002
{
1000
BEHIND
1070
     0
1002
}
1002
{
1000
REACTOR
1002
}
1001
GENIUS_GENOBJ-N-HTC_13
1002
{
1000
OWNER
1000
GEN
1002
}
1001
GENIUS_GENHATCH_13
1002
{
1000
DATA
1040
45.0
1042
2.5
1000
_U
1070
     0
1011
328.012008
1021
596.271291
1031
0.0
1002
}
1002
{
1000
UCS
1010
0.0
1020
0.0
1030
0.0
1010
1.0
1020
0.0
1030
0.0
1010
0.0
1020
1.0
1030
0.0
1002
}
  0
HATCH
  5
18E3
330
15F6
100
AcDbEntity
  8
8
100
AcDbHatch
 10
0.0
 20
0.0
 30
0.0
210
0.0
220
0.0
230
1.0
  2
_U
 70
     0
 71
     0
 91
        1
 92
        1
 93
      117
 72
     1
 10
338.842152
 20
631.883615
 11
339.839152
 21
603.3406150000001
 72
     1
 10
339.839152
 20
603.3406150000001
 11
339.861821
 21
603.3444809999999
 72
     2
 10
340.820152
 20
597.928615
 40
5.5
 50
259.965453
 51
260.679456
 73
     0
 72
     1
 10
339.929384
 20
603.356003
 11
340.443152
 21
603.443615
 72
     1
 10
340.443152
 20
603.443615
 11
340.685816
 21
603.426974
 72
     2
 10
340.820152
 20
597.928615
 40
5.5
 50
268.600434
 51
271.482454
 73
     0
 72
     1
 10
340.962441
 20
603.426774
 11
341.234152
 21
603.447615
 72
     1
 10
341.234152
 20
603.447615
 11
341.504881
 21
603.3858259999999
 72
     2
 10
340.820152
 20
597.928615
 40
5.5
 50
277.151662
 51
279.245425
 73
     0
 72
     1
 10
341.703802
 20
603.3571659999999
 11
341.945152
 21
603.3406150000001
 72
     1
 10
341.945152
 20
603.3406150000001
 11
342.172934
 21
603.259654
 72
     2
 10
340.820152
 20
597.928615
 40
5.5
 50
284.238598
 51
288.561573
 73
     0
 72
     1
 10
342.570931
 20
603.142517
 11
342.842152
 21
603.080615
 72
     1
 10
342.842152
 20
603.080615
 11
343.083133
 21
602.94149
 72
     2
 10
340.820152
 20
597.928615
 40
5.5
 50
294.296031
 51
294.894899
 73
     0
 72
     1
 10
343.135404
 20
602.917563
 11
343.363152
 21
602.836615
 72
     1
 10
343.363152
 20
602.836615
 11
343.560759
 21
602.697165
 72
     2
 10
340.820152
 20
597.928615
 40
5.5
 50
299.887082
 51
305.701952
 73
     0
 72
     1
 10
344.02978
 20
602.394965
 11
344.271152
 21
602.255615
 72
     1
 10
344.271152
 20
602.255615
 11
344.431498
 21
602.0826929999999
 72
     1
 10
344.431498
 20
602.0826929999999
 11
344.593152
 21
601.968615
 72
     1
 10
344.593152
 20
601.968615
 11
344.746483
 21
601.780098
 72
     2
 10
340.820152
 20
597.928615
 40
5.5
 50
315.55136
 51
322.881886
 73
     0
 72
     1
 10
345.205814
 20
601.247646
 11
345.393152
 21
601.045615
 72
     1
 10
345.393152
 20
601.045615
 11
345.464518
 21
600.8972929999999
 72
     1
 10
345.464518
 20
600.8972929999999
 11
345.543152
 21
600.8006149999999
 72
     1
 10
345.543152
 20
600.8006149999999
 11
345.639453
 21
600.5789599999999
 72
     2
 10
340.820152
 20
597.928615
 40
5.5
 50
331.19168
 51
340.061358
 73
     0
 72
     1
 10
345.990472
 20
599.80419
 11
346.108152
 21
599.5596149999999
 72
     1
 10
346.108152
 20
599.5596149999999
 11
346.124293
 21
599.46302
 72
     1
 10
346.124293
 20
599.46302
 11
346.143152
 21
599.419615
 72
     1
 10
346.143152
 20
599.419615
 11
346.190054
 21
599.117794
 72
     2
 10
340.820152
 20
597.928615
 40
5.5
 50
347.513221
 51
354.784091
 73
     0
 72
     1
 10
346.297377
 20
598.428615
 11
351.612152
 21
598.428615
 72
     1
 10
351.612152
 20
598.428615
 11
352.991152
 21
624.7426149999999
 72
     1
 10
352.991152
 20
624.7426149999999
 11
352.9914839999999
 21
624.744723
 72
     2
 10
358.983152
 20
624.428615
 40
6.0
 50
183.020004
 51
194.925249
 73
     0
 72
     1
 10
353.185575
 20
625.973967
 11
353.228152
 21
626.243615
 72
     1
 10
353.228152
 20
626.243615
 11
353.37736
 21
626.5675639999999
 72
     2
 10
358.983152
 20
624.428615
 40
6.0
 50
200.884881
 51
208.576043
 73
     0
 72
     1
 10
353.714053
 20
627.2985629999999
 11
353.865152
 21
627.626615
 72
     1
 10
353.865152
 20
627.626615
 11
354.093615
 21
627.906032
 72
     2
 10
358.983152
 20
624.428615
 40
6.0
 50
215.420271
 51
223.121484
 73
     0
 72
     1
 10
354.603715
 20
628.5299
 11
354.829152
 21
628.805615
 72
     1
 10
354.829152
 20
628.805615
 11
355.115693
 21
629.015854
 72
     2
 10
358.983152
 20
624.428615
 40
6.0
 50
229.8660740000001
 51
237.597937
 73
     0
 72
     1
 10
355.768008
 20
629.4944669999999
 11
356.057152
 21
629.706615
 72
     1
 10
356.057152
 20
629.706615
 11
356.38974
 21
629.8391809999999
 72
     2
 10
358.983152
 20
624.428615
 40
6.0
 50
244.390504
 51
252.146372
 73
     0
 72
     1
 10
357.143633
 20
630.139672
 11
357.472152
 21
630.270615
 72
     1
 10
357.472152
 20
630.270615
 11
357.741925
 21
630.2988239999999
 72
     2
 10
358.983152
 20
624.428615
 40
6.0
 50
258.060949
 51
270.0
 73
     0
 72
     1
 10
358.983152
 20
630.428615
 11
485.2411519999999
 21
630.428615
 72
     2
 10
485.2411519999999
 20
624.428615
 40
6.0
 50
270.0
 51
281.9390509999999
 73
     0
 72
     1
 10
486.482378
 20
630.2988239999999
 11
486.7521519999999
 21
630.270615
 72
     1
 10
486.7521519999999
 20
630.270615
 11
487.08067
 21
630.139672
 72
     2
 10
485.2411519999999
 20
624.428615
 40
6.0
 50
287.853628
 51
295.609496
 73
     0
 72
     1
 10
487.834563
 20
629.8391809999999
 11
488.1671519999999
 21
629.706615
 72
     1
 10
488.1671519999999
 20
629.706615
 11
488.456295
 21
629.4944669999999
 72
     2
 10
485.2411519999999
 20
624.428615
 40
6.0
 50
302.402063
 51
310.133926
 73
     0
 72
     1
 10
489.1086099999999
 20
629.015854
 11
489.3951519999999
 21
628.805615
 72
     1
 10
489.3951519999999
 20
628.805615
 11
489.620588
 21
628.5299
 72
     2
 10
485.2411519999999
 20
624.428615
 40
6.0
 50
316.878516
 51
324.579729
 73
     0
 72
     1
 10
490.1306879999999
 20
627.906032
 11
490.3591519999999
 21
627.626615
 72
     1
 10
490.3591519999999
 20
627.626615
 11
490.5118049999999
 21
627.295706
 72
     2
 10
485.2411519999999
 20
624.428615
 40
6.0
 50
331.455025
 51
339.015713
 73
     0
 72
     1
 10
490.843224
 20
626.5772869999999
 11
490.997152
 21
626.243615
 72
     1
 10
490.997152
 20
626.243615
 11
491.0407349999999
 21
625.9664149999999
 72
     2
 10
485.2411519999999
 20
624.428615
 40
6.0
 50
345.149374
 51
356.9798670000001
 73
     0
 72
     1
 10
491.2328179999999
 20
624.7447359999999
 11
491.2331519999999
 21
624.7426149999999
 72
     1
 10
491.2331519999999
 20
624.7426149999999
 11
492.6121519999999
 21
598.428615
 72
     1
 10
492.6121519999999
 20
598.428615
 11
497.9269259999999
 21
598.428615
 72
     2
 10
503.4041519999999
 20
597.928615
 40
5.5
 50
185.215909
 51
185.246886
 73
     0
 72
     1
 10
497.927197
 20
598.4315759999999
 11
497.932152
 21
598.7536150000001
 72
     1
 10
497.932152
 20
598.7536150000001
 11
498.005646
 21
598.991943
 72
     1
 10
498.005646
 20
598.991943
 11
498.0241519999999
 21
599.1566149999999
 72
     1
 10
498.0241519999999
 20
599.1566149999999
 11
498.088347
 21
599.3400740000001
 72
     2
 10
503.4041519999999
 20
597.928615
 40
5.5
 50
194.87013
 51
202.908891
 73
     0
 72
     1
 10
498.3379639999999
 20
600.0695829999999
 11
498.4181519999999
 21
600.3296149999999
 72
     1
 10
498.4181519999999
 20
600.3296149999999
 11
498.571671
 21
600.5548539999999
 72
     2
 10
503.4041519999999
 20
597.928615
 40
5.5
 50
208.522114
 51
216.581105
 73
     0
 72
     1
 10
498.987574
 20
601.206396
 11
499.0901519999999
 21
601.3696150000001
 72
     1
 10
499.0901519999999
 20
601.3696150000001
 11
499.2055919999999
 21
601.484924
 72
     1
 10
499.2055919999999
 20
601.484924
 11
499.3471519999999
 21
601.692615
 72
     1
 10
499.3471519999999
 20
601.692615
 11
499.5615289999999
 21
601.8636179999999
 72
     2
 10
503.4041519999999
 20
597.928615
 40
5.5
 50
225.680513
 51
229.504359
 73
     0
 72
     1
 10
499.832505
 20
602.1111199999999
 11
499.9641519999999
 21
602.242615
 72
     1
 10
499.9641519999999
 20
602.242615
 11
500.1217089999999
 21
602.341729
 72
     2
 10
503.4041519999999
 20
597.928615
 40
5.5
 50
233.358398
 51
237.16255
 73
     0
 72
     1
 10
500.4217349999999
 20
602.549783
 11
500.637152
 21
602.721615
 72
     1
 10
500.637152
 20
602.721615
 11
500.8724329999999
 21
602.8139809999999
 72
     1
 10
500.8724329999999
 20
602.8139809999999
 11
501.0101519999999
 21
602.900615
 72
     1
 10
501.0101519999999
 20
602.900615
 11
501.1933329999999
 21
602.9647129999999
 72
     2
 10
503.4041519999999
 20
597.928615
 40
5.5
 50
246.2987930000001
 51
254.282106
 73
     0
 72
     1
 10
501.9141949999999
 20
603.2229549999999
 11
502.1731519999999
 21
603.324615
 72
     1
 10
502.1731519999999
 20
603.324615
 11
502.450957
 21
603.3453869999999
 72
     2
 10
503.4041519999999
 20
597.928615
 40
5.5
 50
260.019781
 51
268.02953
 73
     0
 72
     1
 10
503.215037
 20
603.4253629999999
 11
503.4041519999999
 21
603.446615
 72
     1
 10
503.4041519999999
 20
603.446615
 11
503.568099
 21
603.428918
 72
     1
 10
503.568099
 20
603.428918
 11
503.8181519999999
 21
603.447615
 72
     1
 10
503.8181519999999
 20
603.447615
 11
504.386152
 21
603.3406150000001
 72
     1
 10
504.386152
 20
603.3406150000001
 11
505.3821519999999
 21
631.883615
 72
     1
 10
505.3821519999999
 20
631.883615
 11
505.4881519999999
 21
632.493615
 72
     1
 10
505.4881519999999
 20
632.493615
 11
505.8461519999999
 21
633.0046150000001
 72
     1
 10
505.8461519999999
 20
633.0046150000001
 11
506.3691519999999
 21
633.3436149999999
 72
     1
 10
506.3691519999999
 20
633.3436149999999
 11
506.5451179999999
 21
633.368055
 72
     2
 10
506.981152
 20
631.828615
 40
1.6
 50
254.185675
 51
270.0
 73
     0
 72
     1
 10
506.981152
 20
633.428615
 11
507.4371519999999
 21
633.428615
 72
     1
 10
507.4371519999999
 20
633.428615
 11
507.612152
 21
638.428615
 72
     1
 10
507.612152
 20
638.428615
 11
336.613152
 21
638.428615
 72
     1
 10
336.613152
 20
638.428615
 11
336.787152
 21
633.428615
 72
     1
 10
336.787152
 20
633.428615
 11
337.243152
 21
633.428615
 72
     2
 10
337.243152
 20
631.828615
 40
1.6
 50
270.0
 51
285.814325
 73
     0
 72
     1
 10
337.679185
 20
633.368055
 11
337.855152
 21
633.3436149999999
 72
     1
 10
337.855152
 20
633.3436149999999
 11
338.378152
 21
633.0046150000001
 72
     1
 10
338.378152
 20
633.0046150000001
 11
338.736152
 21
632.493615
 72
     1
 10
338.736152
 20
632.493615
 11
338.842152
 21
631.883615
 97
        0
 75
     0
 76
     0
 52
45.0
 41
2.5
 77
     0
 78
     1
 53
45.0
 43
0.0
 44
0.0
 45
-1.767766952966368
 46
1.767766952966368
 79
     0
 98
        1
 10
0.0
 20
0.0
1001
GENIUS_GENODEF_13
1002
{
1000
HIER
1070
     0
1002
}
1002
{
1000
MANEDIT
1070
     0
1002
}
1002
{
1000
NOSEL
1070
     0
1002
}
1002
{
1000
BEHIND
1070
     0
1002
}
1002
{
1000
REACTOR
1002
}
1001
GENIUS_GENOBJ-N-HTC_13
1002
{
1000
OWNER
1000
GEN
1002
}
1001
GENIUS_GENHATCH_13
1002
{
1000
DATA
1040
45.0
1042
2.5
1000
_U
1070
     0
1011
347.744074
1021
630.14304
1031
0.0
1002
}
1002
{
1000
UCS
1010
0.0
1020
0.0
1030
0.0
1010
1.0
1020
0.0
1030
0.0
1010
0.0
1020
1.0
1030
0.0
1002
}
  0
HATCH
  5
192B
330
15F6
100
AcDbEntity
  8
8
100
AcDbHatch
 10
0.0
 20
0.0
 30
0.0
210
0.0
220
0.0
230
1.0
  2
_U
 70
     0
 71
     0
 91
        1
 92
        1
 93
       68
 72
     1
 10
507.7221519999999
 20
582.673615
 11
508.292061
 21
583.4685219999999
 72
     2
 10
516.9291519999999
 20
578.428615
 40
10.0
 50
210.264376
 51
221.012946
 73
     0
 72
     1
 10
509.3835379999999
 20
584.9909109999999
 11
509.951152
 21
585.7826150000001
 72
     1
 10
509.951152
 20
585.7826150000001
 11
510.771216
 21
586.3076900000001
 72
     2
 10
516.9291519999999
 20
578.428615
 40
10.0
 50
231.990394
 51
242.7479100000001
 73
     0
 72
     1
 10
512.350088
 20
587.31862
 11
513.1731519999999
 21
587.845615
 72
     1
 10
513.1731519999999
 20
587.845615
 11
513.8978179999999
 21
587.9580969999999
 72
     2
 10
516.9291519999999
 20
578.428615
 40
10.0
 50
252.354104
 51
270.0
 73
     0
 72
     1
 10
516.9291519999999
 20
588.428615
 11
532.0851519999999
 21
588.428615
 72
     1
 10
532.0851519999999
 20
588.428615
 11
529.8351519999999
 21
598.4836149999999
 72
     1
 10
529.8351519999999
 20
598.4836149999999
 11
522.7061519999999
 21
598.4836149999999
 72
     1
 10
522.7061519999999
 20
598.4836149999999
 11
520.6121519999999
 21
638.428615
 72
     1
 10
520.6121519999999
 20
638.428615
 11
512.6121519999998
 21
638.428615
 72
     1
 10
512.6121519999998
 20
638.428615
 11
509.4611519999999
 21
629.770615
 72
     1
 10
509.4611519999999
 20
629.770615
 11
508.903888
 21
597.874759
 72
     2
 10
503.4041519999999
 20
597.928615
 40
5.5
 50
0.5610460000000001
 51
10.089952
 73
     0
 72
     1
 10
508.8190879999999
 20
596.965048
 11
508.8001519999999
 21
596.769615
 72
     1
 10
508.8001519999999
 20
596.769615
 11
508.785152
 21
596.7006150000001
 72
     1
 10
508.785152
 20
596.7006150000001
 11
508.6897659999999
 21
596.407997
 72
     2
 10
503.4041519999999
 20
597.928615
 40
5.5
 50
16.049996
 51
20.059109
 73
     0
 72
     1
 10
508.5705179999999
 20
596.042173
 11
508.475152
 21
595.749615
 72
     1
 10
508.475152
 20
595.749615
 11
508.3761519999999
 21
595.533615
 72
     1
 10
508.3761519999999
 20
595.533615
 11
508.359871
 21
595.505466
 72
     1
 10
508.359871
 20
595.505466
 11
508.2541519999999
 21
595.052615
 72
     1
 10
508.2541519999999
 20
595.052615
 11
507.82448
 21
594.6302469999999
 72
     1
 10
507.82448
 20
594.6302469999999
 11
507.7191519999999
 21
594.4876149999999
 72
     1
 10
507.7191519999999
 20
594.4876149999999
 11
507.2721519999999
 21
593.9926149999999
 72
     1
 10
507.2721519999999
 20
593.9926149999999
 11
506.8451519999999
 21
593.613615
 72
     1
 10
506.8451519999999
 20
593.613615
 11
506.635287
 21
593.461269
 72
     1
 10
506.635287
 20
593.461269
 11
506.195152
 21
593.028615
 72
     1
 10
506.195152
 20
593.028615
 11
505.7471519999999
 21
592.799615
 72
     1
 10
505.7471519999999
 20
592.799615
 11
505.1085709999999
 21
592.6985
 72
     1
 10
505.1085709999999
 20
592.6985
 11
504.6321519999999
 21
592.547615
 72
     1
 10
504.6321519999999
 20
592.547615
 11
504.4691519999999
 21
592.5136150000001
 72
     1
 10
504.4691519999999
 20
592.5136150000001
 11
504.276529
 21
592.498241
 72
     2
 10
503.4041519999999
 20
597.928615
 40
5.5
 50
80.87354000000001
 51
90.0
 73
     0
 72
     1
 10
503.4041519999999
 20
592.428615
 11
502.6021519999999
 21
592.3476149999999
 72
     1
 10
502.6021519999999
 20
592.3476149999999
 11
497.6121519999999
 21
592.428615
 72
     1
 10
497.6121519999999
 20
592.428615
 11
497.0051519999999
 21
557.630615
 72
     1
 10
497.0051519999999
 20
557.630615
 11
497.004498
 21
557.6282980000001
 72
     2
 10
493.0051519999999
 20
557.700615
 40
4.0
 50
1.035924
 51
30.476144
 73
     0
 72
     1
 10
496.452513
 20
555.6718969999999
 11
496.4521519999999
 21
555.670615
 72
     1
 10
496.4521519999999
 20
555.670615
 11
496.451207
 21
555.669679
 72
     1
 10
496.451207
 20
555.669679
 11
495.0051519999999
 21
554.236615
 72
     1
 10
495.0051519999999
 20
554.236615
 11
487.6121519999999
 21
549.9676149999999
 72
     1
 10
487.6121519999999
 20
549.9676149999999
 11
485.474382
 21
548.3113459999999
 72
     2
 10
492.6121519999999
 20
541.3076150000001
 40
10.0
 50
135.543052
 51
146.783632
 73
     1
 72
     1
 10
484.2460729999999
 20
546.7856379999999
 11
483.6864669999999
 21
545.816734
 72
     2
 10
492.6121519999999
 20
541.3076150000001
 40
10.0
 50
153.197793
 51
164.466719
 73
     1
 72
     1
 10
482.977401
 20
543.985596
 11
482.612152
 21
541.3076150000001
 72
     1
 10
482.612152
 20
541.3076150000001
 11
482.612152
 21
488.428615
 72
     1
 10
482.612152
 20
488.428615
 11
481.9321519999999
 21
483.428615
 72
     1
 10
481.9321519999999
 20
483.428615
 11
481.9321519999999
 21
463.428615
 72
     1
 10
481.9321519999999
 20
463.428615
 11
489.612152
 21
463.428615
 72
     1
 10
489.612152
 20
463.428615
 11
489.612152
 21
540.770615
 72
     1
 10
489.612152
 20
540.770615
 11
489.6122929999999
 21
540.7718739999999
 72
     2
 10
495.6121519999999
 20
540.7306150000001
 40
6.0
 50
180.393998
 51
192.463498
 73
     0
 72
     1
 10
489.753549
 20
542.025521
 11
489.8441519999999
 21
542.829615
 72
     1
 10
489.8441519999999
 20
542.829615
 11
490.910152
 21
544.6766150000001
 72
     1
 10
490.910152
 20
544.6766150000001
 11
492.6121519999999
 21
545.9266150000001
 72
     1
 10
492.6121519999999
 20
545.9266150000001
 11
500.9031519999999
 21
550.713615
 72
     1
 10
500.9031519999999
 20
550.713615
 11
500.9072989999999
 21
550.716757
 72
     1
 10
500.9072989999999
 20
550.716757
 11
502.882736
 21
552.213232
 72
     2
 10
495.9031519999999
 20
559.374615
 40
10.0
 50
314.2634360000001
 51
342.747942
 73
     1
 72
     1
 10
505.453244
 20
556.408856
 11
505.8891049999999
 21
558.8447639999999
 72
     1
 10
505.8891049999999
 20
558.8447639999999
 11
505.8901519999999
 21
558.850615
 72
     1
 10
505.8901519999999
 20
558.850615
 11
506.9431519999999
 21
578.951615
 72
     1
 10
506.9431519999999
 20
578.951615
 11
507.7221519999999
 21
582.673615
 97
        0
 75
     0
 76
     0
 52
45.0
 41
2.5
 77
     0
 78
     1
 53
45.0
 43
0.0
 44
0.0
 45
-1.767766952966368
 46
1.767766952966368
 79
     0
 98
        1
 10
0.0
 20
0.0
1001
GENIUS_GENODEF_13
1002
{
1000
HIER
1070
     0
1002
}
1002
{
1000
MANEDIT
1070
     0
1002
}
1002
{
1000
NOSEL
1070
     0
1002
}
1002
{
1000
BEHIND
1070
     0
1002
}
1002
{
1000
REACTOR
1002
}
1001
GENIUS_GENOBJ-N-HTC_13
1002
{
1000
OWNER
1000
GEN
1002
}
1001
GENIUS_GENHATCH_13
1002
{
1000
DATA
1040
45.0
1042
2.5
1000
_U
1070
     0
1011
517.6114489999999
1021
594.127509
1031
0.0
1002
}
1002
{
1000
UCS
1010
0.0
1020
0.0
1030
0.0
1010
1.0
1020
0.0
1030
0.0
1010
0.0
1020
1.0
1030
0.0
1002
}
  0
HATCH
  5
1933
330
15F6
100
AcDbEntity
  8
8
100
AcDbHatch
 10
0.0
 20
0.0
 30
0.0
210
0.0
220
0.0
230
1.0
  2
_U
 70
     0
 71
     0
 91
        1
 92
        1
 93
        4
 72
     1
 10
551.5891519999999
 20
598.414615
 11
543.335152
 21
598.4836149999999
 72
     1
 10
543.335152
 20
598.4836149999999
 11
541.085152
 21
588.428615
 72
     1
 10
541.085152
 20
588.428615
 11
552.1121519999999
 21
588.428615
 72
     1
 10
552.1121519999999
 20
588.428615
 11
551.5891519999999
 21
598.414615
 97
        0
 75
     0
 76
     0
 52
45.0
 41
2.5
 77
     0
 78
     1
 53
45.0
 43
0.0
 44
0.0
 45
-1.767766952966368
 46
1.767766952966368
 79
     0
 98
        1
 10
0.0
 20
0.0
1001
GENIUS_GENODEF_13
1002
{
1000
HIER
1070
     0
1002
}
1002
{
1000
MANEDIT
1070
     0
1002
}
1002
{
1000
NOSEL
1070
     0
1002
}
1002
{
1000
BEHIND
1070
     0
1002
}
1002
{
1000
REACTOR
1002
}
1001
GENIUS_GENOBJ-N-HTC_13
1002
{
1000
OWNER
1000
GEN
1002
}
1001
GENIUS_GENHATCH_13
1002
{
1000
DATA
1040
45.0
1042
2.5
1000
_U
1070
     0
1011
548.067465
1021
591.1262139999999
1031
0.0
1002
}
1002
{
1000
UCS
1010
0.0
1020
0.0
1030
0.0
1010
1.0
1020
0.0
1030
0.0
1010
0.0
1020
1.0
1030
0.0
1002
}
  0
ENDSEC
  0
SECTION
  2
OBJECTS
  0
DICTIONARY
  5
15EA
330
0
100
AcDbDictionary
281
     1
  3
ACAD_COLOR
350
1971
  3
ACAD_GROUP
350
15EB
  3
ACAD_LAYOUT
350
1974
  3
ACAD_MATERIAL
350
1970
  3
ACAD_MLINESTYLE
350
15F9
  3
ACAD_PLOTSETTINGS
350
1975
  3
ACAD_PLOTSTYLENAME
350
196E
  3
ACAD_TABLESTYLE
350
1972
  3
ACDBHEADERROUNDTRIPXREC
350
1A75
  3
AcDbVariableDictionary
350
1A70
  3
AcmDictionary
350
19D3
  3
AMG
350
1979
  3
AMGSNAPSETTINGS
350
1A45
  0
DICTIONARY
  5
1971
102
{ACAD_REACTORS
330
15EA
102
}
330
15EA
100
AcDbDictionary
281
     1
  0
DICTIONARY
  5
15EB
102
{ACAD_REACTORS
330
15EA
102
}
330
15EA
100
AcDbDictionary
281
     1
  0
DICTIONARY
  5
1974
102
{ACAD_REACTORS
330
15EA
102
}
330
15EA
100
AcDbDictionary
281
     1
  3
Layout1
350
1977
  3
Model
350
1976
  0
DICTIONARY
  5
1970
102
{ACAD_REACTORS
330
15EA
102
}
330
15EA
100
AcDbDictionary
281
     1
  0
DICTIONARY
  5
15F9
102
{ACAD_REACTORS
330
15EA
102
}
330
15EA
100
AcDbDictionary
281
     1
  3
STANDARD
350
15FA
  0
DICTIONARY
  5
1975
102
{ACAD_REACTORS
330
15EA
102
}
330
15EA
100
AcDbDictionary
281
     1
  0
ACDBDICTIONARYWDFLT
  5
196E
102
{ACAD_REACTORS
330
15EA
102
}
330
15EA
100
AcDbDictionary
281
     1
  3
Normal
350
196F
100
AcDbDictionaryWithDefault
340
196F
  0
DICTIONARY
  5
1972
102
{ACAD_REACTORS
330
15EA
102
}
330
15EA
100
AcDbDictionary
281
     1
  3
Standard
350
1973
  0
DICTIONARY
  5
1A75
102
{ACAD_REACTORS
330
15EA
102
}
330
15EA
100
AcDbDictionary
281
     1
  0
DICTIONARY
  5
1A70
102
{ACAD_REACTORS
330
15EA
102
}
330
15EA
100
AcDbDictionary
281
     1
  3
CTABLESTYLE
350
1A71
  3
DIMASSOC
350
1A72
  3
PROJECTNAME
350
1A73
  0
DICTIONARY
  5
19D3
102
{ACAD_REACTORS
330
15EA
102
}
330
15EA
100
AcDbDictionary
281
     1
  3
AcmStdDictionary
350
19DE
  3
AMDTSECTSYM_ARROWCOLOR
350
1A01
  0
DICTIONARY
  5
1979
102
{ACAD_REACTORS
330
15EA
102
}
330
15EA
100
AcDbDictionary
281
     1
  0
DICTIONARY
  5
1A45
102
{ACAD_REACTORS
330
15EA
102
}
330
15EA
100
AcDbDictionary
281
     1
  0
LAYOUT
  5
1977
102
{ACAD_XDICTIONARY
360
1A78
102
}
102
{ACAD_REACTORS
330
1974
102
}
330
1974
100
AcDbPlotSettings
  1

  2
Xerox Document Centre CS50 PS
  4

  6

 40
0.0
 41
0.0
 42
0.0
 43
0.0
 44
0.0
 45
0.0
 46
0.0
 47
0.0
 48
0.0
 49
0.0
140
0.0
141
0.0
142
1.0
143
1.0
 70
   688
 72
     0
 73
     0
 74
     5
  7

 75
    16
147
1.0
148
0.0
149
0.0
100
AcDbLayout
  1
Layout1
 70
     1
 71
     1
 10
0.0
 20
0.0
 11
209.9
 21
296.9
 12
0.0
 22
0.0
 32
0.0
 14
0.0
 24
0.0
 34
0.0
 15
209.9
 25
296.9
 35
0.0
146
0.0
 13
0.0
 23
0.0
 33
0.0
 16
1.0
 26
0.0
 36
0.0
 17
0.0
 27
1.0
 37
0.0
 76
     0
330
15F3
  0
LAYOUT
  5
1976
102
{ACAD_XDICTIONARY
360
1A76
102
}
102
{ACAD_REACTORS
330
1974
102
}
330
1974
100
AcDbPlotSettings
  1

  2
Xerox Document Centre CS50 PS
  4

  6

 40
0.0
 41
0.0
 42
0.0
 43
0.0
 44
0.0
 45
0.0
 46
0.0
 47
0.0
 48
0.0
 49
0.0
140
0.0
141
0.0
142
1.0
143
1.0
 70
  1712
 72
     0
 73
     0
 74
     0
  7

 75
     0
147
1.0
148
0.0
149
0.0
100
AcDbLayout
  1
Model
 70
     1
 71
     0
 10
0.0
 20
0.0
 11
12.0
 21
9.0
 12
0.0
 22
0.0
 32
0.0
 14
0.0
 24
0.0
 34
0.0
 15
0.0
 25
0.0
 35
0.0
146
0.0
 13
0.0
 23
0.0
 33
0.0
 16
1.0
 26
0.0
 36
0.0
 17
0.0
 27
1.0
 37
0.0
 76
     0
330
15F6
  0
MLINESTYLE
  5
15FA
102
{ACAD_REACTORS
330
15F9
102
}
330
15F9
100
AcDbMlineStyle
  2
STANDARD
 70
     0
  3

 62
   256
 51
90.0
 52
90.0
 71
     2
 49
0.5
 62
   256
  6
BYLAYER
 49
-0.5
 62
   256
  6
BYLAYER
  0
ACDBPLACEHOLDER
  5
196F
102
{ACAD_REACTORS
330
196E
102
}
330
196E
  0
TABLESTYLE
  5
1973
102
{ACAD_REACTORS
330
1972
102
}
330
1972
100
AcDbTableStyle
  3
Standard
 70
     0
 71
     0
 40
1.5
 41
1.5
280
     0
281
     0
  7
STANDARD
140
4.5
170
     2
 62
     0
 63
     7
283
     0
274
    -2
284
     1
 64
     0
275
    -2
285
     1
 65
     0
276
    -2
286
     1
 66
     0
277
    -2
287
     1
 67
     0
278
    -2
288
     1
 68
     0
279
    -2
289
     1
 69
     0
  7
STANDARD
140
6.0
170
     5
 62
     0
 63
     7
283
     0
274
    -2
284
     1
 64
     0
275
    -2
285
     1
 65
     0
276
    -2
286
     1
 66
     0
277
    -2
287
     1
 67
     0
278
    -2
288
     1
 68
     0
279
    -2
289
     1
 69
     0
  7
STANDARD
140
4.5
170
     5
 62
     0
 63
     7
283
     0
274
    -2
284
     1
 64
     0
275
    -2
285
     1
 65
     0
276
    -2
286
     1
 66
     0
277
    -2
287
     1
 67
     0
278
    -2
288
     1
 68
     0
279
    -2
289
     1
 69
     0
  0
DICTIONARYVAR
  5
1A71
102
{ACAD_REACTORS
330
1A70
102
}
330
1A70
100
DictionaryVariables
280
     0
  1
STANDARD
  0
DICTIONARYVAR
  5
1A72
102
{ACAD_REACTORS
330
1A70
102
}
330
1A70
100
DictionaryVariables
280
     0
  1
1
  0
DICTIONARYVAR
  5
1A73
102
{ACAD_REACTORS
330
1A70
102
}
330
1A70
100
DictionaryVariables
280
     0
  1

  0
DICTIONARY
  5
19DE
102
{ACAD_REACTORS
330
19D3
102
}
330
19D3
100
AcDbDictionary
281
     1
  0
XRECORD
  5
1A01
102
{ACAD_REACTORS
330
19D3
102
}
330
19D3
100
AcDbXrecord
280
     1
 90
-1023410169
  0
DICTIONARY
  5
1A78
330
1977
100
AcDbDictionary
280
     1
281
     1
  3
ACAD_XREC_ROUNDTRIP
360
1A79
  0
DICTIONARY
  5
1A76
330
1976
100
AcDbDictionary
280
     1
281
     1
  3
ACAD_XREC_ROUNDTRIP
360
1A77
  0
XRECORD
  5
1A79
102
{ACAD_REACTORS
330
1A78
102
}
330
1A78
100
AcDbXrecord
280
     1
102
SHADEPLOT
 70
     0
102
SHADEPLOTRESLEVEL
 70
     2
102
SHADEPLOTCUSTOMDPI
 70
   300
  0
XRECORD
  5
1A77
102
{ACAD_REACTORS
330
1A76
102
}
330
1A76
100
AcDbXrecord
280
     1
102
SHADEPLOT
 70
     0
102
SHADEPLOTRESLEVEL
 70
     2
102
SHADEPLOTCUSTOMDPI
 70
   300
  0
ENDSEC
  0
EOF
