  0
SECTION
  2
HEADER
  9
$ACADVER
  1
AC1015
  9
$ACADMAINTVER
 70
    20
  9
$DWGCODEPAGE
  3
ANSI_1252
  9
$INSBASE
 10
0.0
 20
0.0
 30
0.0
  9
$EXTMIN
 10
118.4486414986295
 20
51.95846808138094
 30
-0.0015258207003583
  9
$EXTMAX
 10
547.3503131388574
 20
630.8235188024391
 30
0.0000000349246037
  9
$LIMMIN
 10
0.0
 20
0.0
  9
$LIMMAX
 10
1050.0
 20
1050.0
  9
$ORTHOMODE
 70
     0
  9
$REGENMODE
 70
     1
  9
$FILLMODE
 70
     1
  9
$QTEXTMODE
 70
     0
  9
$MIRRTEXT
 70
     0
  9
$LTSCALE
 40
5.0
  9
$ATTMODE
 70
     1
  9
$TEXTSIZE
 40
17.5
  9
$TRACEWID
 40
0.05
  9
$TEXTSTYLE
  7
STANDARD
  9
$CLAYER
  8
0
  9
$CELTYPE
  6
BYLAYER
  9
$CECOLOR
 62
   256
  9
$CELTSCALE
 40
1.0
  9
$DISPSILH
 70
     0
  9
$DIMSCALE
 40
5.0
  9
$DIMASZ
 40
2.5
  9
$DIMEXO
 40
1.0
  9
$DIMDLI
 40
7.0
  9
$DIMRND
 40
0.0
  9
$DIMDLE
 40
0.0
  9
$DIMEXE
 40
1.0
  9
$DIMTP
 40
0.1
  9
$DIMTM
 40
0.1
  9
$DIMTXT
 40
3.5
  9
$DIMCEN
 40
0.0
  9
$DIMTSZ
 40
0.0
  9
$DIMTOL
 70
     0
  9
$DIMLIM
 70
     0
  9
$DIMTIH
 70
     0
  9
$DIMTOH
 70
     0
  9
$DIMSE1
 70
     0
  9
$DIMSE2
 70
     0
  9
$DIMTAD
 70
     1
  9
$DIMZIN
 70
    12
  9
$DIMBLK
  1

  9
$DIMASO
 70
     1
  9
$DIMSHO
 70
     1
  9
$DIMPOST
  1

  9
$DIMAPOST
  1
"
  9
$DIMALT
 70
     0
  9
$DIMALTD
 70
     2
  9
$DIMALTF
 40
0.03937
  9
$DIMLFAC
 40
1.0
  9
$DIMTOFL
 70
     1
  9
$DIMTVP
 40
0.0
  9
$DIMTIX
 70
     0
  9
$DIMSOXD
 70
     0
  9
$DIMSAH
 70
     0
  9
$DIMBLK1
  1

  9
$DIMBLK2
  1

  9
$DIMSTYLE
  2
GEN-ISO
  9
$DIMCLRD
 70
   256
  9
$DIMCLRE
 70
   256
  9
$DIMCLRT
 70
     2
  9
$DIMTFAC
 40
0.71
  9
$DIMGAP
 40
0.6
  9
$DIMJUST
 70
     0
  9
$DIMSD1
 70
     0
  9
$DIMSD2
 70
     0
  9
$DIMTOLJ
 70
     0
  9
$DIMTZIN
 70
     0
  9
$DIMALTZ
 70
     0
  9
$DIMALTTZ
 70
     0
  9
$DIMUPT
 70
     0
  9
$DIMDEC
 70
     2
  9
$DIMTDEC
 70
     3
  9
$DIMALTU
 70
     2
  9
$DIMALTTD
 70
     4
  9
$DIMTXSTY
  7
STANDARD
  9
$DIMAUNIT
 70
     0
  9
$DIMADEC
 70
     0
  9
$DIMALTRND
 40
0.0
  9
$DIMAZIN
 70
     0
  9
$DIMDSEP
 70
    46
  9
$DIMATFIT
 70
     3
  9
$DIMFRAC
 70
     0
  9
$DIMLDRBLK
  1

  9
$DIMLUNIT
 70
     2
  9
$DIMLWD
 70
    -2
  9
$DIMLWE
 70
    -2
  9
$DIMTMOVE
 70
     0
  9
$LUNITS
 70
     2
  9
$LUPREC
 70
     2
  9
$SKETCHINC
 40
0.1
  9
$FILLETRAD
 40
0.000005
  9
$AUNITS
 70
     0
  9
$AUPREC
 70
     2
  9
$MENU
  1
.
  9
$ELEVATION
 40
0.0
  9
$PELEVATION
 40
0.0
  9
$THICKNESS
 40
0.0
  9
$LIMCHECK
 70
     0
  9
$CHAMFERA
 40
12.5
  9
$CHAMFERB
 40
12.5
  9
$CHAMFERC
 40
0.0
  9
$CHAMFERD
 40
0.0
  9
$SKPOLY
 70
     0
  9
$TDCREATE
 40
2451421.455512581
  9
$TDUCREATE
 40
2451421.413845914
  9
$TDUPDATE
 40
2454088.835905926
  9
$TDUUPDATE
 40
2454088.794239260
  9
$TDINDWG
 40
0.0058104861
  9
$TDUSRTIMER
 40
0.0058104861
  9
$USRTIMER
 70
     1
  9
$ANGBASE
 50
0.0
  9
$ANGDIR
 70
     0
  9
$PDMODE
 70
     0
  9
$PDSIZE
 40
0.0
  9
$PLINEWID
 40
0.0
  9
$SPLFRAME
 70
     0
  9
$SPLINETYPE
 70
     6
  9
$SPLINESEGS
 70
     8
  9
$HANDSEED
  5
1CA1
  9
$SURFTAB1
 70
     6
  9
$SURFTAB2
 70
     6
  9
$SURFTYPE
 70
     6
  9
$SURFU
 70
     6
  9
$SURFV
 70
     6
  9
$UCSBASE
  2

  9
$UCSNAME
  2

  9
$UCSORG
 10
0.0
 20
0.0
 30
0.0
  9
$UCSXDIR
 10
1.0
 20
0.0
 30
0.0
  9
$UCSYDIR
 10
0.0
 20
1.0
 30
0.0
  9
$UCSORTHOREF
  2

  9
$UCSORTHOVIEW
 70
     0
  9
$UCSORGTOP
 10
0.0
 20
0.0
 30
0.0
  9
$UCSORGBOTTOM
 10
0.0
 20
0.0
 30
0.0
  9
$UCSORGLEFT
 10
0.0
 20
0.0
 30
0.0
  9
$UCSORGRIGHT
 10
0.0
 20
0.0
 30
0.0
  9
$UCSORGFRONT
 10
0.0
 20
0.0
 30
0.0
  9
$UCSORGBACK
 10
0.0
 20
0.0
 30
0.0
  9
$PUCSBASE
  2

  9
$PUCSNAME
  2

  9
$PUCSORG
 10
0.0
 20
0.0
 30
0.0
  9
$PUCSXDIR
 10
1.0
 20
0.0
 30
0.0
  9
$PUCSYDIR
 10
0.0
 20
1.0
 30
0.0
  9
$PUCSORTHOREF
  2

  9
$PUCSORTHOVIEW
 70
     0
  9
$PUCSORGTOP
 10
0.0
 20
0.0
 30
0.0
  9
$PUCSORGBOTTOM
 10
0.0
 20
0.0
 30
0.0
  9
$PUCSORGLEFT
 10
0.0
 20
0.0
 30
0.0
  9
$PUCSORGRIGHT
 10
0.0
 20
0.0
 30
0.0
  9
$PUCSORGFRONT
 10
0.0
 20
0.0
 30
0.0
  9
$PUCSORGBACK
 10
0.0
 20
0.0
 30
0.0
  9
$USERI1
 70
     0
  9
$USERI2
 70
     0
  9
$USERI3
 70
     0
  9
$USERI4
 70
     0
  9
$USERI5
 70
     0
  9
$USERR1
 40
0.0
  9
$USERR2
 40
0.0
  9
$USERR3
 40
0.0
  9
$USERR4
 40
0.0
  9
$USERR5
 40
0.0
  9
$WORLDVIEW
 70
     1
  9
$SHADEDGE
 70
     3
  9
$SHADEDIF
 70
    70
  9
$TILEMODE
 70
     1
  9
$MAXACTVP
 70
    48
  9
$PINSBASE
 10
0.0
 20
0.0
 30
0.0
  9
$PLIMCHECK
 70
     0
  9
$PEXTMIN
 10
0.0
 20
0.0
 30
0.0
  9
$PEXTMAX
 10
139.442
 20
285.648
 30
0.0
  9
$PLIMMIN
 10
0.0
 20
0.0
  9
$PLIMMAX
 10
139.442
 20
285.648
  9
$UNITMODE
 70
     0
  9
$VISRETAIN
 70
     1
  9
$PLINEGEN
 70
     1
  9
$PSLTSCALE
 70
     1
  9
$TREEDEPTH
 70
 -3020
  9
$CMLSTYLE
  2
STANDARD
  9
$CMLJUST
 70
     0
  9
$CMLSCALE
 40
1.0
  9
$PROXYGRAPHICS
 70
     1
  9
$MEASUREMENT
 70
     1
  9
$CELWEIGHT
370
    -1
  9
$ENDCAPS
280
     0
  9
$JOINSTYLE
280
     0
  9
$LWDISPLAY
290
     0
  9
$INSUNITS
 70
     0
  9
$HYPERLINKBASE
  1

  9
$STYLESHEET
  1

  9
$XEDIT
290
     1
  9
$CEPSNTYPE
380
     0
  9
$PSTYLEMODE
290
     1
  9
$FINGERPRINTGUID
  2
{5D8D6585-B700-42BC-BCE3-D0BBB23B99B3}
  9
$VERSIONGUID
  2
{708BF77C-1183-4094-A3D2-3617A146ADBF}
  9
$EXTNAMES
290
     1
  9
$PSVPSCALE
 40
0.0
  9
$OLESTARTUP
290
     0
  0
ENDSEC
  0
SECTION
  2
CLASSES
  0
CLASS
  1
ACDBDICTIONARYWDFLT
  2
AcDbDictionaryWithDefault
  3
ObjectDBX Classes
 90
        0
280
     0
281
     0
  0
CLASS
  1
TABLESTYLE
  2
AcDbTableStyle
  3
ObjectDBX Classes
 90
     2047
280
     0
281
     0
  0
CLASS
  1
AMGSETTINGSOBJ
  2
AmgSettingsObj
  3
"AcadM|Product Description: AutoCAD Mechanical 2000|Company: Autodesk"
 90
        0
280
     0
281
     0
  0
CLASS
  1
ACME_DOCUMENT
  2
AcMeDbDoc
  3
AcMeServices
 90
        0
280
     0
281
     0
  0
CLASS
  1
ACMESCOPE
  2
AcMeScope
  3
AcMeServices
 90
        0
280
     0
281
     0
  0
CLASS
  1
ACMECOMMANDHISTORY
  2
AcMeCommandHistory
  3
AcMeServices
 90
        0
280
     0
281
     0
  0
CLASS
  1
ACIMSYSVARMAN
  2
AcImSysVarManager
  3
AcMeServices
 90
        0
280
     0
281
     0
  0
CLASS
  1
ACIMINTSYSVAR
  2
AcImIntSysVar
  3
AcMeServices
 90
        0
280
     0
281
     0
  0
CLASS
  1
ACMEDRAWINGMAN
  2
AcMeDrawingMan
  3
AcMeServices
 90
        0
280
     0
281
     0
  0
CLASS
  1
ACMEVIEW
  2
AcMeView
  3
AcMeServices
 90
        0
280
     0
281
     0
  0
CLASS
  1
ACDBENTITYCACHE
  2
AcMeEntityCache
  3
AcMeServices
 90
        0
280
     0
281
     0
  0
CLASS
  1
GSMANAGER
  2
AcMeGSManager
  3
AcMeServices
 90
        0
280
     0
281
     0
  0
CLASS
  1
AMDTINTERNALREACTOR
  2
AmdtInternalReactor
  3
AcMeServices
 90
        0
280
     0
281
     0
  0
CLASS
  1
ACMESTATEMGR
  2
AcMeStateMgr
  3
AcMeServices
 90
        0
280
     0
281
     0
  0
CLASS
  1
ACGREFMASTER
  2
AcGrefMaster
  3
AcAttribServices
 90
        0
280
     0
281
     0
  0
CLASS
  1
AM_DRAWING_MGR
  2
AcDmDwgMgr
  3
AcMechDwgViewMgmt
 90
        0
280
     0
281
     0
  0
CLASS
  1
AM_DWG_DOCUMENT
  2
AcDmDwgDocument
  3
AcMechDwgViewMgmt
 90
        0
280
     0
281
     0
  0
CLASS
  1
AM_DWG_SHEET
  2
AcDmSheet
  3
AcMechDwgViewMgmt
 90
        0
280
     0
281
     0
  0
CLASS
  1
AM_VIEWDIMPARMAP
  2
AcDmViewDimParMap
  3
AcMechDwgViewMgmt
 90
        0
280
     0
281
     0
  0
CLASS
  1
ACIMREALSYSVAR
  2
AcImRealSysVar
  3
AcMeServices
 90
        0
280
     0
281
     0
  0
CLASS
  1
AM_DWGMGR_NAME
  2
AcDmDwgMgrName
  3
AcMechDwgViewMgmt
 90
        0
280
     0
281
     0
  0
CLASS
  1
ACME_DATABASE
  2
AcMeDbDatabase
  3
AcMeServices
 90
        0
280
     0
281
     0
  0
CLASS
  1
ACRFINSADJUSTERMGR
  2
AcRfInsAdjusterMgr
  3
AcMeServices
 90
        0
280
     0
281
     0
  0
CLASS
  1
ACGREFACADMASTER
  2
AcGrefacadMaster
  3
AcGrefServices
 90
        0
280
     0
281
     0
  0
CLASS
  1
AMDTMENUSTATEMGR
  2
AmdtMenuStateMgr
  3
McadcomServices
 90
        0
280
     0
281
     0
  0
CLASS
  1
AMDTMCOMMENUSTATE
  2
AmdtMcomMenuState
  3
McadcomServices
 90
        0
280
     0
281
     0
  0
CLASS
  1
AMIMASTER
  2
AmiMaster
  3
AmiServices
 90
        0
280
     0
281
     0
  0
CLASS
  1
MAPIAMMOUDLE
  2
MApiAmModule
  3
MApiAmServices
 90
        0
280
     0
281
     0
  0
CLASS
  1
ACIMSTRSYSVAR
  2
AcImStrSysVar
  3
AcMeServices
 90
        0
280
     0
281
     0
  0
CLASS
  1
AMDTADMENUSTATE
  2
AmdtAdMenuState
  3
DesignerServices
 90
        0
280
     0
281
     0
  0
CLASS
  1
ADAPPL
  2
AcAdAppl
  3
DesignerServices
 90
        0
280
     0
281
     0
  0
CLASS
  1
DEPMGR
  2
AcAdDepMgr
  3
DesignerServices
 90
        0
280
     0
281
     0
  0
CLASS
  1
PARAMMGR
  2
AcAdParamMgr
  3
DesignerServices
 90
        0
280
     0
281
     0
  0
CLASS
  1
PARAMSCOPE
  2
AcAdParamScope
  3
DesignerServices
 90
        0
280
     0
281
     0
  0
CLASS
  1
NAMEDAPPL
  2
AcAdNamedAppl
  3
DesignerServices
 90
        0
280
     0
281
     0
  0
CLASS
  1
AMDTDMMENUSTATE
  2
AmdtDmMenuState
  3
AcMechDwgViewMgmt
 90
        0
280
     0
281
     0
  0
CLASS
  1
AMDTAMMENUSTATE
  2
AmdtAmMenuState
  3
DesignerAssemblies
 90
        0
280
     0
281
     0
  0
CLASS
  1
ACAMPROJECT
  2
AcAmProject
  3
DesignerAssemblies
 90
        0
280
     0
281
     0
  0
CLASS
  1
ACAMGRCOMPDEF
  2
AcAmGrCompDef
  3
DesignerAssemblies
 90
        0
280
     0
281
     0
  0
CLASS
  1
ACCMCONTEXT
  2
AcCmContext
  3
DesignerAssemblies
 90
        0
280
     0
281
     0
  0
CLASS
  1
ACAMCOMPDEF
  2
AcAmCompDef
  3
DesignerAssemblies
 90
        0
280
     0
281
     0
  0
CLASS
  1
ACAMCOMPDEFMGR
  2
AcAmCompDefMgr
  3
DesignerAssemblies
 90
        0
280
     0
281
     0
  0
CLASS
  1
AMCONTEXTMGR
  2
AcAmContextMgr
  3
DesignerAssemblies
 90
        0
280
     0
281
     0
  0
CLASS
  1
ACAMCONTEXTMODELER
  2
AcAmContextModeler
  3
DesignerAssemblies
 90
        0
280
     0
281
     0
  0
CLASS
  1
ACMDATADICTIONARY
  2
AcmDataDictionary
  3
"AcmSymBB|Product Description: AutoCAD Mechanical 2004 DX|Company: Autodesk"
 90
        0
280
     0
281
     0
  0
CLASS
  1
CATALOGSTATE
  2
AcAmCatalogState
  3
DesignerAssemblies
 90
        0
280
     0
281
     0
  0
CLASS
  1
ACAMGRCOMPDEFSET
  2
AcAmGrCompDefSet
  3
DesignerAssemblies
 90
        0
280
     0
281
     0
  0
CLASS
  1
AMDTBROWSERDBTAB
  2
AmdtBrowserDbTab
  3
McadcomServices
 90
        0
280
     0
281
     0
  0
CLASS
  1
CBROWSERAPPOBJECT
  2
CBrowserAppObject
  3
McadcomServices
 90
        0
280
     0
281
     0
  0
CLASS
  1
DM_PLACEHOLDER
  2
AcDmSelsetPlaceholder
  3
AcMechDwgViewMgmt
 90
        0
280
     0
281
     0
  0
CLASS
  1
ACMSTANDARDDIN
  2
AcmStandardDIN
  3
"Amdt_StdImp|Product Description: AutoCAD Mechanical 2004 DX|Company: Autodesk"
 90
        0
280
     0
281
     0
  0
CLASS
  1
AMGOBJPROPCFG
  2
AmgObjPropCfg
  3
"AmgLay|Product Description: AutoCAD Mechanical 2000|Company: Autodesk"
 90
        1
280
     0
281
     0
  0
CLASS
  1
AMDTEDGESTANDARDDIN13715
  2
AmdtEdgeStdDIN13715
  3
"Amdt_StdImp|Product Description: AutoCAD Mechanical 2004 DX|Company: Autodesk"
 90
        0
280
     0
281
     0
  0
CLASS
  1
ACMSURFSTANDARDDIN
  2
AcmSurfTextStdDIN
  3
"Amdt_StdImp|Product Description: AutoCAD Mechanical 2004 DX|Company: Autodesk"
 90
        0
280
     0
281
     0
  0
CLASS
  1
ACMFCFSTANDARDDIN
  2
AcmFCFStdDIN
  3
"Amdt_StdImp|Product Description: AutoCAD Mechanical 2004 DX|Company: Autodesk"
 90
        0
280
     0
281
     0
  0
CLASS
  1
ACMWELDSTANDARDDIN
  2
AcmWeldingStdDIN
  3
"Amdt_StdImp|Product Description: AutoCAD Mechanical 2004 DX|Company: Autodesk"
 90
        0
280
     0
281
     0
  0
CLASS
  1
ACMIDSTANDARDDIN
  2
AcmIdStdDIN
  3
"Amdt_StdImp|Product Description: AutoCAD Mechanical 2004 DX|Company: Autodesk"
 90
        0
280
     0
281
     0
  0
CLASS
  1
ACMDATUMSTANDARDDIN
  2
AcmDatumStdDIN
  3
"Amdt_StdImp|Product Description: AutoCAD Mechanical 2004 DX|Company: Autodesk"
 90
        0
280
     0
281
     0
  0
CLASS
  1
ACMBOMSTANDARDDIN
  2
AcmBOMStdDIN
  3
"Amdt_StdImp|Product Description: AutoCAD Mechanical 2004 DX|Company: Autodesk"
 90
        0
280
     0
281
     0
  0
CLASS
  1
ACMDETAILSTANDARDDIN
  2
AmdtDetailSymStdDIN
  3
"Amdt_StdImp|Product Description: AutoCAD Mechanical 2004 DX|Company: Autodesk"
 90
        0
280
     0
281
     0
  0
CLASS
  1
ACMSECTIONSTANDARDDIN
  2
AmdtSectionSymStdDIN
  3
"Amdt_StdImp|Product Description: AutoCAD Mechanical 2004 DX|Company: Autodesk"
 90
        0
280
     0
281
     0
  0
CLASS
  1
ACMCENTERLINESTANDARDDIN
  2
AmdtCenterLineStdDIN
  3
"Amdt_StdImp|Product Description: AutoCAD Mechanical 2004 DX|Company: Autodesk"
 90
        0
280
     0
281
     0
  0
CLASS
  1
ACMTHREADLINESTANDARDDIN
  2
AmdtThreadLineStdDIN
  3
"Amdt_StdImp|Product Description: AutoCAD Mechanical 2004 DX|Company: Autodesk"
 90
        0
280
     0
281
     0
  0
CLASS
  1
ACMNOTESTANDARDDIN
  2
AmdtNoteStdDIN
  3
"Amdt_StdImp|Product Description: AutoCAD Mechanical 2004 DX|Company: Autodesk"
 90
        0
280
     0
281
     0
  0
CLASS
  1
AMDTNOTETEMPLATEDB
  2
AmdtNoteTemplateDB
  3
AMDT_STDIMP_MODULE_NAME
 90
        0
280
     0
281
     0
  0
CLASS
  1
ACAMGLAYSTD
  2
AcAmgLayStd
  3
"AcAmgLayStd|Product Description: AutoCAD Mechanical 2000|Company: Autodesk"
 90
        0
280
     0
281
     0
  0
CLASS
  1
ACAMGDIMSTD
  2
AcAmgDimStd
  3
"AcAmgDimStd|Product Description: AutoCAD Mechanical 2000|Company: Autodesk"
 90
        0
280
     0
281
     0
  0
CLASS
  1
ACAMGHOLECHARTSTDDIN
  2
AcAmgHoleChartStdDIN
  3
ACMSYMBB_MODULE_NAME
 90
        0
280
     0
281
     0
  0
CLASS
  1
ACAMGTITLESTD
  2
AcAmgTitleStd
  3
"TITLEAPP"
 90
        0
280
     0
281
     0
  0
CLASS
  1
ACAMGFILTERDAT
  2
AcAmgFilterDat
  3
"AcadM|Product Description: AutoCAD Mechanical 2000|Company: Autodesk"
 90
        0
280
     0
281
     0
  0
CLASS
  1
DICTIONARYVAR
  2
AcDbDictionaryVar
  3
ObjectDBX Classes
 90
        0
280
     0
281
     0
  0
CLASS
  1
ACDBPLACEHOLDER
  2
AcDbPlaceHolder
  3
ObjectDBX Classes
 90
        0
280
     0
281
     0
  0
CLASS
  1
LAYOUT
  2
AcDbLayout
  3
ObjectDBX Classes
 90
        0
280
     0
281
     0
  0
ENDSEC
  0
SECTION
  2
TABLES
  0
TABLE
  2
VPORT
  5
15F9
330
0
100
AcDbSymbolTable
 70
    16
  0
VPORT
  5
1C9B
330
15F9
100
AcDbSymbolTableRecord
100
AcDbViewportTableRecord
  2
*Active
 70
     0
 10
0.0
 20
0.0
 11
1.0
 21
1.0
 12
332.8994773187434
 22
341.39099344191
 13
0.0
 23
0.0
 14
5.0
 24
5.0
 15
50.0
 25
50.0
 16
0.0
 26
0.0
 36
1.0
 17
0.0
 27
0.0
 37
0.0
 40
583.0698815979665
 41
1.494545454545454
 42
50.0
 43
0.0
 44
0.0
 50
0.0
 51
0.0
 71
     0
 72
  1000
 73
     1
 74
     1
 75
     0
 76
     0
 77
     0
 78
     0
281
     0
 65
     0
110
0.0
120
0.0
130
0.0
111
1.0
121
0.0
131
0.0
112
0.0
122
1.0
132
0.0
 79
     0
146
0.0
  0
ENDTAB
  0
TABLE
  2
LTYPE
  5
15F6
330
0
100
AcDbSymbolTable
 70
    20
  0
LTYPE
  5
1603
330
15F6
100
AcDbSymbolTableRecord
100
AcDbLinetypeTableRecord
  2
BYBLOCK
 70
     0
  3

 72
    65
 73
     0
 40
0.0
  0
LTYPE
  5
1604
330
15F6
100
AcDbSymbolTableRecord
100
AcDbLinetypeTableRecord
  2
BYLAYER
 70
     0
  3

 72
    65
 73
     0
 40
0.0
  0
LTYPE
  5
1605
330
15F6
100
AcDbSymbolTableRecord
100
AcDbLinetypeTableRecord
  2
CONTINUOUS
 70
     0
  3
Solid line
 72
    65
 73
     0
 40
0.0
  0
LTYPE
  5
1B69
330
15F6
100
AcDbSymbolTableRecord
100
AcDbLinetypeTableRecord
  2
GEN3A
 70
     0
  3
 - - - - -
 72
    65
 73
     2
 40
3.125
 49
2.25
 74
     0
 49
-0.875
 74
     0
  0
LTYPE
  5
1BD2
330
15F6
100
AcDbSymbolTableRecord
100
AcDbLinetypeTableRecord
  2
HIDDEN
 70
     0
  3
Verdeckt
 72
    65
 73
     2
 40
9.525
 49
6.349999999999999
 74
     0
 49
-3.174999999999999
 74
     0
  0
LTYPE
  5
1BD3
330
15F6
100
AcDbSymbolTableRecord
100
AcDbLinetypeTableRecord
  2
PHANTOM2
 70
     0
  3
Phantom (.5x) ___ _ _ ___ _ _ ___ _ _ ___ _ _
 72
    65
 73
     6
 40
31.75
 49
15.875
 74
     0
 49
-3.174999999999999
 74
     0
 49
3.174999999999999
 74
     0
 49
-3.174999999999999
 74
     0
 49
3.174999999999999
 74
     0
 49
-3.174999999999999
 74
     0
  0
LTYPE
  5
1BD4
330
15F6
100
AcDbSymbolTableRecord
100
AcDbLinetypeTableRecord
  2
CENTER
 70
     0
  3
Mitte ____ _ ____ _ ____ _ ____ _ ____ _ ____
 72
    65
 73
     4
 40
50.8
 49
31.75
 74
     0
 49
-6.349999999999999
 74
     0
 49
6.349999999999999
 74
     0
 49
-6.349999999999999
 74
     0
  0
LTYPE
  5
1C08
330
15F6
100
AcDbSymbolTableRecord
100
AcDbLinetypeTableRecord
  2
AM_ISO02W050
 70
     0
  3
__ __ __ __ __ __ __ __ __ __ __ __ __ __ __
 72
    65
 73
     2
 40
7.5
 49
6.0
 74
     0
 49
-1.5
 74
     0
  0
LTYPE
  5
1C09
330
15F6
100
AcDbSymbolTableRecord
100
AcDbLinetypeTableRecord
  2
AM_ISO08W050
 70
     0
  3
____ . ____ . ____ . ____ . ____ . ____ . ____
 72
    65
 73
     4
 40
18.0
 49
12.0
 74
     0
 49
-1.5
 74
     0
 49
3.0
 74
     0
 49
-1.5
 74
     0
  0
LTYPE
  5
1C0A
330
15F6
100
AcDbSymbolTableRecord
100
AcDbLinetypeTableRecord
  2
AM_ISO09W050
 70
     0
  3
_____ . . _____ . . _____ . . ____ .. ____
 72
    65
 73
     6
 40
22.5
 49
12.0
 74
     0
 49
-1.5
 74
     0
 49
3.0
 74
     0
 49
-1.5
 74
     0
 49
3.0
 74
     0
 49
-1.5
 74
     0
  0
LTYPE
  5
1C0B
330
15F6
100
AcDbSymbolTableRecord
100
AcDbLinetypeTableRecord
  2
Amconstr
 70
     0
  3
_______________________
 72
    65
 73
     2
 40
9999.0
 49
9999.0
 74
     0
 49
0.0
 74
     0
  0
LTYPE
  5
1C0C
330
15F6
100
AcDbSymbolTableRecord
100
AcDbLinetypeTableRecord
  2
AM_ISO08W050x2
 70
     0
  3
__ . __ . __ . __ . __ . __
 72
    65
 73
     4
 40
9.0
 49
6.0
 74
     0
 49
-0.75
 74
     0
 49
1.5
 74
     0
 49
-0.75
 74
     0
  0
LTYPE
  5
1C0D
330
15F6
100
AcDbSymbolTableRecord
100
AcDbLinetypeTableRecord
  2
AM_ISO02W050x2
 70
     0
  3
 _ _ _ _ _ _ _ _ _ _ _ _
 72
    65
 73
     2
 40
3.75
 49
3.0
 74
     0
 49
-0.75
 74
     0
  0
LTYPE
  5
1C10
330
15F6
100
AcDbSymbolTableRecord
100
AcDbLinetypeTableRecord
  2
Amzigzag
 70
     0
  3
/\/-/\/-/\/-/\/-/\/-/\/
 72
    65
 73
     2
 40
11.0001
 49
0.0001
 74
     4
 75
   136
340
1C0F
 46
0.04
 50
0.0
 44
0.0
 45
0.0
 49
-11.0
 74
     0
  0
LTYPE
  5
1C11
330
15F6
100
AcDbSymbolTableRecord
100
AcDbLinetypeTableRecord
  2
AM_DIN_F_W050
 70
     0
  3
__ __ __ __ __ __ __ __ __ __ __ __ __ __ __
 72
    65
 73
     2
 40
6.25
 49
4.75
 74
     0
 49
-1.5
 74
     0
  0
LTYPE
  5
1C12
330
15F6
100
AcDbSymbolTableRecord
100
AcDbLinetypeTableRecord
  2
AM_DIN_G_W050
 70
     0
  3
____ . ____ . ____ . ____ . ____ . ____ . ____
 72
    65
 73
     4
 40
13.75
 49
9.75
 74
     0
 49
-1.5
 74
     0
 49
1.0
 74
     0
 49
-1.5
 74
     0
  0
LTYPE
  5
1C13
330
15F6
100
AcDbSymbolTableRecord
100
AcDbLinetypeTableRecord
  2
AM_DIN_K_W050
 70
     0
  3
_____ . . _____ . . _____ . . ____ .. ____
 72
    65
 73
     6
 40
16.25
 49
9.75
 74
     0
 49
-1.5
 74
     0
 49
1.0
 74
     0
 49
-1.5
 74
     0
 49
1.0
 74
     0
 49
-1.5
 74
     0
  0
LTYPE
  5
1C14
330
15F6
100
AcDbSymbolTableRecord
100
AcDbLinetypeTableRecord
  2
AM_DIN_G_W050x2
 70
     0
  3
__ . __ . __ . __ . __ . __
 72
    65
 73
     4
 40
6.875
 49
4.75
 74
     0
 49
-0.875
 74
     0
 49
0.375
 74
     0
 49
-0.875
 74
     0
  0
LTYPE
  5
1C15
330
15F6
100
AcDbSymbolTableRecord
100
AcDbLinetypeTableRecord
  2
AM_DIN_F_W050x2
 70
     0
  3
 _ _ _ _ _ _ _ _ _ _ _ _
 72
    65
 73
     2
 40
3.125
 49
2.25
 74
     0
 49
-0.875
 74
     0
  0
LTYPE
  5
1C24
330
15F6
100
AcDbSymbolTableRecord
100
AcDbLinetypeTableRecord
  2
ACDINWELD
 70
     0
  3
_ _ _ _ _
 72
    65
 73
     2
 40
2.0
 49
2.0
 74
     0
 49
-1.0
 74
     0
  0
LTYPE
  5
1C25
330
15F6
100
AcDbSymbolTableRecord
100
AcDbLinetypeTableRecord
  2
ACDINTGB
 70
     0
  3
__ . . __ . .
 72
    65
 73
     6
 40
9.0
 49
4.0
 74
     0
 49
-1.0
 74
     0
 49
1.0
 74
     0
 49
-1.0
 74
     0
 49
1.0
 74
     0
 49
-1.0
 74
     0
  0
LTYPE
  5
1C26
330
15F6
100
AcDbSymbolTableRecord
100
AcDbLinetypeTableRecord
  2
ACDINTGL
 70
     0
  3
_ _ _ _ _
 72
    65
 73
     2
 40
3.0
 49
2.0
 74
     0
 49
-1.0
 74
     0
  0
ENDTAB
  0
TABLE
  2
LAYER
  5
15F3
330
0
100
AcDbSymbolTable
 70
    12
  0
LAYER
  5
15FF
330
15F3
100
AcDbSymbolTableRecord
100
AcDbLayerTableRecord
  2
0
 70
     0
 62
     7
  6
CONTINUOUS
370
    -3
390
1B96
  0
LAYER
  5
1619
330
15F3
100
AcDbSymbolTableRecord
100
AcDbLayerTableRecord
  2
3A
 70
     0
 62
     6
  6
GEN3A
370
    -3
390
1B96
  0
LAYER
  5
161A
330
15F3
100
AcDbSymbolTableRecord
100
AcDbLayerTableRecord
  2
4
 70
     0
 62
     3
  6
CONTINUOUS
370
    -3
390
1B96
  0
LAYER
  5
161C
330
15F3
100
AcDbSymbolTableRecord
100
AcDbLayerTableRecord
  2
5
 70
     0
 62
     3
  6
CONTINUOUS
370
    -3
390
1B96
  0
LAYER
  5
161D
330
15F3
100
AcDbSymbolTableRecord
100
AcDbLayerTableRecord
  2
6
 70
     0
 62
     2
  6
CONTINUOUS
370
    -3
390
1B96
  0
LAYER
  5
161F
330
15F3
100
AcDbSymbolTableRecord
100
AcDbLayerTableRecord
  2
8
 70
     0
 62
     1
  6
CONTINUOUS
370
    -3
390
1B96
  0
LAYER
  5
1620
330
15F3
100
AcDbSymbolTableRecord
100
AcDbLayerTableRecord
  2
PUNKTE
 70
     0
 62
     1
  6
CONTINUOUS
370
    -3
390
1B96
  0
LAYER
  5
1621
330
15F3
100
AcDbSymbolTableRecord
100
AcDbLayerTableRecord
  2
SCHRAFFUR_RAND
 70
     0
 62
    36
  6
CONTINUOUS
370
    -3
390
1B96
  0
LAYER
  5
165C
330
15F3
100
AcDbSymbolTableRecord
100
AcDbLayerTableRecord
  2
DEFPOINTS
 70
     0
 62
     7
  6
CONTINUOUS
290
     0
370
    -3
390
1B96
  0
LAYER
  5
1660
330
15F3
100
AcDbSymbolTableRecord
100
AcDbLayerTableRecord
  2
RAHM2
 70
     0
 62
     1
  6
CONTINUOUS
370
    -3
390
1B96
  0
LAYER
  5
1661
330
15F3
100
AcDbSymbolTableRecord
100
AcDbLayerTableRecord
  2
RAHM3
 70
     0
 62
     2
  6
CONTINUOUS
370
    -3
390
1B96
  0
LAYER
  5
1C68
330
15F3
100
AcDbSymbolTableRecord
100
AcDbLayerTableRecord
  2
AM_5
 70
     0
 62
     3
  6
CONTINUOUS
370
    25
390
1B96
1001
AcAecLayerStandard
1000

1000

  0
ENDTAB
  0
TABLE
  2
STYLE
  5
15F4
330
0
100
AcDbSymbolTable
 70
     4
  0
STYLE
  5
1600
330
15F4
100
AcDbSymbolTableRecord
100
AcDbTextStyleTableRecord
  2
STANDARD
 70
     0
 40
0.0
 41
1.0
 50
0.0
 71
     0
 42
17.5
  3
ISOCP.SHX
  4

  0
STYLE
  5
1C0F
330
15F4
100
AcDbSymbolTableRecord
100
AcDbTextStyleTableRecord
  2

 70
     1
 40
0.0
 41
1.0
 50
0.0
 71
     0
 42
17.5
  3
genltshp.shx
  4

  0
STYLE
  5
1C16
330
15F4
100
AcDbSymbolTableRecord
100
AcDbTextStyleTableRecord
  2
ACDINTS
 70
     0
 40
1.0
 41
1.0
 50
0.0
 71
     0
 42
17.5
  3
isocp.shx
  4

  0
STYLE
  5
1C23
330
15F4
100
AcDbSymbolTableRecord
100
AcDbTextStyleTableRecord
  2
ACDINGDT
 70
     0
 40
0.0
 41
1.0
 50
0.0
 71
     0
 42
17.5
  3
AMGDT
  4

  0
ENDTAB
  0
TABLE
  2
VIEW
  5
15F7
330
0
100
AcDbSymbolTable
 70
     6
  0
VIEW
  5
1696
330
15F7
100
AcDbSymbolTableRecord
100
AcDbViewTableRecord
  2
GEN1
 70
     0
 40
525.0
 10
402.9481129999999
 20
787.5
 41
805.8962259999999
 11
0.0
 21
0.0
 31
1.0
 12
0.0
 22
0.0
 32
0.0
 42
50.0
 43
0.0
 44
0.0
 50
0.0
 71
     0
281
     0
 72
     0
  0
VIEW
  5
1697
330
15F7
100
AcDbSymbolTableRecord
100
AcDbViewTableRecord
  2
GEN2
 70
     0
 40
525.0
 10
647.0518869999999
 20
787.5
 41
805.8962259999999
 11
0.0
 21
0.0
 31
1.0
 12
0.0
 22
0.0
 32
0.0
 42
50.0
 43
0.0
 44
0.0
 50
0.0
 71
     0
281
     0
 72
     0
  0
VIEW
  5
1698
330
15F7
100
AcDbSymbolTableRecord
100
AcDbViewTableRecord
  2
GEN3
 70
     0
 40
525.0
 10
402.9481129999999
 20
262.5
 41
805.8962259999999
 11
0.0
 21
0.0
 31
1.0
 12
0.0
 22
0.0
 32
0.0
 42
50.0
 43
0.0
 44
0.0
 50
0.0
 71
     0
281
     0
 72
     0
  0
VIEW
  5
1699
330
15F7
100
AcDbSymbolTableRecord
100
AcDbViewTableRecord
  2
GEN4
 70
     0
 40
525.0
 10
647.0518869999999
 20
262.5
 41
805.8962259999999
 11
0.0
 21
0.0
 31
1.0
 12
0.0
 22
0.0
 32
0.0
 42
50.0
 43
0.0
 44
0.0
 50
0.0
 71
     0
281
     0
 72
     0
  0
VIEW
  5
169A
330
15F7
100
AcDbSymbolTableRecord
100
AcDbViewTableRecord
  2
GEN5
 70
     0
 40
525.0
 10
525.0
 20
525.0
 41
805.8962259999999
 11
0.0
 21
0.0
 31
1.0
 12
0.0
 22
0.0
 32
0.0
 42
50.0
 43
0.0
 44
0.0
 50
0.0
 71
     0
281
     0
 72
     0
  0
VIEW
  5
169B
330
15F7
100
AcDbSymbolTableRecord
100
AcDbViewTableRecord
  2
GEN6
 70
     0
 40
1049.9895
 10
525.0
 20
525.0
 41
1611.776335
 11
0.0
 21
0.0
 31
1.0
 12
0.0
 22
0.0
 32
0.0
 42
50.0
 43
0.0
 44
0.0
 50
0.0
 71
     0
281
     0
 72
     0
  0
ENDTAB
  0
TABLE
  2
UCS
  5
15F8
330
0
100
AcDbSymbolTable
 70
     0
  0
ENDTAB
  0
TABLE
  2
APPID
  5
15FA
330
0
100
AcDbSymbolTable
 70
    39
  0
APPID
  5
1601
330
15FA
100
AcDbSymbolTableRecord
100
AcDbRegAppTableRecord
  2
ACAD
 70
     0
  0
APPID
  5
163A
330
15FA
100
AcDbSymbolTableRecord
100
AcDbRegAppTableRecord
  2
GENIUS_GENOENT_13
 70
     0
  0
APPID
  5
163B
330
15FA
100
AcDbSymbolTableRecord
100
AcDbRegAppTableRecord
  2
GENIUS_GENCFG_13
 70
     0
1001
GENIUS_DUMCFG0_13
1000
DUM
1001
GENIUS_GENCFG0_13
1000
GEN@INFO_POS@XLATE
1001
GENIUS_GENCFG1_13
1000
GEN@INFO_POS
1001
GENIUS_GENCFG2_13
1000
GEN@LAYER@DEFS
1001
GENIUS_GENCFG3_13
1000
GEN@LAYER@ENTSORT
1001
GENIUS_GENCFG4_13
1000
GEN
1001
GENIUS_GEVCFG0_13
1000
GEV
  0
APPID
  5
163C
330
15FA
100
AcDbSymbolTableRecord
100
AcDbRegAppTableRecord
  2
GENIUS_DUMCFG0_13
 70
     0
1001
GENIUS_GENCFG_13
1071
936003705
1000
163C
1000
DUM
1070
     0
  0
APPID
  5
163D
330
15FA
100
AcDbSymbolTableRecord
100
AcDbRegAppTableRecord
  2
GENIUS_GENCFG0_13
 70
     0
1001
GENIUS_GENCFG_13
1071
1023340746
1000
163D
1000
GEN@INFO_POS@XLATE
1070
     7
1000
GenCfgObject
1000
GenCfgShort
1000
GenCfgReal
1000
GenCfgBool
1000
GenCfgString
1000
GenCfgDim
1000
GenCfgAttrInf
1000
INFOPOINTS
1070
     0
1002
{
1000
GENINF14
1070
     0
1002
{
1000
2GENINF
1070
     4
1000
2
1002
{
1002
}
1000
5GENINF
1070
     4
1000
5
1002
{
1002
}
1000
7GENINF
1070
     4
1000
7
1002
{
1002
}
1000
9GENINF
1070
     4
1000
9
1002
{
1002
}
1000
11GENINF
1070
     4
1000
11
1002
{
1002
}
1000
14GENINF
1070
     4
1000
14
1002
{
1002
}
1002
}
1000
GENINF13
1070
     0
1002
{
1000
2GENINF
1070
     4
1000
2
1002
{
1002
}
1000
3GENINF
1070
     4
1000
3
1002
{
1002
}
1000
4GENINF
1070
     4
1000
4
1002
{
1002
}
1000
5GENINF
1070
     4
1000
5
1002
{
1002
}
1000
6GENINF
1070
     4
1000
6
1002
{
1002
}
1000
7GENINF
1070
     4
1000
7
1002
{
1002
}
1000
8GENINF
1070
     4
1000
8
1002
{
1002
}
1000
9GENINF
1070
     4
1000
9
1002
{
1002
}
1000
10GENINF
1070
     4
1000
10
1002
{
1002
}
1000
11GENINF
1070
     4
1000
11
1002
{
1002
}
1000
12GENINF
1070
     4
1000
12
1002
{
1002
}
1000
13GENINF
1070
     4
1000
13
1002
{
1002
}
1000
14GENINF
1070
     4
1000
14
1002
{
1002
}
1000
15GENINF
1070
     4
1000
15
1002
{
1002
}
1000
16GENINF
1070
     4
1000
16
1002
{
1002
}
1000
17GENINF
1070
     4
1000
17
1002
{
1002
}
1000
18GENINF
1070
     4
1000
18
1002
{
1002
}
1000
19GENINF
1070
     4
1000
19
1002
{
1002
}
1000
20GENINF
1070
     4
1000
20
1002
{
1002
}
1000
21GENINF
1070
     4
1000
21
1002
{
1002
}
1000
22GENINF
1070
     4
1000
22
1002
{
1002
}
1000
23GENINF
1070
     4
1000
23
1002
{
1002
}
1000
24GENINF
1070
     4
1000
24
1002
{
1002
}
1000
0GENINF
1070
     4
1000
0
1002
{
1002
}
1002
}
1000
GENINFO
1070
     0
1002
{
1000
3GENINF
1070
     4
1000
3
1002
{
1002
}
1000
4GENINF
1070
     4
1000
4
1002
{
1002
}
1000
5GENINF
1070
     4
1000
5
1002
{
1002
}
1000
6GENINF
1070
     4
1000
6
1002
{
1002
}
1000
7GENINF
1070
     4
1000
7
1002
{
1002
}
1000
8GENINF
1070
     4
1000
8
1002
{
1002
}
1000
9GENINF
1070
     4
1000
9
1002
{
1002
}
1000
10GENINF
1070
     4
1000
10
1002
{
1002
}
1000
11GENINF
1070
     4
1000
11
1002
{
1002
}
1000
12GENINF
1070
     4
1000
12
1002
{
1002
}
1000
13GENINF
1070
     4
1000
13
1002
{
1002
}
1000
14GENINF
1070
     4
1000
14
1002
{
1002
}
1000
15GENINF
1070
     4
1000
15
1002
{
1002
}
1000
16GENINF
1070
     4
1000
16
1002
{
1002
}
1000
17GENINF
1070
     4
1000
17
1002
{
1002
}
1000
18GENINF
1070
     4
1000
18
1002
{
1002
}
1000
19GENINF
1070
     4
1000
19
1002
{
1002
}
1000
20GENINF
1070
     4
1000
20
1002
{
1002
}
1000
21GENINF
1070
     4
1000
21
1002
{
1002
}
1000
22GENINF
1070
     4
1000
22
1002
{
1002
}
1002
}
1000
DININFO
1070
     0
1002
{
1000
ST-NAME1
1070
     4
1000
5
1002
{
1002
}
1000
ST-NAME2
1070
     4
1000
6
1002
{
1002
}
1000
ST-NORM1
1070
     4
1000
7
1002
{
1002
}
1000
ST-NORM2
1070
     4
1000
8
1002
{
1002
}
1000
ST-MAT1
1070
     4
1000
9
1002
{
1002
}
1000
ST-MAT2
1070
     4
1000
10
1002
{
1002
}
1002
}
1002
}
1000
POS_NUMBERS
1070
     0
1002
{
1000
GENPOS14
1070
     0
1002
{
1000
1GENPOS
1070
     4
1000
1
1002
{
1002
}
1000
2GENPOS
1070
     4
1000
2
1002
{
1002
}
1000
5GENPOS
1070
     4
1000
5
1002
{
1002
}
1000
7GENPOS
1070
     4
1000
7
1002
{
1002
}
1000
9GENPOS
1070
     4
1000
9
1002
{
1002
}
1000
11GENPOS
1070
     4
1000
11
1002
{
1002
}
1000
14GENPOS
1070
     4
1000
14
1002
{
1002
}
1002
}
1000
GENPOS13
1070
     0
1002
{
1000
1GENPOS
1070
     4
1000
1
1002
{
1002
}
1000
2GENPOS
1070
     4
1000
2
1002
{
1002
}
1000
3GENPOS
1070
     4
1000
3
1002
{
1002
}
1000
4GENPOS
1070
     4
1000
4
1002
{
1002
}
1000
5GENPOS
1070
     4
1000
5
1002
{
1002
}
1000
6GENPOS
1070
     4
1000
6
1002
{
1002
}
1000
7GENPOS
1070
     4
1000
7
1002
{
1002
}
1000
8GENPOS
1070
     4
1000
8
1002
{
1002
}
1000
9GENPOS
1070
     4
1000
9
1002
{
1002
}
1000
10GENPOS
1070
     4
1000
10
1002
{
1002
}
1000
11GENPOS
1070
     4
1000
11
1002
{
1002
}
1000
12GENPOS
1070
     4
1000
12
1002
{
1002
}
1000
13GENPOS
1070
     4
1000
13
1002
{
1002
}
1000
14GENPOS
1070
     4
1000
14
1002
{
1002
}
1000
15GENPOS
1070
     4
1000
15
1002
{
1002
}
1000
16GENPOS
1070
     4
1000
16
1002
{
1002
}
1000
17GENPOS
1070
     4
1000
17
1002
{
1002
}
1000
18GENPOS
1070
     4
1000
18
1002
{
1002
}
1000
19GENPOS
1070
     4
1000
19
1002
{
1002
}
1000
20GENPOS
1070
     4
1000
20
1002
{
1002
}
1000
21GENPOS
1070
     4
1000
21
1002
{
1002
}
1000
22GENPOS
1070
     4
1000
22
1002
{
1002
}
1000
23GENPOS
1070
     4
1000
23
1002
{
1002
}
1000
24GENPOS
1070
     4
1000
24
1002
{
1002
}
1000
0GENPOS
1070
     4
1000
0
1002
{
1002
}
1002
}
1000
GENPOS
1070
     0
1002
{
1000
1GENPOS
1070
     4
1000
1
1002
{
1002
}
1000
2GENPOS
1070
     4
1000
2
1002
{
1002
}
1000
3GENPOS
1070
     4
1000
3
1002
{
1002
}
1000
4GENPOS
1070
     4
1000
4
1002
{
1002
}
1000
5GENPOS
1070
     4
1000
5
1002
{
1002
}
1000
6GENPOS
1070
     4
1000
6
1002
{
1002
}
1000
7GENPOS
1070
     4
1000
7
1002
{
1002
}
1000
8GENPOS
1070
     4
1000
8
1002
{
1002
}
1000
9GENPOS
1070
     4
1000
9
1002
{
1002
}
1000
10GENPOS
1070
     4
1000
10
1002
{
1002
}
1000
11GENPOS
1070
     4
1000
11
1002
{
1002
}
1000
12GENPOS
1070
     4
1000
12
1002
{
1002
}
1000
13GENPOS
1070
     4
1000
13
1002
{
1002
}
1000
14GENPOS
1070
     4
1000
14
1002
{
1002
}
1000
15GENPOS
1070
     4
1000
15
1002
{
1002
}
1000
16GENPOS
1070
     4
1000
16
1002
{
1002
}
1000
17GENPOS
1070
     4
1000
17
1002
{
1002
}
1000
18GENPOS
1070
     4
1000
18
1002
{
1002
}
1000
19GENPOS
1070
     4
1000
19
1002
{
1002
}
1000
20GENPOS
1070
     4
1000
20
1002
{
1002
}
1000
21GENPOS
1070
     4
1000
21
1002
{
1002
}
1000
22GENPOS
1070
     4
1000
22
1002
{
1002
}
1000
23GENPOS
1070
     4
1000
23
1002
{
1002
}
1002
}
1000
DIN985
1070
     0
1002
{
1000
POSITION
1070
     4
1000
1
1002
{
1002
}
1000
MENGE
1070
     4
1000
2
1002
{
1002
}
1000
BLATT
1070
     4
1000
3
1002
{
1002
}
1000
BENENN
1070
     4
1000
5
1002
{
1002
}
1000
BENENN2
1070
     4
1000
6
1002
{
1002
}
1000
NORM
1070
     4
1000
7
1002
{
1002
}
1000
NORM2
1070
     4
1000
8
1002
{
1002
}
1000
WERKSTOFF
1070
     4
1000
9
1002
{
1002
}
1000
WERKSTOFF2
1070
     4
1000
10
1002
{
1002
}
1002
}
1000
DIN986
1070
     0
1002
{
1000
POSITION
1070
     4
1000
1
1002
{
1002
}
1000
MENGE
1070
     4
1000
2
1002
{
1002
}
1000
BLATT
1070
     4
1000
3
1002
{
1002
}
1000
BENENN
1070
     4
1000
5
1002
{
1002
}
1000
BENENN2
1070
     4
1000
6
1002
{
1002
}
1000
NORM
1070
     4
1000
7
1002
{
1002
}
1000
NORM2
1070
     4
1000
8
1002
{
1002
}
1000
WERKSTOFF
1070
     4
1000
9
1002
{
1002
}
1000
WERKSTOFF2
1070
     4
1000
10
1002
{
1002
}
1002
}
1000
DIN987
1070
     0
1002
{
1000
POSITION
1070
     4
1000
1
1002
{
1002
}
1000
MENGE
1070
     4
1000
2
1002
{
1002
}
1000
BLATT
1070
     4
1000
3
1002
{
1002
}
1000
BENENN
1070
     4
1000
5
1002
{
1002
}
1000
BENENN2
1070
     4
1000
6
1002
{
1002
}
1000
NORM
1070
     4
1000
7
1002
{
1002
}
1000
NORM2
1070
     4
1000
8
1002
{
1002
}
1000
WERKSTOFF
1070
     4
1000
9
1002
{
1002
}
1000
WERKSTOFF2
1070
     4
1000
10
1002
{
1002
}
1002
}
1002
}
  0
APPID
  5
163E
330
15FA
100
AcDbSymbolTableRecord
100
AcDbRegAppTableRecord
  2
GENIUS_GENCFG1_13
 70
     0
1001
GENIUS_GENCFG_13
1071
1023340746
1000
163E
1000
GEN@INFO_POS
1070
     7
1000
GenCfgObject
1000
GenCfgShort
1000
GenCfgReal
1000
GenCfgBool
1000
GenCfgString
1000
GenCfgDim
1000
GenCfgAttrInf
1000
DescrText
1070
     4
1000
5, ,6, ,7, ,8
1002
{
1002
}
1000
DescrText2
1070
     4
1000
26
1002
{
1002
}
1000
VisibleAttr1
1070
     4
1000
1
1002
{
1002
}
1000
VisibleAttr2
1070
     4
1000
26
1002
{
1002
}
1000
UpdateBlock
1070
     3
1070
     1
1002
{
1002
}
1000
Attrib
1070
     0
1002
{
1000
0
1070
     6
1002
{
1000
Prompt
1070
     4
1000
(genmsg gendwg 103)
1002
{
1002
}
1000
Value
1070
     4
1000

1002
{
1002
}
1000
EditFlag
1070
     1
1070
     0
1002
{
1002
}
1000
PosInDDATTE
1070
     1
1070
    27
1002
{
1002
}
1000
FieldLen
1070
     1
1070
    -1
1002
{
1002
}
1002
}
1000
1
1070
     6
1002
{
1000
Prompt
1070
     4
1000
(genmsg gendwg 31)
1002
{
1002
}
1000
Value
1070
     4
1000
1
1002
{
1002
}
1000
EditFlag
1070
     1
1070
     1
1002
{
1002
}
1000
PosInDDATTE
1070
     1
1070
     1
1002
{
1002
}
1000
FieldLen
1070
     1
1070
    -1
1002
{
1002
}
1002
}
1000
2
1070
     6
1002
{
1000
Prompt
1070
     4
1000
(genmsg gendwg 32)
1002
{
1002
}
1000
Value
1070
     4
1000
1
1002
{
1002
}
1000
EditFlag
1070
     1
1070
     1
1002
{
1002
}
1000
PosInDDATTE
1070
     1
1070
     2
1002
{
1002
}
1000
FieldLen
1070
     1
1070
    -1
1002
{
1002
}
1002
}
1000
3
1070
     6
1002
{
1000
Prompt
1070
     4
1000
(genmsg gendwg 33)
1002
{
1002
}
1000
Value
1070
     4
1000

1002
{
1002
}
1000
EditFlag
1070
     1
1070
     1
1002
{
1002
}
1000
PosInDDATTE
1070
     1
1070
     3
1002
{
1002
}
1000
FieldLen
1070
     1
1070
    -1
1002
{
1002
}
1002
}
1000
4
1070
     6
1002
{
1000
Prompt
1070
     4
1000
(genmsg gendwg 34)
1002
{
1002
}
1000
Value
1070
     4
1000

1002
{
1002
}
1000
EditFlag
1070
     1
1070
     1
1002
{
1002
}
1000
PosInDDATTE
1070
     1
1070
     4
1002
{
1002
}
1000
FieldLen
1070
     1
1070
    -1
1002
{
1002
}
1002
}
1000
5
1070
     6
1002
{
1000
Prompt
1070
     4
1000
(genmsg gendwg 35)
1002
{
1002
}
1000
Value
1070
     4
1000

1002
{
1002
}
1000
EditFlag
1070
     1
1070
     1
1002
{
1002
}
1000
PosInDDATTE
1070
     1
1070
     5
1002
{
1002
}
1000
FieldLen
1070
     1
1070
    -1
1002
{
1002
}
1002
}
1000
6
1070
     6
1002
{
1000
Prompt
1070
     4
1000
(genmsg gendwg 36)
1002
{
1002
}
1000
Value
1070
     4
1000

1002
{
1002
}
1000
EditFlag
1070
     1
1070
     1
1002
{
1002
}
1000
PosInDDATTE
1070
     1
1070
     6
1002
{
1002
}
1000
FieldLen
1070
     1
1070
    -1
1002
{
1002
}
1002
}
1000
7
1070
     6
1002
{
1000
Prompt
1070
     4
1000
(genmsg gendwg 37)
1002
{
1002
}
1000
Value
1070
     4
1000

1002
{
1002
}
1000
EditFlag
1070
     1
1070
     1
1002
{
1002
}
1000
PosInDDATTE
1070
     1
1070
     7
1002
{
1002
}
1000
FieldLen
1070
     1
1070
    -1
1002
{
1002
}
1002
}
1000
8
1070
     6
1002
{
1000
Prompt
1070
     4
1000
(genmsg gendwg 38)
1002
{
1002
}
1000
Value
1070
     4
1000

1002
{
1002
}
1000
EditFlag
1070
     1
1070
     1
1002
{
1002
}
1000
PosInDDATTE
1070
     1
1070
     8
1002
{
1002
}
1000
FieldLen
1070
     1
1070
    -1
1002
{
1002
}
1002
}
1000
9
1070
     6
1002
{
1000
Prompt
1070
     4
1000
(genmsg gendwg 39)
1002
{
1002
}
1000
Value
1070
     4
1000

1002
{
1002
}
1000
EditFlag
1070
     1
1070
     1
1002
{
1002
}
1000
PosInDDATTE
1070
     1
1070
     9
1002
{
1002
}
1000
FieldLen
1070
     1
1070
    -1
1002
{
1002
}
1002
}
1000
10
1070
     6
1002
{
1000
Prompt
1070
     4
1000
(genmsg gendwg 40)
1002
{
1002
}
1000
Value
1070
     4
1000

1002
{
1002
}
1000
EditFlag
1070
     1
1070
     1
1002
{
1002
}
1000
PosInDDATTE
1070
     1
1070
    10
1002
{
1002
}
1000
FieldLen
1070
     1
1070
    -1
1002
{
1002
}
1002
}
1000
11
1070
     6
1002
{
1000
Prompt
1070
     4
1000
(genmsg gendwg 41)
1002
{
1002
}
1000
Value
1070
     4
1000

1002
{
1002
}
1000
EditFlag
1070
     1
1070
     1
1002
{
1002
}
1000
PosInDDATTE
1070
     1
1070
    11
1002
{
1002
}
1000
FieldLen
1070
     1
1070
    -1
1002
{
1002
}
1002
}
1000
12
1070
     6
1002
{
1000
Prompt
1070
     4
1000
(genmsg gendwg 42)
1002
{
1002
}
1000
Value
1070
     4
1000

1002
{
1002
}
1000
EditFlag
1070
     1
1070
     1
1002
{
1002
}
1000
PosInDDATTE
1070
     1
1070
    12
1002
{
1002
}
1000
FieldLen
1070
     1
1070
    -1
1002
{
1002
}
1002
}
1000
13
1070
     6
1002
{
1000
Prompt
1070
     4
1000
(genmsg gendwg 43)
1002
{
1002
}
1000
Value
1070
     4
1000

1002
{
1002
}
1000
EditFlag
1070
     1
1070
     1
1002
{
1002
}
1000
PosInDDATTE
1070
     1
1070
    13
1002
{
1002
}
1000
FieldLen
1070
     1
1070
    -1
1002
{
1002
}
1002
}
1000
14
1070
     6
1002
{
1000
Prompt
1070
     4
1000
(genmsg gendwg 44)
1002
{
1002
}
1000
Value
1070
     4
1000

1002
{
1002
}
1000
EditFlag
1070
     1
1070
     1
1002
{
1002
}
1000
PosInDDATTE
1070
     1
1070
    14
1002
{
1002
}
1000
FieldLen
1070
     1
1070
    -1
1002
{
1002
}
1002
}
1000
15
1070
     6
1002
{
1000
Prompt
1070
     4
1000
(genmsg gendwg 45)
1002
{
1002
}
1000
Value
1070
     4
1000

1002
{
1002
}
1000
EditFlag
1070
     1
1070
     1
1002
{
1002
}
1000
PosInDDATTE
1070
     1
1070
    15
1002
{
1002
}
1000
FieldLen
1070
     1
1070
    -1
1002
{
1002
}
1002
}
1000
16
1070
     6
1002
{
1000
Prompt
1070
     4
1000
(genmsg gendwg 46)
1002
{
1002
}
1000
Value
1070
     4
1000

1002
{
1002
}
1000
EditFlag
1070
     1
1070
     1
1002
{
1002
}
1000
PosInDDATTE
1070
     1
1070
    16
1002
{
1002
}
1000
FieldLen
1070
     1
1070
    -1
1002
{
1002
}
1002
}
1000
17
1070
     6
1002
{
1000
Prompt
1070
     4
1000
(genmsg gendwg 47)
1002
{
1002
}
1000
Value
1070
     4
1000

1002
{
1002
}
1000
EditFlag
1070
     1
1070
     1
1002
{
1002
}
1000
PosInDDATTE
1070
     1
1070
    17
1002
{
1002
}
1000
FieldLen
1070
     1
1070
    -1
1002
{
1002
}
1002
}
1000
18
1070
     6
1002
{
1000
Prompt
1070
     4
1000
(genmsg gendwg 48)
1002
{
1002
}
1000
Value
1070
     4
1000

1002
{
1002
}
1000
EditFlag
1070
     1
1070
     1
1002
{
1002
}
1000
PosInDDATTE
1070
     1
1070
    18
1002
{
1002
}
1000
FieldLen
1070
     1
1070
    -1
1002
{
1002
}
1002
}
1000
19
1070
     6
1002
{
1000
Prompt
1070
     4
1000
(genmsg gendwg 99)
1002
{
1002
}
1000
Value
1070
     4
1000

1002
{
1002
}
1000
EditFlag
1070
     1
1070
     1
1002
{
1002
}
1000
PosInDDATTE
1070
     1
1070
    19
1002
{
1002
}
1000
FieldLen
1070
     1
1070
    -1
1002
{
1002
}
1002
}
1000
20
1070
     6
1002
{
1000
Prompt
1070
     4
1000
(genmsg gendwg 100)
1002
{
1002
}
1000
Value
1070
     4
1000

1002
{
1002
}
1000
EditFlag
1070
     1
1070
     1
1002
{
1002
}
1000
PosInDDATTE
1070
     1
1070
    20
1002
{
1002
}
1000
FieldLen
1070
     1
1070
    -1
1002
{
1002
}
1002
}
1000
21
1070
     6
1002
{
1000
Prompt
1070
     4
1000
(genmsg gendwg 101)
1002
{
1002
}
1000
Value
1070
     4
1000

1002
{
1002
}
1000
EditFlag
1070
     1
1070
     1
1002
{
1002
}
1000
PosInDDATTE
1070
     1
1070
    21
1002
{
1002
}
1000
FieldLen
1070
     1
1070
    -1
1002
{
1002
}
1002
}
1000
22
1070
     6
1002
{
1000
Prompt
1070
     4
1000
(genmsg gendwg 102)
1002
{
1002
}
1000
Value
1070
     4
1000

1002
{
1002
}
1000
EditFlag
1070
     1
1070
     1
1002
{
1002
}
1000
PosInDDATTE
1070
     1
1070
    22
1002
{
1002
}
1000
FieldLen
1070
     1
1070
    -1
1002
{
1002
}
1002
}
1000
23
1070
     6
1002
{
1000
Prompt
1070
     4
1000
(genmsg gendwg 30)
1002
{
1002
}
1000
Value
1070
     4
1000

1002
{
1002
}
1000
EditFlag
1070
     1
1070
     1
1002
{
1002
}
1000
PosInDDATTE
1070
     1
1070
    23
1002
{
1002
}
1000
FieldLen
1070
     1
1070
    -1
1002
{
1002
}
1002
}
1000
24
1070
     6
1002
{
1000
Prompt
1070
     4
1000
(genmsg gendwg 104)
1002
{
1002
}
1000
Value
1070
     4
1000

1002
{
1002
}
1000
EditFlag
1070
     1
1070
     1
1002
{
1002
}
1000
PosInDDATTE
1070
     1
1070
    24
1002
{
1002
}
1000
FieldLen
1070
     1
1070
    -1
1002
{
1002
}
1002
}
1000
25
1070
     6
1002
{
1000
Prompt
1070
     4
1000
(genmsg gendwg 105)
1002
{
1002
}
1000
Value
1070
     4
1000

1002
{
1002
}
1000
EditFlag
1070
     1
1070
     1
1002
{
1002
}
1000
PosInDDATTE
1070
     1
1070
    25
1002
{
1002
}
1000
FieldLen
1070
     1
1070
    -1
1002
{
1002
}
1002
}
1000
26
1070
     6
1002
{
1000
Prompt
1070
     4
1000
(genmsg gendwg 106)
1002
{
1002
}
1000
Value
1070
     4
1000

1002
{
1002
}
1000
EditFlag
1070
     1
1070
     1
1002
{
1002
}
1000
PosInDDATTE
1070
     1
1070
    26
1002
{
1002
}
1000
FieldLen
1070
     1
1070
    -1
1002
{
1002
}
1002
}
1000
27
1070
     6
1002
{
1000
Prompt
1070
     4
1000
(genmsg gendwg 109)
1002
{
1002
}
1000
Value
1070
     4
1000

1002
{
1002
}
1000
EditFlag
1070
     1
1070
     2
1002
{
1002
}
1000
PosInDDATTE
1070
     1
1070
    27
1002
{
1002
}
1000
FieldLen
1070
     1
1070
    -1
1002
{
1002
}
1002
}
1002
}
1000
Xlate
1070
     0
1002
{
1000
>
1002
}
  0
APPID
  5
163F
330
15FA
100
AcDbSymbolTableRecord
100
AcDbRegAppTableRecord
  2
GENIUS_GENCFG2_13
 70
     0
1001
GENIUS_GENCFG_13
1071
1023340746
1000
163F
1000
GEN@LAYER@DEFS
1070
     9
1000
GenCfgObject
1000
GenCfgShort
1000
GenCfgReal
1000
GenCfgBool
1000
GenCfgString
1000
GenCfgDim
1000
GenCfgAttrInf
1000
GenCfgLaySection
1000
GenCfgLayer
1000
Basic
1070
     0
1002
{
1000
0
1070
     8
1000
0
1002
{
1000
Color
1070
     1
1070
     7
1002
{
1002
}
1000
LType
1070
     4
1000
CONTINUOUS
1002
{
1002
}
1000
Base
1070
     3
1070
     0
1002
{
1002
}
1002
}
1000
1
1070
     8
1000
1
1002
{
1000
Color
1070
     1
1070
    14
1002
{
1002
}
1000
LType
1070
     4
1000
CONTINUOUS
1002
{
1002
}
1000
Base
1070
     3
1070
     0
1002
{
1002
}
1002
}
1000
2
1070
     8
1000
2
1002
{
1000
Color
1070
     1
1070
     5
1002
{
1002
}
1000
LType
1070
     4
1000
CONTINUOUS
1002
{
1002
}
1000
Base
1070
     3
1070
     0
1002
{
1002
}
1002
}
1000
3
1070
     8
1000
3
1002
{
1000
Color
1070
     1
1070
     6
1002
{
1002
}
1000
LType
1070
     4
1000
GEN3
1002
{
1002
}
1000
Base
1070
     3
1070
     0
1002
{
1002
}
1002
}
1000
4
1070
     8
1000
4
1002
{
1000
Color
1070
     1
1070
     3
1002
{
1002
}
1000
LType
1070
     4
1000
CONTINUOUS
1002
{
1002
}
1000
Base
1070
     3
1070
     0
1002
{
1002
}
1002
}
1000
5
1070
     8
1000
5
1002
{
1000
Color
1070
     1
1070
     3
1002
{
1002
}
1000
LType
1070
     4
1000
CONTINUOUS
1002
{
1002
}
1000
Base
1070
     3
1070
     0
1002
{
1002
}
1002
}
1000
6
1070
     8
1000
6
1002
{
1000
Color
1070
     1
1070
     2
1002
{
1002
}
1000
LType
1070
     4
1000
CONTINUOUS
1002
{
1002
}
1000
Base
1070
     3
1070
     0
1002
{
1002
}
1002
}
1000
7
1070
     8
1000
7
1002
{
1000
Color
1070
     1
1070
     4
1002
{
1002
}
1000
LType
1070
     4
1000
GEN7
1002
{
1002
}
1000
Base
1070
     3
1070
     0
1002
{
1002
}
1002
}
1000
8
1070
     8
1000
8
1002
{
1000
Color
1070
     1
1070
     1
1002
{
1002
}
1000
LType
1070
     4
1000
CONTINUOUS
1002
{
1002
}
1000
Base
1070
     3
1070
     0
1002
{
1002
}
1002
}
1000
3A
1070
     8
1000
3A
1002
{
1000
Color
1070
     1
1070
     6
1002
{
1002
}
1000
LType
1070
     4
1000
GEN3A
1002
{
1002
}
1000
Base
1070
     3
1070
     0
1002
{
1002
}
1002
}
1000
7A
1070
     8
1000
7A
1002
{
1000
Color
1070
     1
1070
     4
1002
{
1002
}
1000
LType
1070
     4
1000
GEN7A
1002
{
1002
}
1000
Base
1070
     3
1070
     0
1002
{
1002
}
1002
}
1000
2A
1070
     8
1000
2A
1002
{
1000
Color
1070
     1
1070
     7
1002
{
1002
}
1000
LType
1070
     4
1000
GEN7
1002
{
1002
}
1000
Base
1070
     3
1070
     0
1002
{
1002
}
1002
}
1000
4A
1070
     8
1000
4A
1002
{
1000
Color
1070
     1
1070
     3
1002
{
1002
}
1000
LType
1070
     4
1000
GEN4A
1002
{
1002
}
1000
Base
1070
     3
1070
     0
1002
{
1002
}
1002
}
1000
9
1070
     8
1000
9
1002
{
1000
Color
1070
     1
1070
   253
1002
{
1002
}
1000
LType
1070
     4
1000
CONTINUOUS
1002
{
1002
}
1000
Base
1070
     3
1070
     0
1002
{
1002
}
1002
}
1000
IP
1070
     8
1000
IP
1002
{
1000
Color
1070
     1
1070
     7
1002
{
1002
}
1000
LType
1070
     4
1000
CONTINUOUS
1002
{
1002
}
1000
Base
1070
     3
1070
     0
1002
{
1002
}
1002
}
1002
}
1000
Standard
1070
     0
1002
{
1000
0N
1070
     8
1000
0N
1002
{
1000
Color
1070
     1
1070
     7
1002
{
1002
}
1000
LType
1070
     4
1000
CONTINUOUS
1002
{
1002
}
1000
Base
1070
     3
1070
     0
1002
{
1002
}
1002
}
1000
1N
1070
     8
1000
1N
1002
{
1000
Color
1070
     1
1070
    14
1002
{
1002
}
1000
LType
1070
     4
1000
CONTINUOUS
1002
{
1002
}
1000
Base
1070
     3
1070
     0
1002
{
1002
}
1002
}
1000
2N
1070
     8
1000
2N
1002
{
1000
Color
1070
     1
1070
     5
1002
{
1002
}
1000
LType
1070
     4
1000
CONTINUOUS
1002
{
1002
}
1000
Base
1070
     3
1070
     0
1002
{
1002
}
1002
}
1000
3N
1070
     8
1000
3N
1002
{
1000
Color
1070
     1
1070
     6
1002
{
1002
}
1000
LType
1070
     4
1000
GEN3
1002
{
1002
}
1000
Base
1070
     3
1070
     0
1002
{
1002
}
1002
}
1000
4N
1070
     8
1000
4N
1002
{
1000
Color
1070
     1
1070
     3
1002
{
1002
}
1000
LType
1070
     4
1000
CONTINUOUS
1002
{
1002
}
1000
Base
1070
     3
1070
     0
1002
{
1002
}
1002
}
1000
5N
1070
     8
1000
5N
1002
{
1000
Color
1070
     1
1070
     3
1002
{
1002
}
1000
LType
1070
     4
1000
CONTINUOUS
1002
{
1002
}
1000
Base
1070
     3
1070
     0
1002
{
1002
}
1002
}
1000
6N
1070
     8
1000
6N
1002
{
1000
Color
1070
     1
1070
     2
1002
{
1002
}
1000
LType
1070
     4
1000
CONTINUOUS
1002
{
1002
}
1000
Base
1070
     3
1070
     0
1002
{
1002
}
1002
}
1000
7N
1070
     8
1000
7N
1002
{
1000
Color
1070
     1
1070
     4
1002
{
1002
}
1000
LType
1070
     4
1000
GEN7
1002
{
1002
}
1000
Base
1070
     3
1070
     0
1002
{
1002
}
1002
}
1000
8N
1070
     8
1000
8N
1002
{
1000
Color
1070
     1
1070
     1
1002
{
1002
}
1000
LType
1070
     4
1000
CONTINUOUS
1002
{
1002
}
1000
Base
1070
     3
1070
     0
1002
{
1002
}
1002
}
1000
3AN
1070
     8
1000
3AN
1002
{
1000
Color
1070
     1
1070
     6
1002
{
1002
}
1000
LType
1070
     4
1000
GEN3A
1002
{
1002
}
1000
Base
1070
     3
1070
     0
1002
{
1002
}
1002
}
1000
7AN
1070
     8
1000
7AN
1002
{
1000
Color
1070
     1
1070
     4
1002
{
1002
}
1000
LType
1070
     4
1000
GEN7A
1002
{
1002
}
1000
Base
1070
     3
1070
     0
1002
{
1002
}
1002
}
1000
2AN
1070
     8
1000
2AN
1002
{
1000
Color
1070
     1
1070
     7
1002
{
1002
}
1000
LType
1070
     4
1000
GEN7
1002
{
1002
}
1000
Base
1070
     3
1070
     0
1002
{
1002
}
1002
}
1000
4AN
1070
     8
1000
4AN
1002
{
1000
Color
1070
     1
1070
     3
1002
{
1002
}
1000
LType
1070
     4
1000
GEN4A
1002
{
1002
}
1000
Base
1070
     3
1070
     0
1002
{
1002
}
1002
}
1000
9N
1070
     8
1000
9N
1002
{
1000
Color
1070
     1
1070
   253
1002
{
1002
}
1000
LType
1070
     4
1000
CONTINUOUS
1002
{
1002
}
1000
Base
1070
     3
1070
     0
1002
{
1002
}
1002
}
1000
IPN
1070
     8
1000
IPN
1002
{
1000
Color
1070
     1
1070
     7
1002
{
1002
}
1000
LType
1070
     4
1000
CONTINUOUS
1002
{
1002
}
1000
Base
1070
     3
1070
     0
1002
{
1002
}
1002
}
1002
}
1000
Extra
1070
     0
1002
{
1000
Klin
1070
     8
1000
KLIN
1002
{
1000
Color
1070
     1
1070
     1
1002
{
1002
}
1000
LType
1070
     4
1000
CONTINUOUS
1002
{
1002
}
1000
Base
1070
     3
1070
     1
1002
{
1002
}
1002
}
1000
Info
1070
     8
1000
INFO
1002
{
1000
Color
1070
     1
1070
     4
1002
{
1002
}
1000
LType
1070
     4
1000
CONTINUOUS
1002
{
1002
}
1000
Base
1070
     3
1070
     1
1002
{
1002
}
1002
}
1000
Rahm2
1070
     8
1000
RAHM2
1002
{
1000
Color
1070
     1
1070
     1
1002
{
1002
}
1000
LType
1070
     4
1000
CONTINUOUS
1002
{
1002
}
1000
Base
1070
     3
1070
     1
1002
{
1002
}
1002
}
1000
Rahm3
1070
     8
1000
RAHM3
1002
{
1000
Color
1070
     1
1070
     2
1002
{
1002
}
1000
LType
1070
     4
1000
CONTINUOUS
1002
{
1002
}
1000
Base
1070
     3
1070
     1
1002
{
1002
}
1002
}
1000
Rahm5
1070
     8
1000
RAHM5
1002
{
1000
Color
1070
     1
1070
     7
1002
{
1002
}
1000
LType
1070
     4
1000
CONTINUOUS
1002
{
1002
}
1000
Base
1070
     3
1070
     1
1002
{
1002
}
1002
}
1000
View
1070
     8
1000
VIEW
1002
{
1000
Color
1070
     1
1070
     1
1002
{
1002
}
1000
LType
1070
     4
1000
CONTINUOUS
1002
{
1002
}
1000
Base
1070
     3
1070
     1
1002
{
1002
}
1002
}
1000
Behind
1070
     8
1000
BEHIND
1002
{
1000
Color
1070
     1
1070
   253
1002
{
1002
}
1000
LType
1070
     4
1000
CONTINUOUS
1002
{
1002
}
1000
Base
1070
     3
1070
     1
1002
{
1002
}
1002
}
1002
}
  0
APPID
  5
1640
330
15FA
100
AcDbSymbolTableRecord
100
AcDbRegAppTableRecord
  2
GENIUS_GENCFG3_13
 70
     0
1001
GENIUS_GENCFG_13
1071
1023340746
1000
1640
1000
GEN@LAYER@ENTSORT
1070
    10
1000
GenCfgObject
1000
GenCfgShort
1000
GenCfgReal
1000
GenCfgBool
1000
GenCfgString
1000
GenCfgDim
1000
GenCfgAttrInf
1000
GenCfgLaySection
1000
GenCfgLayer
1000
GenCfgEntSort
1000
ADDL
1070
     9
1000
5
1002
{
1000
Class
1070
     4
1000
SYM
1002
{
1002
}
1000
Color
1070
     1
1070
     1
1002
{
1002
}
1000
LType
1070
     4
1000
BYLAYER
1002
{
1002
}
1002
}
1000
ALTR
1070
     9
1000
4
1002
{
1000
Class
1070
     4
1000

1002
{
1002
}
1000
Color
1070
     1
1070
     7
1002
{
1002
}
1000
LType
1070
     4
1000
GEN3A
1002
{
1002
}
1002
}
1000
BELI
1070
     9
1000
4
1002
{
1000
Class
1070
     4
1000

1002
{
1002
}
1000
Color
1070
     1
1070
   256
1002
{
1002
}
1000
LType
1070
     4
1000
BYLAYER
1002
{
1002
}
1002
}
1000
BHNV
1070
     9
1000
9
1002
{
1000
Class
1070
     4
1000
INV
1002
{
1002
}
1000
Color
1070
     1
1070
   256
1002
{
1002
}
1000
LType
1070
     4
1000
BYLAYER
1002
{
1002
}
1002
}
1000
BHNVS
1070
     9
1000
BEHIND
1002
{
1000
Class
1070
     4
1000
INV
1002
{
1002
}
1000
Color
1070
     1
1070
   256
1002
{
1002
}
1000
LType
1070
     4
1000
BYLAYER
1002
{
1002
}
1002
}
1000
BLID
1070
     9
1000
4A
1002
{
1000
Class
1070
     4
1000

1002
{
1002
}
1000
Color
1070
     1
1070
   256
1002
{
1002
}
1000
LType
1070
     4
1000
BYLAYER
1002
{
1002
}
1002
}
1000
BOAP
1070
     9
1000
4A
1002
{
1000
Class
1070
     4
1000

1002
{
1002
}
1000
Color
1070
     1
1070
   256
1002
{
1002
}
1000
LType
1070
     4
1000
BYLAYER
1002
{
1002
}
1002
}
1000
BOR2
1070
     9
1000
RAHM2
1002
{
1000
Class
1070
     4
1000
SPZ,SYM
1002
{
1002
}
1000
Color
1070
     1
1070
   256
1002
{
1002
}
1000
LType
1070
     4
1000
BYLAYER
1002
{
1002
}
1002
}
1000
BOR3
1070
     9
1000
RAHM3
1002
{
1000
Class
1070
     4
1000
SPZ,SYM
1002
{
1002
}
1000
Color
1070
     1
1070
   256
1002
{
1002
}
1000
LType
1070
     4
1000
BYLAYER
1002
{
1002
}
1002
}
1000
BOR5
1070
     9
1000
RAHM5
1002
{
1000
Class
1070
     4
1000
SPZ,SYM
1002
{
1002
}
1000
Color
1070
     1
1070
   256
1002
{
1002
}
1000
LType
1070
     4
1000
BYLAYER
1002
{
1002
}
1002
}
1000
BOR7
1070
     9
1000
RAHM5
1002
{
1000
Class
1070
     4
1000
SPZ,SYM
1002
{
1002
}
1000
Color
1070
     1
1070
     7
1002
{
1002
}
1000
LType
1070
     4
1000
CONTINUOUS
1002
{
1002
}
1002
}
1000
BPAP
1070
     9
1000
4A
1002
{
1000
Class
1070
     4
1000

1002
{
1002
}
1000
Color
1070
     1
1070
   256
1002
{
1002
}
1000
LType
1070
     4
1000
BYLAYER
1002
{
1002
}
1002
}
1000
BPEX
1070
     9
1000
4A
1002
{
1000
Class
1070
     4
1000

1002
{
1002
}
1000
Color
1070
     1
1070
   256
1002
{
1002
}
1000
LType
1070
     4
1000
BYLAYER
1002
{
1002
}
1002
}
1000
BTDI
1070
     9
1000
5
1002
{
1000
Class
1070
     4
1000
DIM,SYM
1002
{
1002
}
1000
Color
1070
     1
1070
   256
1002
{
1002
}
1000
LType
1070
     4
1000
BYLAYER
1002
{
1002
}
1002
}
1000
CAL2
1070
     9
1000
4
1002
{
1000
Class
1070
     4
1000
SYM
1002
{
1002
}
1000
Color
1070
     1
1070
   256
1002
{
1002
}
1000
LType
1070
     4
1000
BYLAYER
1002
{
1002
}
1002
}
1000
CAL3
1070
     9
1000
4
1002
{
1000
Class
1070
     4
1000
SYM
1002
{
1002
}
1000
Color
1070
     1
1070
     2
1002
{
1002
}
1000
LType
1070
     4
1000
BYLAYER
1002
{
1002
}
1002
}
1000
CAL5
1070
     9
1000
4
1002
{
1000
Class
1070
     4
1000
SYM
1002
{
1002
}
1000
Color
1070
     1
1070
     7
1002
{
1002
}
1000
LType
1070
     4
1000
BYLAYER
1002
{
1002
}
1002
}
1000
CAL7
1070
     9
1000
4
1002
{
1000
Class
1070
     4
1000
SYM
1002
{
1002
}
1000
Color
1070
     1
1070
     5
1002
{
1002
}
1000
LType
1070
     4
1000
BYLAYER
1002
{
1002
}
1002
}
1000
CENN
1070
     9
1000
7A
1002
{
1000
Class
1070
     4
1000
CEN
1002
{
1002
}
1000
Color
1070
     1
1070
   256
1002
{
1002
}
1000
LType
1070
     4
1000
BYLAYER
1002
{
1002
}
1002
}
1000
CENW
1070
     9
1000
7
1002
{
1000
Class
1070
     4
1000
CEN
1002
{
1002
}
1000
Color
1070
     1
1070
   256
1002
{
1002
}
1000
LType
1070
     4
1000
BYLAYER
1002
{
1002
}
1002
}
1000
CLIN
1070
     9
1000
KLIN
1002
{
1000
Class
1070
     4
1000
SPZ
1002
{
1002
}
1000
Color
1070
     1
1070
   256
1002
{
1002
}
1000
LType
1070
     4
1000
BYLAYER
1002
{
1002
}
1002
}
1000
CON1
1070
     9
1000
0
1002
{
1000
Class
1070
     4
1000
CON,BGD
1002
{
1002
}
1000
Color
1070
     1
1070
   256
1002
{
1002
}
1000
LType
1070
     4
1000
BYLAYER
1002
{
1002
}
1002
}
1000
CON2
1070
     9
1000
1
1002
{
1000
Class
1070
     4
1000
CON,BGD
1002
{
1002
}
1000
Color
1070
     1
1070
   256
1002
{
1002
}
1000
LType
1070
     4
1000
BYLAYER
1002
{
1002
}
1002
}
1000
CON3
1070
     9
1000
2
1002
{
1000
Class
1070
     4
1000
CON,BGD
1002
{
1002
}
1000
Color
1070
     1
1070
   256
1002
{
1002
}
1000
LType
1070
     4
1000
BYLAYER
1002
{
1002
}
1002
}
1000
CON4
1070
     9
1000
2
1002
{
1000
Class
1070
     4
1000
CON,BGD
1002
{
1002
}
1000
Color
1070
     1
1070
   256
1002
{
1002
}
1000
LType
1070
     4
1000
BYLAYER
1002
{
1002
}
1002
}
1000
DERP
1070
     9
1000
4
1002
{
1000
Class
1070
     4
1000

1002
{
1002
}
1000
Color
1070
     1
1070
   256
1002
{
1002
}
1000
LType
1070
     4
1000
BYLAYER
1002
{
1002
}
1002
}
1000
DETA
1070
     9
1000
4
1002
{
1000
Class
1070
     4
1000

1002
{
1002
}
1000
Color
1070
     1
1070
   256
1002
{
1002
}
1000
LType
1070
     4
1000
BYLAYER
1002
{
1002
}
1002
}
1000
DIAG
1070
     9
1000
5
1002
{
1000
Class
1070
     4
1000
SYM
1002
{
1002
}
1000
Color
1070
     1
1070
   256
1002
{
1002
}
1000
LType
1070
     4
1000
BYLAYER
1002
{
1002
}
1002
}
1000
DILI
1070
     9
1000
5
1002
{
1000
Class
1070
     4
1000
DIM,SYM
1002
{
1002
}
1000
Color
1070
     1
1070
   256
1002
{
1002
}
1000
LType
1070
     4
1000
BYLAYER
1002
{
1002
}
1002
}
1000
DITO2
1070
     9
1000
5
1002
{
1000
Class
1070
     4
1000
DIM,SYM
1002
{
1002
}
1000
Color
1070
     1
1070
     3
1002
{
1002
}
1000
LType
1070
     4
1000
BYLAYER
1002
{
1002
}
1002
}
1000
DITO3
1070
     9
1000
5
1002
{
1000
Class
1070
     4
1000
DIM,SYM
1002
{
1002
}
1000
Color
1070
     1
1070
     2
1002
{
1002
}
1000
LType
1070
     4
1000
BYLAYER
1002
{
1002
}
1002
}
1000
DITX
1070
     9
1000
5
1002
{
1000
Class
1070
     4
1000
DIM,SYM
1002
{
1002
}
1000
Color
1070
     1
1070
     2
1002
{
1002
}
1000
LType
1070
     4
1000
CONTINUOUS
1002
{
1002
}
1002
}
1000
DIXL
1070
     9
1000
5
1002
{
1000
Class
1070
     4
1000
DIM,SYM
1002
{
1002
}
1000
Color
1070
     1
1070
   256
1002
{
1002
}
1000
LType
1070
     4
1000
BYLAYER
1002
{
1002
}
1002
}
1000
EXMP
1070
     9
1000
4A
1002
{
1000
Class
1070
     4
1000

1002
{
1002
}
1000
Color
1070
     1
1070
   256
1002
{
1002
}
1000
LType
1070
     4
1000
BYLAYER
1002
{
1002
}
1002
}
1000
FEMN
1070
     9
1000
8
1002
{
1000
Class
1070
     4
1000

1002
{
1002
}
1000
Color
1070
     1
1070
   256
1002
{
1002
}
1000
LType
1070
     4
1000
BYLAYER
1002
{
1002
}
1002
}
1000
FEMPN
1070
     9
1000
8
1002
{
1000
Class
1070
     4
1000
SYM
1002
{
1002
}
1000
Color
1070
     1
1070
     3
1002
{
1002
}
1000
LType
1070
     4
1000
BYLAYER
1002
{
1002
}
1002
}
1000
FEMSP
1070
     9
1000
4A
1002
{
1000
Class
1070
     4
1000

1002
{
1002
}
1000
Color
1070
     1
1070
   256
1002
{
1002
}
1000
LType
1070
     4
1000
CONTINUOUS
1002
{
1002
}
1002
}
1000
FEMST
1070
     9
1000
4A
1002
{
1000
Class
1070
     4
1000
SYM
1002
{
1002
}
1000
Color
1070
     1
1070
     3
1002
{
1002
}
1000
LType
1070
     4
1000
BYLAYER
1002
{
1002
}
1002
}
1000
FEMVN
1070
     9
1000
2
1002
{
1000
Class
1070
     4
1000
CON
1002
{
1002
}
1000
Color
1070
     1
1070
   256
1002
{
1002
}
1000
LType
1070
     4
1000
BYLAYER
1002
{
1002
}
1002
}
1000
FEMVT
1070
     9
1000
2
1002
{
1000
Class
1070
     4
1000
SYM
1002
{
1002
}
1000
Color
1070
     1
1070
     3
1002
{
1002
}
1000
LType
1070
     4
1000
BYLAYER
1002
{
1002
}
1002
}
1000
FLAT
1070
     9
1000
0
1002
{
1000
Class
1070
     4
1000

1002
{
1002
}
1000
Color
1070
     1
1070
   256
1002
{
1002
}
1000
LType
1070
     4
1000
BYLAYER
1002
{
1002
}
1002
}
1000
FRAR
1070
     9
1000
4A
1002
{
1000
Class
1070
     4
1000

1002
{
1002
}
1000
Color
1070
     1
1070
   256
1002
{
1002
}
1000
LType
1070
     4
1000
BYLAYER
1002
{
1002
}
1002
}
1000
GRLI
1070
     9
1000
5
1002
{
1000
Class
1070
     4
1000
SYM
1002
{
1002
}
1000
Color
1070
     1
1070
   256
1002
{
1002
}
1000
LType
1070
     4
1000
BYLAYER
1002
{
1002
}
1002
}
1000
GVLI
1070
     9
1000
4A
1002
{
1000
Class
1070
     4
1000

1002
{
1002
}
1000
Color
1070
     1
1070
   256
1002
{
1002
}
1000
LType
1070
     4
1000
BYLAYER
1002
{
1002
}
1002
}
1000
HATC
1070
     9
1000
8
1002
{
1000
Class
1070
     4
1000
HTC,BGD
1002
{
1002
}
1000
Color
1070
     1
1070
   256
1002
{
1002
}
1000
LType
1070
     4
1000
BYLAYER
1002
{
1002
}
1002
}
1000
HIDN
1070
     9
1000
3A
1002
{
1000
Class
1070
     4
1000
HID,BGD
1002
{
1002
}
1000
Color
1070
     1
1070
   256
1002
{
1002
}
1000
LType
1070
     4
1000
BYLAYER
1002
{
1002
}
1002
}
1000
HIDW
1070
     9
1000
3
1002
{
1000
Class
1070
     4
1000
HID,BGD
1002
{
1002
}
1000
Color
1070
     1
1070
   256
1002
{
1002
}
1000
LType
1070
     4
1000
BYLAYER
1002
{
1002
}
1002
}
1000
HLIN
1070
     9
1000
4
1002
{
1000
Class
1070
     4
1000
BGD
1002
{
1002
}
1000
Color
1070
     1
1070
   256
1002
{
1002
}
1000
LType
1070
     4
1000
BYLAYER
1002
{
1002
}
1002
}
1000
HOCN
1070
     9
1000
7A
1002
{
1000
Class
1070
     4
1000
CEN
1002
{
1002
}
1000
Color
1070
     1
1070
   256
1002
{
1002
}
1000
LType
1070
     4
1000
BYLAYER
1002
{
1002
}
1002
}
1000
HOCW
1070
     9
1000
7
1002
{
1000
Class
1070
     4
1000
CEN
1002
{
1002
}
1000
Color
1070
     1
1070
   256
1002
{
1002
}
1000
LType
1070
     4
1000
BYLAYER
1002
{
1002
}
1002
}
1000
INFO
1070
     9
1000
INFO
1002
{
1000
Class
1070
     4
1000
SPZ,SYM
1002
{
1002
}
1000
Color
1070
     1
1070
   256
1002
{
1002
}
1000
LType
1070
     4
1000
BYLAYER
1002
{
1002
}
1002
}
1000
LADI
1070
     9
1000
4
1002
{
1000
Class
1070
     4
1000
BGD
1002
{
1002
}
1000
Color
1070
     1
1070
   256
1002
{
1002
}
1000
LType
1070
     4
1000
BYLAYER
1002
{
1002
}
1002
}
1000
LEAD
1070
     9
1000
5
1002
{
1000
Class
1070
     4
1000
SYM
1002
{
1002
}
1000
Color
1070
     1
1070
   256
1002
{
1002
}
1000
LType
1070
     4
1000
BYLAYER
1002
{
1002
}
1002
}
1000
N_ADDL
1070
     9
1000
5N
1002
{
1000
Class
1070
     4
1000
SYM
1002
{
1002
}
1000
Color
1070
     1
1070
     1
1002
{
1002
}
1000
LType
1070
     4
1000
BYLAYER
1002
{
1002
}
1002
}
1000
N_BHNV
1070
     9
1000
9N
1002
{
1000
Class
1070
     4
1000
INV
1002
{
1002
}
1000
Color
1070
     1
1070
   256
1002
{
1002
}
1000
LType
1070
     4
1000
BYLAYER
1002
{
1002
}
1002
}
1000
N_CON1
1070
     9
1000
0N
1002
{
1000
Class
1070
     4
1000
CON,BGD
1002
{
1002
}
1000
Color
1070
     1
1070
   256
1002
{
1002
}
1000
LType
1070
     4
1000
BYLAYER
1002
{
1002
}
1002
}
1000
N_CON2
1070
     9
1000
1N
1002
{
1000
Class
1070
     4
1000
CON,BGD
1002
{
1002
}
1000
Color
1070
     1
1070
   256
1002
{
1002
}
1000
LType
1070
     4
1000
BYLAYER
1002
{
1002
}
1002
}
1000
N_CON3
1070
     9
1000
2N
1002
{
1000
Class
1070
     4
1000
CON,BGD
1002
{
1002
}
1000
Color
1070
     1
1070
   256
1002
{
1002
}
1000
LType
1070
     4
1000
BYLAYER
1002
{
1002
}
1002
}
1000
N_CON4
1070
     9
1000
2N
1002
{
1000
Class
1070
     4
1000
CON,BGD
1002
{
1002
}
1000
Color
1070
     1
1070
   256
1002
{
1002
}
1000
LType
1070
     4
1000
BYLAYER
1002
{
1002
}
1002
}
1000
N_CENN
1070
     9
1000
7AN
1002
{
1000
Class
1070
     4
1000
CEN
1002
{
1002
}
1000
Color
1070
     1
1070
   256
1002
{
1002
}
1000
LType
1070
     4
1000
BYLAYER
1002
{
1002
}
1002
}
1000
N_CENW
1070
     9
1000
7N
1002
{
1000
Class
1070
     4
1000
CEN
1002
{
1002
}
1000
Color
1070
     1
1070
   256
1002
{
1002
}
1000
LType
1070
     4
1000
BYLAYER
1002
{
1002
}
1002
}
1000
N_DILI
1070
     9
1000
5N
1002
{
1000
Class
1070
     4
1000
DIM,SYM
1002
{
1002
}
1000
Color
1070
     1
1070
   256
1002
{
1002
}
1000
LType
1070
     4
1000
BYLAYER
1002
{
1002
}
1002
}
1000
N_DITX
1070
     9
1000
5N
1002
{
1000
Class
1070
     4
1000
DIM,SYM
1002
{
1002
}
1000
Color
1070
     1
1070
     2
1002
{
1002
}
1000
LType
1070
     4
1000
CONTINUOUS
1002
{
1002
}
1002
}
1000
N_DIXL
1070
     9
1000
5N
1002
{
1000
Class
1070
     4
1000
DIM,SYM
1002
{
1002
}
1000
Color
1070
     1
1070
   256
1002
{
1002
}
1000
LType
1070
     4
1000
BYLAYER
1002
{
1002
}
1002
}
1000
N_HATC
1070
     9
1000
8N
1002
{
1000
Class
1070
     4
1000
HTC,BGD
1002
{
1002
}
1000
Color
1070
     1
1070
   256
1002
{
1002
}
1000
LType
1070
     4
1000
BYLAYER
1002
{
1002
}
1002
}
1000
N_HIDN
1070
     9
1000
3AN
1002
{
1000
Class
1070
     4
1000
HID,BGD
1002
{
1002
}
1000
Color
1070
     1
1070
   256
1002
{
1002
}
1000
LType
1070
     4
1000
BYLAYER
1002
{
1002
}
1002
}
1000
N_HIDW
1070
     9
1000
3N
1002
{
1000
Class
1070
     4
1000
HID,BGD
1002
{
1002
}
1000
Color
1070
     1
1070
   256
1002
{
1002
}
1000
LType
1070
     4
1000
BYLAYER
1002
{
1002
}
1002
}
1000
N_NGIP
1070
     9
1000
IPN
1002
{
1000
Class
1070
     4
1000

1002
{
1002
}
1000
Color
1070
     1
1070
   256
1002
{
1002
}
1000
LType
1070
     4
1000
BYLAYER
1002
{
1002
}
1002
}
1000
N_PHAN
1070
     9
1000
4AN
1002
{
1000
Class
1070
     4
1000

1002
{
1002
}
1000
Color
1070
     1
1070
   256
1002
{
1002
}
1000
LType
1070
     4
1000
BYLAYER
1002
{
1002
}
1002
}
1000
N_POSL
1070
     9
1000
5N
1002
{
1000
Class
1070
     4
1000
SYM
1002
{
1002
}
1000
Color
1070
     1
1070
   256
1002
{
1002
}
1000
LType
1070
     4
1000
BYLAYER
1002
{
1002
}
1002
}
1000
N_TCON
1070
     9
1000
0N
1002
{
1000
Class
1070
     4
1000
CON,BGD
1002
{
1002
}
1000
Color
1070
     1
1070
   256
1002
{
1002
}
1000
LType
1070
     4
1000
BYLAYER
1002
{
1002
}
1002
}
1000
N_THLI
1070
     9
1000
4N
1002
{
1000
Class
1070
     4
1000
BGD
1002
{
1002
}
1000
Color
1070
     1
1070
   256
1002
{
1002
}
1000
LType
1070
     4
1000
BYLAYER
1002
{
1002
}
1002
}
1000
N_TLEN
1070
     9
1000
0N
1002
{
1000
Class
1070
     4
1000
CON,BGD
1002
{
1002
}
1000
Color
1070
     1
1070
   256
1002
{
1002
}
1000
LType
1070
     4
1000
BYLAYER
1002
{
1002
}
1002
}
1000
N_TXT3
1070
     9
1000
6N
1002
{
1000
Class
1070
     4
1000
SYM
1002
{
1002
}
1000
Color
1070
     1
1070
   256
1002
{
1002
}
1000
LType
1070
     4
1000
BYLAYER
1002
{
1002
}
1002
}
1000
N_VPLI
1070
     9
1000
2AN
1002
{
1000
Class
1070
     4
1000

1002
{
1002
}
1000
Color
1070
     1
1070
   256
1002
{
1002
}
1000
LType
1070
     4
1000
BYLAYER
1002
{
1002
}
1002
}
1000
NGIP
1070
     9
1000
IP
1002
{
1000
Class
1070
     4
1000

1002
{
1002
}
1000
Color
1070
     1
1070
   256
1002
{
1002
}
1000
LType
1070
     4
1000
BYLAYER
1002
{
1002
}
1002
}
1000
PAL2
1070
     9
1000
RAHM2
1002
{
1000
Class
1070
     4
1000
SPZ,SYM
1002
{
1002
}
1000
Color
1070
     1
1070
   256
1002
{
1002
}
1000
LType
1070
     4
1000
BYLAYER
1002
{
1002
}
1002
}
1000
PAL3
1070
     9
1000
RAHM3
1002
{
1000
Class
1070
     4
1000
SPZ,SYM
1002
{
1002
}
1000
Color
1070
     1
1070
   256
1002
{
1002
}
1000
LType
1070
     4
1000
BYLAYER
1002
{
1002
}
1002
}
1000
PAL5
1070
     9
1000
RAHM5
1002
{
1000
Class
1070
     4
1000
SPZ,SYM
1002
{
1002
}
1000
Color
1070
     1
1070
   256
1002
{
1002
}
1000
LType
1070
     4
1000
BYLAYER
1002
{
1002
}
1002
}
1000
PAL7
1070
     9
1000
RAHM5
1002
{
1000
Class
1070
     4
1000
SPZ,SYM
1002
{
1002
}
1000
Color
1070
     1
1070
     7
1002
{
1002
}
1000
LType
1070
     4
1000
CONTINUOUS
1002
{
1002
}
1002
}
1000
PHAN
1070
     9
1000
4A
1002
{
1000
Class
1070
     4
1000

1002
{
1002
}
1000
Color
1070
     1
1070
   256
1002
{
1002
}
1000
LType
1070
     4
1000
BYLAYER
1002
{
1002
}
1002
}
1000
POSL
1070
     9
1000
5
1002
{
1000
Class
1070
     4
1000
SYM
1002
{
1002
}
1000
Color
1070
     1
1070
   256
1002
{
1002
}
1000
LType
1070
     4
1000
BYLAYER
1002
{
1002
}
1002
}
1000
POSN
1070
     9
1000
6
1002
{
1000
Class
1070
     4
1000
SYM
1002
{
1002
}
1000
Color
1070
     1
1070
     7
1002
{
1002
}
1000
LType
1070
     4
1000
BYLAYER
1002
{
1002
}
1002
}
1000
POSREF
1070
     9
1000
6
1002
{
1000
Class
1070
     4
1000
SYM
1002
{
1002
}
1000
Color
1070
     1
1070
     5
1002
{
1002
}
1000
LType
1070
     4
1000
BYLAYER
1002
{
1002
}
1002
}
1000
POSX
1070
     9
1000
5
1002
{
1000
Class
1070
     4
1000
SYM
1002
{
1002
}
1000
Color
1070
     1
1070
     2
1002
{
1002
}
1000
LType
1070
     4
1000
CONTINUOUS
1002
{
1002
}
1002
}
1000
PSEC
1070
     9
1000
4A
1002
{
1000
Class
1070
     4
1000

1002
{
1002
}
1000
Color
1070
     1
1070
   256
1002
{
1002
}
1000
LType
1070
     4
1000
BYLAYER
1002
{
1002
}
1002
}
1000
RCGN
1070
     9
1000
7A
1002
{
1000
Class
1070
     4
1000
CEN
1002
{
1002
}
1000
Color
1070
     1
1070
   256
1002
{
1002
}
1000
LType
1070
     4
1000
BYLAYER
1002
{
1002
}
1002
}
1000
RCGW
1070
     9
1000
7
1002
{
1000
Class
1070
     4
1000
CEN
1002
{
1002
}
1000
Color
1070
     1
1070
   256
1002
{
1002
}
1000
LType
1070
     4
1000
BYLAYER
1002
{
1002
}
1002
}
1000
RFDI
1070
     9
1000
4
1002
{
1000
Class
1070
     4
1000
BGD
1002
{
1002
}
1000
Color
1070
     1
1070
   256
1002
{
1002
}
1000
LType
1070
     4
1000
BYLAYER
1002
{
1002
}
1002
}
1000
RQTR
1070
     9
1000
4
1002
{
1000
Class
1070
     4
1000

1002
{
1002
}
1000
Color
1070
     1
1070
     7
1002
{
1002
}
1000
LType
1070
     4
1000
GEN7A
1002
{
1002
}
1002
}
1000
RSBO
1070
     9
1000
4
1002
{
1000
Class
1070
     4
1000
BGD
1002
{
1002
}
1000
Color
1070
     1
1070
   256
1002
{
1002
}
1000
LType
1070
     4
1000
BYLAYER
1002
{
1002
}
1002
}
1000
SBRK
1070
     9
1000
4
1002
{
1000
Class
1070
     4
1000
BGD
1002
{
1002
}
1000
Color
1070
     1
1070
   256
1002
{
1002
}
1000
LType
1070
     4
1000
BYLAYER
1002
{
1002
}
1002
}
1000
SCEN
1070
     9
1000
7
1002
{
1000
Class
1070
     4
1000

1002
{
1002
}
1000
Color
1070
     1
1070
   256
1002
{
1002
}
1000
LType
1070
     4
1000
CONTINUOUS
1002
{
1002
}
1002
}
1000
SECT
1070
     9
1000
4
1002
{
1000
Class
1070
     4
1000
BGD
1002
{
1002
}
1000
Color
1070
     1
1070
   256
1002
{
1002
}
1000
LType
1070
     4
1000
BYLAYER
1002
{
1002
}
1002
}
1000
SELN
1070
     9
1000
7A
1002
{
1000
Class
1070
     4
1000

1002
{
1002
}
1000
Color
1070
     1
1070
   256
1002
{
1002
}
1000
LType
1070
     4
1000
BYLAYER
1002
{
1002
}
1002
}
1000
SELW
1070
     9
1000
7
1002
{
1000
Class
1070
     4
1000

1002
{
1002
}
1000
Color
1070
     1
1070
   256
1002
{
1002
}
1000
LType
1070
     4
1000
BYLAYER
1002
{
1002
}
1002
}
1000
SSYS
1070
     9
1000
0
1002
{
1000
Class
1070
     4
1000

1002
{
1002
}
1000
Color
1070
     1
1070
   256
1002
{
1002
}
1000
LType
1070
     4
1000
BYLAYER
1002
{
1002
}
1002
}
1000
STLI
1070
     9
1000
4
1002
{
1000
Class
1070
     4
1000

1002
{
1002
}
1000
Color
1070
     1
1070
     7
1002
{
1002
}
1000
LType
1070
     4
1000
GEN3A
1002
{
1002
}
1002
}
1000
SYB1
1070
     9
1000
5
1002
{
1000
Class
1070
     4
1000
SYM
1002
{
1002
}
1000
Color
1070
     1
1070
   256
1002
{
1002
}
1000
LType
1070
     4
1000
BYLAYER
1002
{
1002
}
1002
}
1000
SYB2
1070
     9
1000
5
1002
{
1000
Class
1070
     4
1000
SYM
1002
{
1002
}
1000
Color
1070
     1
1070
   256
1002
{
1002
}
1000
LType
1070
     4
1000
BYLAYER
1002
{
1002
}
1002
}
1000
SYB3
1070
     9
1000
6
1002
{
1000
Class
1070
     4
1000
SYM
1002
{
1002
}
1000
Color
1070
     1
1070
   256
1002
{
1002
}
1000
LType
1070
     4
1000
CONTINUOUS
1002
{
1002
}
1002
}
1000
SYB5
1070
     9
1000
5
1002
{
1000
Class
1070
     4
1000
SYM
1002
{
1002
}
1000
Color
1070
     1
1070
     7
1002
{
1002
}
1000
LType
1070
     4
1000
BYLAYER
1002
{
1002
}
1002
}
1000
SYMN
1070
     9
1000
7A
1002
{
1000
Class
1070
     4
1000
CEN
1002
{
1002
}
1000
Color
1070
     1
1070
   256
1002
{
1002
}
1000
LType
1070
     4
1000
BYLAYER
1002
{
1002
}
1002
}
1000
SYMW
1070
     9
1000
7
1002
{
1000
Class
1070
     4
1000
CEN
1002
{
1002
}
1000
Color
1070
     1
1070
   256
1002
{
1002
}
1000
LType
1070
     4
1000
BYLAYER
1002
{
1002
}
1002
}
1000
TCON
1070
     9
1000
0
1002
{
1000
Class
1070
     4
1000
CON,BGD
1002
{
1002
}
1000
Color
1070
     1
1070
   256
1002
{
1002
}
1000
LType
1070
     4
1000
BYLAYER
1002
{
1002
}
1002
}
1000
THLI
1070
     9
1000
4
1002
{
1000
Class
1070
     4
1000
BGD
1002
{
1002
}
1000
Color
1070
     1
1070
   256
1002
{
1002
}
1000
LType
1070
     4
1000
BYLAYER
1002
{
1002
}
1002
}
1000
TIT2
1070
     9
1000
RAHM2
1002
{
1000
Class
1070
     4
1000
SPZ,SYM
1002
{
1002
}
1000
Color
1070
     1
1070
   256
1002
{
1002
}
1000
LType
1070
     4
1000
BYLAYER
1002
{
1002
}
1002
}
1000
TIT3
1070
     9
1000
RAHM3
1002
{
1000
Class
1070
     4
1000
SPZ,SYM
1002
{
1002
}
1000
Color
1070
     1
1070
   256
1002
{
1002
}
1000
LType
1070
     4
1000
BYLAYER
1002
{
1002
}
1002
}
1000
TIT5
1070
     9
1000
RAHM5
1002
{
1000
Class
1070
     4
1000
SPZ,SYM
1002
{
1002
}
1000
Color
1070
     1
1070
   256
1002
{
1002
}
1000
LType
1070
     4
1000
BYLAYER
1002
{
1002
}
1002
}
1000
TIT7
1070
     9
1000
RAHM5
1002
{
1000
Class
1070
     4
1000
SPZ,SYM
1002
{
1002
}
1000
Color
1070
     1
1070
     7
1002
{
1002
}
1000
LType
1070
     4
1000
CONTINUOUS
1002
{
1002
}
1002
}
1000
TLEN
1070
     9
1000
0
1002
{
1000
Class
1070
     4
1000
CON,BGD
1002
{
1002
}
1000
Color
1070
     1
1070
   256
1002
{
1002
}
1000
LType
1070
     4
1000
BYLAYER
1002
{
1002
}
1002
}
1000
TRKN
1070
     9
1000
7A
1002
{
1000
Class
1070
     4
1000

1002
{
1002
}
1000
Color
1070
     1
1070
   256
1002
{
1002
}
1000
LType
1070
     4
1000
BYLAYER
1002
{
1002
}
1002
}
1000
TRKW
1070
     9
1000
7
1002
{
1000
Class
1070
     4
1000

1002
{
1002
}
1000
Color
1070
     1
1070
   256
1002
{
1002
}
1000
LType
1070
     4
1000
BYLAYER
1002
{
1002
}
1002
}
1000
TRLI
1070
     9
1000
4
1002
{
1000
Class
1070
     4
1000
BGD
1002
{
1002
}
1000
Color
1070
     1
1070
   256
1002
{
1002
}
1000
LType
1070
     4
1000
BYLAYER
1002
{
1002
}
1002
}
1000
TXT1
1070
     9
1000
6
1002
{
1000
Class
1070
     4
1000
SYM
1002
{
1002
}
1000
Color
1070
     1
1070
     2
1002
{
1002
}
1000
LType
1070
     4
1000
BYLAYER
1002
{
1002
}
1002
}
1000
TXT2
1070
     9
1000
6
1002
{
1000
Class
1070
     4
1000
SYM
1002
{
1002
}
1000
Color
1070
     1
1070
     2
1002
{
1002
}
1000
LType
1070
     4
1000
BYLAYER
1002
{
1002
}
1002
}
1000
TXT3
1070
     9
1000
6
1002
{
1000
Class
1070
     4
1000
SYM
1002
{
1002
}
1000
Color
1070
     1
1070
   256
1002
{
1002
}
1000
LType
1070
     4
1000
BYLAYER
1002
{
1002
}
1002
}
1000
TXT5
1070
     9
1000
6
1002
{
1000
Class
1070
     4
1000
SYM
1002
{
1002
}
1000
Color
1070
     1
1070
     7
1002
{
1002
}
1000
LType
1070
     4
1000
BYLAYER
1002
{
1002
}
1002
}
1000
TXT7
1070
     9
1000
6
1002
{
1000
Class
1070
     4
1000
SYM
1002
{
1002
}
1000
Color
1070
     1
1070
     7
1002
{
1002
}
1000
LType
1070
     4
1000
BYLAYER
1002
{
1002
}
1002
}
1000
VIEW
1070
     9
1000
VIEW
1002
{
1000
Class
1070
     4
1000
SPZ
1002
{
1002
}
1000
Color
1070
     1
1070
   256
1002
{
1002
}
1000
LType
1070
     4
1000
BYLAYER
1002
{
1002
}
1002
}
1000
VPLI
1070
     9
1000
2A
1002
{
1000
Class
1070
     4
1000

1002
{
1002
}
1000
Color
1070
     1
1070
   256
1002
{
1002
}
1000
LType
1070
     4
1000
BYLAYER
1002
{
1002
}
1002
}
1000
ZIZA
1070
     9
1000
4
1002
{
1000
Class
1070
     4
1000
BGD
1002
{
1002
}
1000
Color
1070
     1
1070
   256
1002
{
1002
}
1000
LType
1070
     4
1000
GENZIGZAG
1002
{
1002
}
1002
}
  0
APPID
  5
1641
330
15FA
100
AcDbSymbolTableRecord
100
AcDbRegAppTableRecord
  2
GENIUS_GENCFG4_13
 70
     0
1001
GENIUS_GENCFG_13
1071
1023340754
1000
1641
1000
GEN
1070
     9
1000
GenCfgObject
1000
GenCfgShort
1000
GenCfgReal
1000
GenCfgBool
1000
GenCfgString
1000
GenCfgDim
1000
GenCfgLaySection
1000
GenCfgLType
1000
GenCfgFilter
1000
Balloon
1070
     0
1002
{
1000
GenIF
1070
     1
1070
     0
1002
{
1002
}
1000
GenPosInc
1070
     1
1070
     1
1002
{
1002
}
1000
GenPosBlk
1070
     1
1070
     8
1002
{
1002
}
1000
GenPosVar
1070
     1
1070
     0
1002
{
1002
}
1000
GenZiCir
1070
     2
1040
1.5
1002
{
1002
}
1000
MaxCharForCenteredText
1070
     1
1070
    30
1002
{
1002
}
1000
Snap
1070
     0
1002
{
1000
ActivationRadius
1070
     2
1040
1.0
1002
{
1002
}
1000
M
1070
     0
1002
{
1000
SnapStepX
1070
     2
1040
20.0
1002
{
1002
}
1000
SnapStepY
1070
     2
1040
10.0
1002
{
1002
}
1002
}
1000
I
1070
     0
1002
{
1000
SnapStepX
1070
     2
1040
1.0
1002
{
1002
}
1000
SnapStepY
1070
     2
1040
0.5
1002
{
1002
}
1002
}
1002
}
1002
}
1000
Centerline
1070
     0
1002
{
1000
ScaleNot
1070
     3
1070
     0
1002
{
1002
}
1000
M
1070
     0
1002
{
1000
GenCenAng
1070
     4
1000
45|90|135
1002
{
1002
}
1000
GenCenDia
1070
     2
1040
10.0
1002
{
1002
}
1000
GenCenDias
1070
     4
1000
10|20|30
1002
{
1002
}
1000
GenCenDist
1070
     2
1040
3.0
1002
{
1002
}
1000
GenCenLen
1070
     2
1040
10.0
1002
{
1002
}
1000
GenCenOff
1070
     2
1040
10.0
1002
{
1002
}
1002
}
1000
I
1070
     0
1002
{
1000
GenCenAng
1070
     4
1000
45|90|135
1002
{
1002
}
1000
GenCenDia
1070
     2
1040
0.5
1002
{
1002
}
1000
GenCenDias
1070
     4
1000
0.5|1.0|1.5
1002
{
1002
}
1000
GenCenDist
1070
     2
1040
0.125
1002
{
1002
}
1000
GenCenLen
1070
     2
1040
0.5
1002
{
1002
}
1000
GenCenOff
1070
     2
1040
0.5
1002
{
1002
}
1002
}
1002
}
1000
CLine
1070
     0
1002
{
1000
CAngArray
1070
     4
1000
30|45|60
1002
{
1002
}
1000
Typ
1070
     4
1000
XLINE
1002
{
1002
}
1000
M
1070
     0
1002
{
1000
CLinArray
1070
     4
1000
10|20|30
1002
{
1002
}
1002
}
1000
I
1070
     0
1002
{
1000
CLinArray
1070
     4
1000
0.125|0.25|0.5
1002
{
1002
}
1002
}
1002
}
1000
Detail
1070
     0
1002
{
1002
}
1000
Dimension
1070
     5
1002
{
1000
DIMALT
1070
     1
1070
     0
1002
{
1002
}
1000
DIMALTD
1070
     1
1070
     2
1002
{
1002
}
1000
DIMALTTD
1070
     1
1070
     4
1002
{
1002
}
1000
DIMALTTZ
1070
     1
1070
     0
1002
{
1002
}
1000
DIMALTU
1070
     1
1070
     2
1002
{
1002
}
1000
DIMALTZ
1070
     1
1070
     0
1002
{
1002
}
1000
DIMAUNIT
1070
     1
1070
     0
1002
{
1002
}
1000
DIMBLK
1070
     4
1000

1002
{
1002
}
1000
DIMBLK1
1070
     4
1000

1002
{
1002
}
1000
DIMBLK2
1070
     4
1000

1002
{
1002
}
1000
DIMCLRD
1070
     1
1070
   256
1002
{
1002
}
1000
DIMCLRE
1070
     1
1070
   256
1002
{
1002
}
1000
DIMCLRT
1070
     1
1070
     2
1002
{
1002
}
1000
DIMDLE
1070
     2
1040
0.0
1002
{
1002
}
1000
DIMFIT
1070
     1
1070
     3
1002
{
1002
}
1000
DIMJUST
1070
     1
1070
     0
1002
{
1002
}
1000
DIMLFAC
1070
     2
1040
1.0
1002
{
1002
}
1000
DIMLIM
1070
     1
1070
     0
1002
{
1002
}
1000
DIMPOST
1070
     4
1000

1002
{
1002
}
1000
DIMRND
1070
     2
1040
0.0
1002
{
1002
}
1000
DIMSAH
1070
     1
1070
     0
1002
{
1002
}
1000
DIMSCALE
1070
     2
1040
1.0
1002
{
1002
}
1000
DIMSD1
1070
     1
1070
     0
1002
{
1002
}
1000
DIMSD2
1070
     1
1070
     0
1002
{
1002
}
1000
DIMSE1
1070
     1
1070
     0
1002
{
1002
}
1000
DIMSE2
1070
     1
1070
     0
1002
{
1002
}
1000
DIMSOXD
1070
     1
1070
     0
1002
{
1002
}
1000
DIMTAD
1070
     1
1070
     0
1002
{
1002
}
1000
DIMTFAC
1070
     2
1040
0.71
1002
{
1002
}
1000
DIMTIH
1070
     1
1070
     0
1002
{
1002
}
1000
DIMTIX
1070
     1
1070
     0
1002
{
1002
}
1000
DIMTM
1070
     2
1040
0.1
1002
{
1002
}
1000
DIMTOFL
1070
     1
1070
     0
1002
{
1002
}
1000
DIMTOH
1070
     1
1070
     0
1002
{
1002
}
1000
DIMTOL
1070
     1
1070
     0
1002
{
1002
}
1000
DIMTOLJ
1070
     1
1070
     1
1002
{
1002
}
1000
DIMTP
1070
     2
1040
0.1
1002
{
1002
}
1000
DIMTSZ
1070
     2
1040
0.0
1002
{
1002
}
1000
DIMTVP
1070
     2
1040
0.0
1002
{
1002
}
1000
DIMTXSTY
1070
     4
1000
STANDARD
1002
{
1002
}
1000
DIMTZIN
1070
     1
1070
     0
1002
{
1002
}
1000
DIMUNIT
1070
     1
1070
     2
1002
{
1002
}
1000
DIMUPT
1070
     1
1070
     0
1002
{
1002
}
1000
M
1070
     0
1002
{
1000
DIMALTF
1070
     2
1040
0.03937
1002
{
1002
}
1000
DIMAPOST
1070
     4
1000
"
1002
{
1002
}
1000
DIMASZ
1070
     2
1040
2.5
1002
{
1002
}
1000
DIMCEN
1070
     2
1040
0.0
1002
{
1002
}
1000
DIMDEC
1070
     1
1070
     2
1002
{
1002
}
1000
DIMDLI
1070
     2
1040
7.0
1002
{
1002
}
1000
DIMEXE
1070
     2
1040
1.0
1002
{
1002
}
1000
DIMEXO
1070
     2
1040
1.0
1002
{
1002
}
1000
DIMGAP
1070
     2
1040
0.6
1002
{
1002
}
1000
DIMTDEC
1070
     1
1070
     3
1002
{
1002
}
1000
DIMTXT
1070
     2
1040
3.5
1002
{
1002
}
1000
DIMZIN
1070
     1
1070
     8
1002
{
1002
}
1002
}
1000
I
1070
     0
1002
{
1000
DIMALTF
1070
     2
1040
25.4
1002
{
1002
}
1000
DIMAPOST
1070
     4
1000
mm
1002
{
1002
}
1000
DIMASZ
1070
     2
1040
0.1
1002
{
1002
}
1000
DIMCEN
1070
     2
1040
0.0
1002
{
1002
}
1000
DIMDEC
1070
     1
1070
     4
1002
{
1002
}
1000
DIMDLI
1070
     2
1040
0.5
1002
{
1002
}
1000
DIMEXE
1070
     2
1040
0.1
1002
{
1002
}
1000
DIMEXO
1070
     2
1040
0.05
1002
{
1002
}
1000
DIMGAP
1070
     2
1040
0.06
1002
{
1002
}
1000
DIMTDEC
1070
     1
1070
     4
1002
{
1002
}
1000
DIMTXT
1070
     2
1040
0.12
1002
{
1002
}
1000
DIMZIN
1070
     1
1070
     7
1002
{
1002
}
1002
}
1000
GEN-ISO
1070
     5
1002
{
1000
NAME
1070
     4
1000
GEN-ISO
1002
{
1002
}
1000
DIMTAD
1070
     1
1070
     1
1002
{
1002
}
1000
DIMTOLJ
1070
     1
1070
     0
1002
{
1002
}
1000
DIMTOFL
1070
     1
1070
     1
1002
{
1002
}
1000
M
1070
     0
1002
{
1002
}
1000
I
1070
     0
1002
{
1002
}
1002
}
1000
GEN-ISO-POS
1070
     5
1002
{
1000
NAME
1070
     4
1000
GEN-ISO-POS
1002
{
1002
}
1000
DIMTOLJ
1070
     1
1070
     0
1002
{
1002
}
1000
DIMTXSTY
1070
     4
1000
STANDARD
1002
{
1002
}
1000
M
1070
     0
1002
{
1000
DIMASZ
1070
     2
1040
2.5
1002
{
1002
}
1000
DIMGAP
1070
     2
1040
1.5
1002
{
1002
}
1000
DIMTXT
1070
     2
1040
5.0
1002
{
1002
}
1002
}
1000
I
1070
     0
1002
{
1000
DIMASZ
1070
     2
1040
0.1
1002
{
1002
}
1000
DIMGAP
1070
     2
1040
0.06
1002
{
1002
}
1000
DIMTXT
1070
     2
1040
0.2
1002
{
1002
}
1002
}
1002
}
1000
GEN-ISO-CIR
1070
     5
1002
{
1000
NAME
1070
     4
1000
GEN-ISO$3
1002
{
1002
}
1000
DIMFIT
1070
     1
1070
     0
1002
{
1002
}
1000
DIMTAD
1070
     1
1070
     1
1002
{
1002
}
1000
DIMTOH
1070
     1
1070
     1
1002
{
1002
}
1000
DIMTOLJ
1070
     1
1070
     0
1002
{
1002
}
1000
DIMUPT
1070
     1
1070
     1
1002
{
1002
}
1000
M
1070
     0
1002
{
1002
}
1000
I
1070
     0
1002
{
1002
}
1002
}
1000
GEN-ISO-RAD
1070
     5
1002
{
1000
NAME
1070
     4
1000
GEN-ISO$4
1002
{
1002
}
1000
DIMFIT
1070
     1
1070
     0
1002
{
1002
}
1000
DIMTAD
1070
     1
1070
     1
1002
{
1002
}
1000
DIMTIH
1070
     1
1070
     0
1002
{
1002
}
1000
DIMTIX
1070
     1
1070
     0
1002
{
1002
}
1000
DIMTOH
1070
     1
1070
     1
1002
{
1002
}
1000
DIMTOLJ
1070
     1
1070
     0
1002
{
1002
}
1000
DIMTOFL
1070
     1
1070
     0
1002
{
1002
}
1000
DIMUPT
1070
     1
1070
     1
1002
{
1002
}
1000
M
1070
     0
1002
{
1002
}
1000
I
1070
     0
1002
{
1002
}
1002
}
1000
GEN-ISO-ORD
1070
     5
1002
{
1000
NAME
1070
     4
1000
GEN-ISO$6
1002
{
1002
}
1000
DIMTOLJ
1070
     1
1070
     0
1002
{
1002
}
1000
M
1070
     0
1002
{
1002
}
1000
I
1070
     0
1002
{
1002
}
1002
}
1000
GEN-ISO-AXE-F
1070
     5
1002
{
1000
NAME
1070
     4
1000
GEN-ISO-AXE-F
1002
{
1002
}
1000
DIMSE1
1070
     1
1070
     1
1002
{
1002
}
1000
DIMSE2
1070
     1
1070
     1
1002
{
1002
}
1000
DIMTAD
1070
     1
1070
     1
1002
{
1002
}
1000
DIMTOLJ
1070
     1
1070
     0
1002
{
1002
}
1000
DIMTOFL
1070
     1
1070
     1
1002
{
1002
}
1000
M
1070
     0
1002
{
1002
}
1000
I
1070
     0
1002
{
1002
}
1002
}
1000
GEN-ISO-AXE-H
1070
     5
1002
{
1000
NAME
1070
     4
1000
GEN-ISO-AXE-H
1002
{
1002
}
1000
DIMBLK1
1070
     4
1000
GENAXEH
1002
{
1002
}
1000
DIMLFAC
1070
     2
1040
2.0
1002
{
1002
}
1000
DIMSAH
1070
     1
1070
     1
1002
{
1002
}
1000
DIMSE1
1070
     1
1070
     1
1002
{
1002
}
1000
DIMSE2
1070
     1
1070
     1
1002
{
1002
}
1000
DIMTAD
1070
     1
1070
     1
1002
{
1002
}
1000
DIMTOLJ
1070
     1
1070
     0
1002
{
1002
}
1000
DIMTOFL
1070
     1
1070
     1
1002
{
1002
}
1000
M
1070
     0
1002
{
1002
}
1000
I
1070
     0
1002
{
1002
}
1002
}
1000
GEN-ANSI
1070
     5
1002
{
1000
NAME
1070
     4
1000
GEN-ANSI
1002
{
1002
}
1000
DIMTIH
1070
     1
1070
     1
1002
{
1002
}
1000
DIMTOH
1070
     1
1070
     1
1002
{
1002
}
1000
DIMTAD
1070
     1
1070
     0
1002
{
1002
}
1000
DIMTOLJ
1070
     1
1070
     1
1002
{
1002
}
1000
M
1070
     0
1002
{
1002
}
1000
I
1070
     0
1002
{
1002
}
1002
}
1000
GEN-ANSI-POS
1070
     5
1002
{
1000
NAME
1070
     4
1000
GEN-ANSI-POS
1002
{
1002
}
1000
DIMTOLJ
1070
     1
1070
     1
1002
{
1002
}
1000
DIMTXSTY
1070
     4
1000
STANDARD
1002
{
1002
}
1000
M
1070
     0
1002
{
1000
DIMASZ
1070
     2
1040
2.5
1002
{
1002
}
1000
DIMGAP
1070
     2
1040
1.5
1002
{
1002
}
1000
DIMTXT
1070
     2
1040
5.0
1002
{
1002
}
1002
}
1000
I
1070
     0
1002
{
1000
DIMASZ
1070
     2
1040
0.1
1002
{
1002
}
1000
DIMGAP
1070
     2
1040
0.06
1002
{
1002
}
1000
DIMTXT
1070
     2
1040
0.2
1002
{
1002
}
1002
}
1002
}
1000
GEN-ANSI-CIR
1070
     5
1002
{
1000
NAME
1070
     4
1000
GEN-ANSI$3
1002
{
1002
}
1000
DIMFIT
1070
     1
1070
     0
1002
{
1002
}
1000
DIMTAD
1070
     1
1070
     0
1002
{
1002
}
1000
DIMTIH
1070
     1
1070
     1
1002
{
1002
}
1000
DIMTIX
1070
     1
1070
     0
1002
{
1002
}
1000
DIMTOFL
1070
     1
1070
     0
1002
{
1002
}
1000
DIMTOH
1070
     1
1070
     1
1002
{
1002
}
1000
DIMTOLJ
1070
     1
1070
     1
1002
{
1002
}
1000
DIMUPT
1070
     1
1070
     1
1002
{
1002
}
1000
M
1070
     0
1002
{
1002
}
1000
I
1070
     0
1002
{
1002
}
1002
}
1000
GEN-ANSI-RAD
1070
     5
1002
{
1000
NAME
1070
     4
1000
GEN-ANSI$4
1002
{
1002
}
1000
DIMFIT
1070
     1
1070
     0
1002
{
1002
}
1000
DIMTAD
1070
     1
1070
     0
1002
{
1002
}
1000
DIMTIH
1070
     1
1070
     1
1002
{
1002
}
1000
DIMTIX
1070
     1
1070
     0
1002
{
1002
}
1000
DIMTOFL
1070
     1
1070
     0
1002
{
1002
}
1000
DIMTOH
1070
     1
1070
     1
1002
{
1002
}
1000
DIMTOLJ
1070
     1
1070
     1
1002
{
1002
}
1000
DIMUPT
1070
     1
1070
     1
1002
{
1002
}
1000
M
1070
     0
1002
{
1002
}
1000
I
1070
     0
1002
{
1002
}
1002
}
1000
GEN-ANSI-ORD
1070
     5
1002
{
1000
NAME
1070
     4
1000
GEN-ANSI$6
1002
{
1002
}
1000
DIMTAD
1070
     1
1070
     0
1002
{
1002
}
1000
DIMTIH
1070
     1
1070
     1
1002
{
1002
}
1000
DIMTOH
1070
     1
1070
     1
1002
{
1002
}
1000
DIMTOLJ
1070
     1
1070
     1
1002
{
1002
}
1000
M
1070
     0
1002
{
1002
}
1000
I
1070
     0
1002
{
1002
}
1002
}
1000
GEN-ANSI-AXE-F
1070
     5
1002
{
1000
NAME
1070
     4
1000
GEN-ANSI-AXE-F
1002
{
1002
}
1000
DIMBLK1
1070
     4
1000
GENAXEH
1002
{
1002
}
1000
DIMSAH
1070
     1
1070
     1
1002
{
1002
}
1000
DIMSE1
1070
     1
1070
     1
1002
{
1002
}
1000
DIMSE2
1070
     1
1070
     1
1002
{
1002
}
1000
DIMTAD
1070
     1
1070
     0
1002
{
1002
}
1000
DIMTIH
1070
     1
1070
     1
1002
{
1002
}
1000
DIMTOH
1070
     1
1070
     1
1002
{
1002
}
1000
DIMTOLJ
1070
     1
1070
     1
1002
{
1002
}
1000
M
1070
     0
1002
{
1002
}
1000
I
1070
     0
1002
{
1002
}
1002
}
1000
GEN-ANSI-AXE-H
1070
     5
1002
{
1000
NAME
1070
     4
1000
GEN-ANSI-AXE-H
1002
{
1002
}
1000
DIMBLK1
1070
     4
1000
GENAXEH
1002
{
1002
}
1000
DIMLFAC
1070
     2
1040
2.0
1002
{
1002
}
1000
DIMSAH
1070
     1
1070
     1
1002
{
1002
}
1000
DIMSE1
1070
     1
1070
     1
1002
{
1002
}
1000
DIMSE2
1070
     1
1070
     1
1002
{
1002
}
1000
DIMTAD
1070
     1
1070
     0
1002
{
1002
}
1000
DIMTOFL
1070
     1
1070
     1
1002
{
1002
}
1000
DIMTOLJ
1070
     1
1070
     1
1002
{
1002
}
1000
M
1070
     0
1002
{
1002
}
1000
I
1070
     0
1002
{
1002
}
1002
}
1002
}
1000
DimSet
1070
     0
1002
{
1000
ChainSum
1070
     3
1070
     0
1002
{
1002
}
1000
DimDclTyp0
1070
     4
1000
dim23
1002
{
1002
}
1000
HorBra
1070
     3
1070
     0
1002
{
1002
}
1000
StrDia
1070
     4
1000
%%c<>
1002
{
1002
}
1000
StrRad
1070
     4
1000
R<>
1002
{
1002
}
1000
TextMinus
1070
     4
1000
<>
1002
{
1002
}
1000
TextPlus
1070
     4
1000
<>
1002
{
1002
}
1000
M
1070
     0
1002
{
1000
DimdliFirst
1070
     2
1040
10.0
1002
{
1002
}
1000
PointMakeDist
1070
     2
1040
10.0
1002
{
1002
}
1002
}
1000
I
1070
     0
1002
{
1000
DimdliFirst
1070
     2
1040
0.5
1002
{
1002
}
1000
PointMakeDist
1070
     2
1040
0.5
1002
{
1002
}
1002
}
1000
FitGrade
1070
     4
1000
h7
1002
{
1002
}
1002
}
1000
Drawing
1070
     0
1002
{
1000
ChamferDimMode
1070
     1
1070
     2
1002
{
1002
}
1000
Gen_Fiso
1070
    -3
1040
1.0
1002
{
1002
}
1000
GenDimStil
1070
     4
1000
ISO
1002
{
1002
}
1000
GenDwgUScale
1070
     2
1040
1.0
1002
{
1002
}
1000
GenInch
1070
     4
1000
M
1002
{
1002
}
1000
GenPlotScale
1070
     4
1000
1:5
1002
{
1002
}
1000
Revisi
1070
     4
1000
0
1002
{
1002
}
1000
Version
1070
    -5
1000
14.01/Apr  1 1998
1002
{
1002
}
1000
Platform
1070
    -5
1000
WINNT
1002
{
1002
}
1002
}
1000
DwgVar
1070
     0
1002
{
1000
M
1070
     0
1002
{
1002
}
1000
I
1070
     0
1002
{
1002
}
1002
}
1000
Hatch
1070
     0
1002
{
1000
GenHtcFlag
1070
     3
1070
     0
1002
{
1002
}
1002
}
1000
Info_Pos
1070
     0
1002
{
1000
>
1002
}
1000
Layer
1070
     6
1002
{
1000
Defs
1070
     0
1002
{
1000
>
1002
}
1000
EntSort
1070
     0
1002
{
1000
>
1002
}
1000
Match
1070
     0
1002
{
1002
}
1000
Settings
1070
     0
1002
{
1000
FocGrNC
1070
     3
1070
     0
1002
{
1002
}
1000
FocGrLo
1070
     3
1070
     0
1002
{
1002
}
1000
FocLoNC
1070
     3
1070
     0
1002
{
1002
}
1000
FocusCol
1070
     1
1070
   253
1002
{
1002
}
1000
GenStdLG
1070
     4
1000

1002
{
1002
}
1000
LayMatch
1070
     3
1070
     0
1002
{
1002
}
1000
LgOff
1070
     3
1070
     0
1002
{
1002
}
1000
CurLG
1070
    -5
1000

1002
{
1002
}
1002
}
1002
}
1000
LType
1070
     0
1002
{
1000
GEN3
1070
     7
1000
genius.lin
1002
{
1002
}
1000
GEN7
1070
     7
1000
genius.lin
1002
{
1002
}
1000
GEN4A
1070
     7
1000
genius.lin
1002
{
1002
}
1000
GEN3A
1070
     7
1000
genius.lin
1002
{
1002
}
1000
GEN7A
1070
     7
1000
genius.lin
1002
{
1002
}
1000
GENZIGZAG
1070
     7
1000
genius.lin
1002
{
1002
}
1002
}
1000
Objecter
1070
     0
1002
{
1000
CreateGroups
1070
     3
1070
     0
1002
{
1002
}
1000
LaySwitch
1070
     3
1070
     1
1002
{
1002
}
1000
LastObj
1070
    -5
1000
169D
1002
{
1002
}
1000
TimeStamp
1070
    -5
1000
20020606.07190142
1002
{
1002
}
1002
}
1000
OSWiz
1070
     0
1002
{
1000
Filter
1070
     0
1002
{
1000
HATCH
1070
     8
1002
{
1000
EntityType
1070
     4
1000
LINE
1002
{
1002
}
1000
Layer
1070
     4
1000
8,8N,*-8,*-8N
1002
{
1002
}
1000
Linetype
1070
     4
1000
*
1002
{
1002
}
1000
Color
1070
     4
1000
*
1002
{
1002
}
1000
ApplyInDims
1070
     3
1070
     1
1002
{
1002
}
1002
}
1000
SYMBOLS
1070
     8
1002
{
1000
EntityType
1070
     4
1000
*
1002
{
1002
}
1000
Layer
1070
     4
1000
[5-6],[5-6]N,*-[5-6],*-[5-6]N
1002
{
1002
}
1000
Linetype
1070
     4
1000
*
1002
{
1002
}
1000
Color
1070
     4
1000
*
1002
{
1002
}
1000
ApplyInDims
1070
     3
1070
     1
1002
{
1002
}
1002
}
1000
FEM
1070
     8
1002
{
1000
EntityType
1070
     4
1000
*
1002
{
1002
}
1000
Layer
1070
     4
1000
4A,4AN,*-4A,*-4AN
1002
{
1002
}
1000
Linetype
1070
     4
1000
*
1002
{
1002
}
1000
Color
1070
     4
1000
*
1002
{
1002
}
1000
ApplyInDims
1070
     3
1070
     1
1002
{
1002
}
1002
}
1002
}
1002
}
1000
PaList
1070
     0
1002
{
1000
AutoUpdatePartList
1070
     1
1070
     0
1002
{
1002
}
1000
ReadInfoPoint
1070
     3
1070
     0
1002
{
1002
}
1000
ReadPosNr
1070
     3
1070
     1
1002
{
1002
}
1000
RevStr
1070
     4
1000
0
1002
{
1002
}
1002
}
1000
Paper
1070
     0
1002
{
1002
}
1000
PartDB
1070
     0
1002
{
1000
GenDbOwner
1070
     4
1000

1002
{
1002
}
1002
}
1000
System
1070
     0
1002
{
1000
Menu
1070
     4
1000
GEV
1002
{
1002
}
1002
}
1000
Title
1070
     0
1002
{
1000
MakeView
1070
     1
1070
     2
1002
{
1002
}
1002
}
1000
Tools
1070
     0
1002
{
1000
Trans
1070
     0
1002
{
1000
Drawingtranslation
1070
    -4
1070
     1
1002
{
1002
}
1000
upreserve
1070
     3
1070
     0
1002
{
1002
}
1000
originally_on
1070
    -4
1070
     0
1002
{
1002
}
1000
sourcelang
1070
    -5
1000
D
1002
{
1002
}
1002
}
1002
}
  0
APPID
  5
1642
330
15FA
100
AcDbSymbolTableRecord
100
AcDbRegAppTableRecord
  2
GENIUS_GEVCFG0_13
 70
     0
1001
GENIUS_GENCFG_13
1071
1023340746
1000
1642
1000
GEV
1070
     1
1000
GenCfgObject
1000
VED
1070
     0
1002
{
1002
}
  0
APPID
  5
166D
330
15FA
100
AcDbSymbolTableRecord
100
AcDbRegAppTableRecord
  2
GEV_VCCNULL_SWITCH_OFF
 70
     0
  0
APPID
  5
166E
330
15FA
100
AcDbSymbolTableRecord
100
AcDbRegAppTableRecord
  2
GENIUS_GENDTOL_13
 70
     0
  0
APPID
  5
166F
330
15FA
100
AcDbSymbolTableRecord
100
AcDbRegAppTableRecord
  2
GENIUS_GENBLLY_14
 70
     0
  0
APPID
  5
1670
330
15FA
100
AcDbSymbolTableRecord
100
AcDbRegAppTableRecord
  2
GENIUS_GENODEF_13
 70
     0
  0
APPID
  5
1671
330
15FA
100
AcDbSymbolTableRecord
100
AcDbRegAppTableRecord
  2
GENIUS_GENOBJ-N-CRS_13
 70
     0
  0
APPID
  5
1672
330
15FA
100
AcDbSymbolTableRecord
100
AcDbRegAppTableRecord
  2
GENIUS_GENOREF_13
 70
     0
  0
APPID
  5
1673
330
15FA
100
AcDbSymbolTableRecord
100
AcDbRegAppTableRecord
  2
GENIUS_GENOLIS_13
 70
     0
  0
APPID
  5
1674
330
15FA
100
AcDbSymbolTableRecord
100
AcDbRegAppTableRecord
  2
GENIUS_GEFCFG0_13
 70
     0
  0
APPID
  5
1675
330
15FA
100
AcDbSymbolTableRecord
100
AcDbRegAppTableRecord
  2
GENIUS_VERSION2
 70
     0
  0
APPID
  5
1676
330
15FA
100
AcDbSymbolTableRecord
100
AcDbRegAppTableRecord
  2
GENIUS_GENREC_14
 70
     0
  0
APPID
  5
1677
330
15FA
100
AcDbSymbolTableRecord
100
AcDbRegAppTableRecord
  2
GENIUS_GENOBJ-N-REC_13
 70
     0
  0
APPID
  5
1678
330
15FA
100
AcDbSymbolTableRecord
100
AcDbRegAppTableRecord
  2
GENIUS_GENOBJ-N-TIT_13
 70
     0
  0
APPID
  5
1679
330
15FA
100
AcDbSymbolTableRecord
100
AcDbRegAppTableRecord
  2
GENIUS_GENTITLE_13
 70
     0
  0
APPID
  5
167A
330
15FA
100
AcDbSymbolTableRecord
100
AcDbRegAppTableRecord
  2
GENIUS_GENZVEED_13
 70
     0
  0
APPID
  5
167B
330
15FA
100
AcDbSymbolTableRecord
100
AcDbRegAppTableRecord
  2
GENIUS_GENOBJ-N-SDF_13
 70
     0
  0
APPID
  5
167C
330
15FA
100
AcDbSymbolTableRecord
100
AcDbRegAppTableRecord
  2
GENIUS_GENSCREG_13
 70
     0
  0
APPID
  5
167D
330
15FA
100
AcDbSymbolTableRecord
100
AcDbRegAppTableRecord
  2
GENIUS_GENBLKED_14
 70
     0
  0
APPID
  5
1743
330
15FA
100
AcDbSymbolTableRecord
100
AcDbRegAppTableRecord
  2
GENIUS_GENOBJ-N-HTC_13
 70
     0
  0
APPID
  5
1744
330
15FA
100
AcDbSymbolTableRecord
100
AcDbRegAppTableRecord
  2
GENIUS_GENHATCH_13
 70
     0
  0
APPID
  5
1BA5
330
15FA
100
AcDbSymbolTableRecord
100
AcDbRegAppTableRecord
  2
MCAD_NO_VIS
 70
     0
  0
APPID
  5
1BA6
330
15FA
100
AcDbSymbolTableRecord
100
AcDbRegAppTableRecord
  2
ACAD_TEMP_GRAPHIC
 70
     0
  0
APPID
  5
1BD6
330
15FA
100
AcDbSymbolTableRecord
100
AcDbRegAppTableRecord
  2
AD_DRAW
 70
     0
  0
APPID
  5
1BD9
330
15FA
100
AcDbSymbolTableRecord
100
AcDbRegAppTableRecord
  2
ACATTRIBSERVICES
 70
     0
  0
APPID
  5
1BF9
330
15FA
100
AcDbSymbolTableRecord
100
AcDbRegAppTableRecord
  2
DESIGNERASSEMBLIES
 70
     0
  0
APPID
  5
1BFF
330
15FA
100
AcDbSymbolTableRecord
100
AcDbRegAppTableRecord
  2
ACADM_DIM_EDIT
 70
     0
  0
APPID
  5
1C00
330
15FA
100
AcDbSymbolTableRecord
100
AcDbRegAppTableRecord
  2
AMDT_DM_ADJ
 70
     0
  0
APPID
  5
1C32
330
15FA
100
AcDbSymbolTableRecord
100
AcDbRegAppTableRecord
  2
ACAD_DSTYLE_DIMARC_LENGTH_SYMBOL
 70
     0
  0
APPID
  5
1C33
330
15FA
100
AcDbSymbolTableRecord
100
AcDbRegAppTableRecord
  2
ACAD_DSTYLE_DIMJOGGED_JOGANGLE_SYMBOL
 70
     0
  0
APPID
  5
1C69
330
15FA
100
AcDbSymbolTableRecord
100
AcDbRegAppTableRecord
  2
AcAecLayerStandard
 70
     0
  0
ENDTAB
  0
TABLE
  2
DIMSTYLE
  5
15FB
330
0
100
AcDbSymbolTable
 70
     8
100
AcDbDimStyleTable
 71
     0
  0
DIMSTYLE
105
1622
102
{ACAD_REACTORS
330
159A
330
15A3
330
15AD
330
15B7
330
15C1
330
15CC
102
}
330
15FB
100
AcDbSymbolTableRecord
100
AcDbDimStyleTableRecord
  2
GEN-ISO
 70
     0
  4
"
 40
5.0
 41
2.5
 42
1.0
 43
7.0
 44
1.0
 47
0.1
 48
0.1
 73
     0
 74
     0
 77
     1
 78
     8
140
3.5
141
0.0
143
0.03937
146
0.71
147
0.6
172
     1
176
   256
177
   256
178
     2
271
     2
272
     3
274
     4
283
     0
340
1600
  0
DIMSTYLE
105
1C31
330
15FB
100
AcDbSymbolTableRecord
100
AcDbDimStyleTableRecord
  2
AM_DIN
 70
     0
  4
"
 41
2.5
 42
1.0
 43
10.0
 44
1.0
 47
0.1
 48
0.1
 73
     0
 74
     0
 77
     1
 78
     8
 79
     2
140
3.5
141
0.0
143
0.0393701
146
0.71
147
1.5
172
     1
176
   256
177
   256
178
     2
271
     2
272
     3
274
     4
283
     0
284
     8
340
1600
371
    -1
372
    -1
1001
ACAD_DSTYLE_DIMARC_LENGTH_SYMBOL
1070
   379
1070
     0
1001
ACAD_DSTYLE_DIMJOGGED_JOGANGLE_SYMBOL
1070
   384
1040
1.570796326794896
  0
DIMSTYLE
105
1C42
330
15FB
100
AcDbSymbolTableRecord
100
AcDbDimStyleTableRecord
  2
AM_DIN$3
 70
     0
  4
"
 41
2.5
 42
1.0
 43
10.0
 44
1.0
 47
0.1
 48
0.1
 73
     0
 77
     1
 78
     8
 79
     2
140
3.5
141
0.0
143
0.0393701
146
0.71
147
1.5
176
   256
177
   256
178
     2
271
     2
272
     3
274
     4
283
     0
284
     8
288
     1
289
     0
340
1600
371
    -1
372
    -1
1001
ACAD_DSTYLE_DIMARC_LENGTH_SYMBOL
1070
   379
1070
     0
1001
ACAD_DSTYLE_DIMJOGGED_JOGANGLE_SYMBOL
1070
   384
1040
1.570796326794896
  0
DIMSTYLE
105
1C47
330
15FB
100
AcDbSymbolTableRecord
100
AcDbDimStyleTableRecord
  2
AM_DIN$4
 70
     0
  4
"
 41
2.5
 42
1.0
 43
10.0
 44
1.0
 47
0.1
 48
0.1
 73
     0
 77
     1
 78
     8
 79
     2
140
3.5
141
0.0
143
0.0393701
146
0.71
147
1.5
176
   256
177
   256
178
     2
271
     2
272
     3
274
     4
283
     0
284
     8
288
     1
289
     0
340
1600
371
    -1
372
    -1
1001
ACAD_DSTYLE_DIMARC_LENGTH_SYMBOL
1070
   379
1070
     0
1001
ACAD_DSTYLE_DIMJOGGED_JOGANGLE_SYMBOL
1070
   384
1040
1.570796326794896
  0
DIMSTYLE
105
1C4C
330
15FB
100
AcDbSymbolTableRecord
100
AcDbDimStyleTableRecord
  2
AM_DIN$6
 70
     0
  4
"
 41
2.5
 42
1.0
 43
10.0
 44
1.0
 47
0.1
 48
0.1
 73
     0
 74
     0
 78
     8
 79
     2
140
3.5
141
0.0
143
0.0393701
146
0.71
147
1.5
172
     1
176
   256
177
   256
178
     2
271
     2
272
     3
274
     4
283
     0
284
     8
340
1600
371
    -1
372
    -1
1001
ACAD_DSTYLE_DIMARC_LENGTH_SYMBOL
1070
   379
1070
     0
1001
ACAD_DSTYLE_DIMJOGGED_JOGANGLE_SYMBOL
1070
   384
1040
1.570796326794896
  0
DIMSTYLE
105
1C51
330
15FB
100
AcDbSymbolTableRecord
100
AcDbDimStyleTableRecord
  2
AM_DIN$7
 70
     0
  4
"
 41
2.5
 42
1.0
 43
10.0
 44
1.0
 47
0.1
 48
0.1
 73
     0
 74
     0
 77
     1
 78
     8
 79
     2
140
5.0
141
0.0
143
0.0393701
146
0.71
147
1.5
172
     1
176
   256
177
   256
178
     2
271
     2
272
     3
274
     4
283
     0
284
     8
340
1600
371
    -1
372
    -1
1001
ACAD_DSTYLE_DIMARC_LENGTH_SYMBOL
1070
   379
1070
     0
1001
ACAD_DSTYLE_DIMJOGGED_JOGANGLE_SYMBOL
1070
   384
1040
1.570796326794896
  0
DIMSTYLE
105
1C56
330
15FB
100
AcDbSymbolTableRecord
100
AcDbDimStyleTableRecord
  2
AM_DIN$SF
 70
     0
  4
"
 41
2.5
 42
1.0
 43
10.0
 44
1.0
 47
0.1
 48
0.1
 73
     0
 74
     0
 75
     1
 76
     1
 77
     1
 78
     8
 79
     2
140
3.5
141
0.0
143
0.0393701
146
0.71
147
1.5
172
     1
176
   256
177
   256
178
     2
271
     2
272
     3
274
     4
283
     0
284
     8
340
1600
371
    -1
372
    -1
1001
ACAD_DSTYLE_DIMARC_LENGTH_SYMBOL
1070
   379
1070
     0
1001
ACAD_DSTYLE_DIMJOGGED_JOGANGLE_SYMBOL
1070
   384
1040
1.570796326794896
  0
DIMSTYLE
105
1C5F
330
15FB
100
AcDbSymbolTableRecord
100
AcDbDimStyleTableRecord
  2
AM_DIN$SH
 70
     0
  4
"
 41
2.5
 42
1.0
 43
10.0
 44
1.0
 47
0.1
 48
0.1
 73
     0
 74
     0
 75
     1
 76
     1
 77
     1
 78
     8
 79
     2
140
3.5
141
0.0
143
0.0393701
144
2.0
146
0.71
147
1.5
172
     1
173
     1
176
   256
177
   256
178
     2
271
     2
272
     3
274
     4
283
     0
284
     8
340
1600
343
1C57
371
    -1
372
    -1
1001
ACAD_DSTYLE_DIMARC_LENGTH_SYMBOL
1070
   379
1070
     0
1001
ACAD_DSTYLE_DIMJOGGED_JOGANGLE_SYMBOL
1070
   384
1040
1.570796326794896
  0
ENDTAB
  0
TABLE
  2
BLOCK_RECORD
  5
15F2
330
0
100
AcDbSymbolTable
 70
    13
  0
BLOCK_RECORD
  5
1609
330
15F2
100
AcDbSymbolTableRecord
100
AcDbBlockTableRecord
  2
*MODEL_SPACE
340
1B9D
  0
BLOCK_RECORD
  5
1606
330
15F2
100
AcDbSymbolTableRecord
100
AcDbBlockTableRecord
  2
*PAPER_SPACE
340
1B9E
  0
BLOCK_RECORD
  5
1624
330
15F2
100
AcDbSymbolTableRecord
100
AcDbBlockTableRecord
  2
*X0
340
0
102
{BLKREFS
331
10C6
102
}
  0
BLOCK_RECORD
  5
1625
330
15F2
100
AcDbSymbolTableRecord
100
AcDbBlockTableRecord
  2
*X1
340
0
102
{BLKREFS
331
10EE
102
}
  0
BLOCK_RECORD
  5
1626
330
15F2
100
AcDbSymbolTableRecord
100
AcDbBlockTableRecord
  2
*X2
340
0
102
{BLKREFS
331
111F
102
}
  0
BLOCK_RECORD
  5
1644
330
15F2
100
AcDbSymbolTableRecord
100
AcDbBlockTableRecord
  2
KATALOG_LEER
340
0
102
{BLKREFS
331
167F
331
169C
102
}
  0
BLOCK_RECORD
  5
167E
330
15F2
100
AcDbSymbolTableRecord
100
AcDbBlockTableRecord
  2
KATALOG
340
0
  0
BLOCK_RECORD
  5
169E
330
15F2
100
AcDbSymbolTableRecord
100
AcDbBlockTableRecord
  2
*D5
340
0
  0
BLOCK_RECORD
  5
16AA
330
15F2
100
AcDbSymbolTableRecord
100
AcDbBlockTableRecord
  2
*D6
340
0
  0
BLOCK_RECORD
  5
16C5
330
15F2
100
AcDbSymbolTableRecord
100
AcDbBlockTableRecord
  2
*D7
340
0
  0
BLOCK_RECORD
  5
16DC
330
15F2
100
AcDbSymbolTableRecord
100
AcDbBlockTableRecord
  2
*D8
340
0
  0
BLOCK_RECORD
  5
16F7
330
15F2
100
AcDbSymbolTableRecord
100
AcDbBlockTableRecord
  2
*D9
340
0
  0
BLOCK_RECORD
  5
170E
330
15F2
100
AcDbSymbolTableRecord
100
AcDbBlockTableRecord
  2
*D10
340
0
  0
BLOCK_RECORD
  5
1C57
330
15F2
100
AcDbSymbolTableRecord
100
AcDbBlockTableRecord
  2
GENAXEH
340
0
  0
ENDTAB
  0
ENDSEC
  0
SECTION
  2
BLOCKS
  0
BLOCK
  5
160A
330
1609
100
AcDbEntity
  8
0
100
AcDbBlockBegin
  2
*MODEL_SPACE
 70
     0
 10
0.0
 20
0.0
 30
0.0
  3
*MODEL_SPACE
  1

  0
ENDBLK
  5
160B
330
1609
100
AcDbEntity
  8
0
100
AcDbBlockEnd
  0
BLOCK
  5
1607
330
1606
100
AcDbEntity
 67
     1
  8
0
100
AcDbBlockBegin
  2
*PAPER_SPACE
 70
     0
 10
0.0
 20
0.0
 30
0.0
  3
*PAPER_SPACE
  1

  0
ENDBLK
  5
1608
330
1606
100
AcDbEntity
 67
     1
  8
0
100
AcDbBlockEnd
  0
BLOCK
  5
10C1
330
1624
100
AcDbEntity
  8
0
100
AcDbBlockBegin
  2
*X0
 70
     1
 10
0.0
 20
0.0
 30
0.0
  3
*X0
  1

  0
LINE
  5
10C2
330
1624
100
AcDbEntity
  8
8
100
AcDbLine
 10
134.289
 20
631.878
 30
0.0
 11
141.922
 21
639.5109999999999
 31
0.0
  0
LINE
  5
10C3
330
1624
100
AcDbEntity
  8
8
100
AcDbLine
 10
132.235
 20
634.315
 30
0.0
 11
139.467
 21
641.5459999999999
 31
0.0
  0
LINE
  5
10C4
330
1624
100
AcDbEntity
  8
8
100
AcDbLine
 10
132.41
 20
638.98
 30
0.0
 11
134.796
 21
641.365
 31
0.0
  0
ENDBLK
  5
10C5
330
1624
100
AcDbEntity
  8
0
100
AcDbBlockEnd
  0
BLOCK
  5
10E9
330
1625
100
AcDbEntity
  8
0
100
AcDbBlockBegin
  2
*X1
 70
     1
 10
0.0
 20
0.0
 30
0.0
  3
*X1
  1

  0
LINE
  5
10EA
330
1625
100
AcDbEntity
  8
8
100
AcDbLine
 10
131.824
 20
636.839
 30
0.0
 11
137.638
 21
631.0249999999999
 31
0.0
  0
LINE
  5
10EB
330
1625
100
AcDbEntity
  8
8
100
AcDbLine
 10
133.097
 20
640.056
 30
0.0
 11
140.855
 21
632.298
 31
0.0
  0
LINE
  5
10EC
330
1625
100
AcDbEntity
  8
8
100
AcDbLine
 10
135.845
 20
641.798
 30
0.0
 11
142.635
 21
635.008
 31
0.0
  0
ENDBLK
  5
10ED
330
1625
100
AcDbEntity
  8
0
100
AcDbBlockEnd
  0
BLOCK
  5
1117
330
1626
100
AcDbEntity
  8
0
100
AcDbBlockBegin
  2
*X2
 70
     1
 10
0.0
 20
0.0
 30
0.0
  3
*X2
  1

  0
LINE
  5
1118
330
1626
100
AcDbEntity
  8
8
100
AcDbLine
 10
297.969
 20
631.364
 30
0.0
 11
305.032
 21
638.427
 31
0.0
  0
LINE
  5
1119
330
1626
100
AcDbEntity
  8
8
100
AcDbLine
 10
295.424
 20
633.3099999999999
 30
0.0
 11
303.086
 21
640.972
 31
0.0
  0
LINE
  5
111A
330
1626
100
AcDbEntity
  8
8
100
AcDbLine
 10
294.41
 20
636.7859999999999
 30
0.0
 11
299.611
 21
641.9859999999999
 31
0.0
  0
LINE
  5
111B
330
1626
100
AcDbEntity
  8
8
100
AcDbLine
 10
305.345
 20
635.884
 30
0.0
 11
299.28
 21
641.949
 31
0.0
  0
LINE
  5
111C
330
1626
100
AcDbEntity
  8
8
100
AcDbLine
 10
303.959
 20
632.779
 30
0.0
 11
296.19
 21
640.549
 31
0.0
  0
LINE
  5
111D
330
1626
100
AcDbEntity
  8
8
100
AcDbLine
 10
301.128
 20
631.12
 30
0.0
 11
294.517
 21
637.731
 31
0.0
  0
ENDBLK
  5
111E
330
1626
100
AcDbEntity
  8
0
100
AcDbBlockEnd
  0
BLOCK
  5
1645
330
1644
100
AcDbEntity
  8
0
100
AcDbBlockBegin
  2
KATALOG_LEER
 70
     0
 10
0.0
 20
0.0
 30
0.0
  3
KATALOG_LEER
  1

  0
ENDBLK
  5
1646
330
1644
100
AcDbEntity
  8
0
100
AcDbBlockEnd
  0
BLOCK
  5
1690
330
167E
100
AcDbEntity
  8
0
100
AcDbBlockBegin
  2
KATALOG
 70
     0
 10
0.0
 20
0.0
 30
0.0
  3
KATALOG
  1

  0
INSERT
  5
167F
330
167E
100
AcDbEntity
  8
0
100
AcDbBlockReference
  2
KATALOG_LEER
 10
205.0
 20
5.0
 30
0.0
1001
GENIUS_GENOREF_13
1005
1680
  0
POINT
  5
1680
330
167E
100
AcDbEntity
  8
0
 60
     1
100
AcDbPoint
 10
0.0
 20
0.0
 30
0.0
1001
GENIUS_GENOBJ-N-TIT_13
1002
{
1000
OWNER
1000
GEN
1002
}
1001
GENIUS_GENOENT_13
1002
{
1000
MYREF
1005
1680
1002
}
1002
{
1000
GRP
1005
0
1002
}
1001
GENIUS_GENOLIS_13
1002
{
1000
ENT
1005
167F
1005
0
1002
}
1001
GENIUS_GENTITLE_13
1002
{
1000
SCALE
1000
1:1
1002
}
1002
{
1000
BORDER
1000
KATALOG
1002
}
1002
{
1000
TITLE
1000
KATALOG_LEER
1002
}
1002
{
1000
UNCHG
1002
{
1000
GEN-TITLE-SCA
1000
GEN-TITLE-SIZ
1002
}
1002
}
1002
{
1000
HRA
1005
0
1002
}
1002
{
1000
HTIT
1005
167F
1002
}
1002
{
1000
GENIUSID
1005
1680
1002
}
1001
GENIUS_GENODEF_13
1002
{
1000
HIER
1070
     1
1002
}
1002
{
1000
MANEDIT
1070
     0
1002
}
1002
{
1000
NOSEL
1070
     0
1002
}
1002
{
1000
BEHIND
1070
     0
1002
}
1002
{
1000
REACTOR
1002
}
  0
TEXT
  5
1681
330
167E
100
AcDbEntity
  8
RAHM3
 60
     1
100
AcDbText
 10
29.391383
 20
162.283165
 30
0.0
 40
3.5
  1
!GENTITLE-MAX
100
AcDbText
  0
TEXT
  5
1682
330
167E
100
AcDbEntity
  8
RAHM3
 60
     1
100
AcDbText
 10
30.988432
 20
153.503279
 30
0.0
 40
3.5
  1
!GENTITLE-RU
100
AcDbText
  0
TEXT
  5
1683
330
167E
100
AcDbEntity
  8
RAHM3
 60
     1
100
AcDbText
 10
-85.995418
 20
56.924537
 30
0.0
 40
3.5
  1
!GENTITLE-LL
100
AcDbText
  0
TEXT
  5
1684
330
167E
100
AcDbEntity
  8
RAHM3
 60
     1
100
AcDbText
 10
50.36794099999999
 20
2.260896999999999
 30
0.0
 40
3.5
  1
!GENTITLE-INSERT
100
AcDbText
  0
LINE
  5
1685
330
167E
100
AcDbEntity
  8
RAHM2
100
AcDbLine
 10
0.0
 20
0.0
 30
0.0
 11
148.5
 21
0.0
 31
0.0
  0
LINE
  5
1686
330
167E
100
AcDbEntity
  8
RAHM2
100
AcDbLine
 10
148.5
 20
210.0
 30
0.0
 11
0.0
 21
210.0
 31
0.0
  0
LINE
  5
1687
330
167E
100
AcDbEntity
  8
RAHM2
100
AcDbLine
 10
0.0
 20
210.0
 30
0.0
 11
0.0
 21
0.0
 31
0.0
  0
TEXT
  5
1688
330
167E
100
AcDbEntity
  8
RAHM3
 60
     1
100
AcDbText
 10
184.023441
 20
165.022268
 30
0.0
 40
3.5
  1
!GENTITLE-MAX
100
AcDbText
  0
TEXT
  5
1689
330
167E
100
AcDbEntity
  8
RAHM3
 60
     1
100
AcDbText
 10
185.620491
 20
156.242382
 30
0.0
 40
3.5
  1
!GENTITLE-RU
100
AcDbText
  0
TEXT
  5
168A
330
167E
100
AcDbEntity
  8
RAHM3
 60
     1
100
AcDbText
 10
68.636641
 20
59.663641
 30
0.0
 40
3.5
  1
!GENTITLE-LL
100
AcDbText
  0
TEXT
  5
168B
330
167E
100
AcDbEntity
  8
RAHM3
 60
     1
100
AcDbText
 10
205.0
 20
5.0
 30
0.0
 40
3.5
  1
!GENTITLE-INSERT
100
AcDbText
  0
LINE
  5
168C
330
167E
100
AcDbEntity
  8
RAHM2
100
AcDbLine
 10
148.5
 20
0.0
 30
0.0
 11
148.5
 21
210.0
 31
0.0
  0
LINE
  5
168D
330
167E
100
AcDbEntity
  8
RAHM2
100
AcDbLine
 10
210.0
 20
148.5
 30
0.0
 11
0.0
 21
148.5
 31
0.0
  0
LINE
  5
168E
330
167E
100
AcDbEntity
  8
RAHM2
100
AcDbLine
 10
210.0
 20
0.0
 30
0.0
 11
210.0
 21
148.5
 31
0.0
  0
LINE
  5
168F
330
167E
100
AcDbEntity
  8
RAHM2
100
AcDbLine
 10
0.0
 20
0.0
 30
0.0
 11
210.0
 21
0.0
 31
0.0
  0
ENDBLK
  5
1691
330
167E
100
AcDbEntity
  8
0
100
AcDbBlockEnd
  0
BLOCK
  5
1B77
330
169E
100
AcDbEntity
  8
0
100
AcDbBlockBegin
  2
*D5
 70
     1
 10
0.0
 20
0.0
 30
0.0
  3
*D5
  1

  0
LINE
  5
1B78
330
169E
100
AcDbEntity
  8
0
  6
ByBlock
100
AcDbLine
 10
344.834059
 20
404.0098669999999
 30
0.0
 11
133.083444
 21
404.0098669999999
 31
0.0
  0
LINE
  5
1B79
330
169E
100
AcDbEntity
  8
0
  6
ByBlock
100
AcDbLine
 10
313.834059
 20
579.0098669999999
 30
0.0
 11
133.083444
 21
579.0098669999999
 31
0.0
  0
LINE
  5
1B7A
330
169E
100
AcDbEntity
  8
0
  6
ByBlock
100
AcDbLine
 10
138.083444
 20
416.5098669999999
 30
0.0
 11
138.083444
 21
566.5098669999999
 31
0.0
  0
SOLID
  5
1B7B
330
169E
100
AcDbEntity
  8
0
  6
ByBlock
100
AcDbTrace
 10
136.00011
 20
416.5098669999999
 30
0.0
 11
140.166777
 21
416.5098669999999
 31
0.0
 12
138.083444
 22
404.0098669999999
 32
0.0
 13
138.083444
 23
404.0098669999999
 33
0.0
  0
SOLID
  5
1B7C
330
169E
100
AcDbEntity
  8
0
  6
ByBlock
100
AcDbTrace
 10
136.00011
 20
566.5098669999999
 30
0.0
 11
140.166777
 21
566.5098669999999
 31
0.0
 12
138.083444
 22
579.0098669999999
 32
0.0
 13
138.083444
 23
579.0098669999999
 33
0.0
  0
MTEXT
  5
1B7D
330
169E
100
AcDbEntity
  8
0
  6
ByBlock
 62
     2
100
AcDbMText
 10
126.333444
 20
491.5098669999999
 30
0.0
 40
17.5
 41
0.0
 71
     5
 72
     1
  1
175
 11
0.0
 21
1.0
 31
0.0
 73
     1
 44
1.0
1001
ACAD
1000
MTEXTBEGIN
1070
    73
1070
     1
1070
    44
1040
1.0
1070
    74
1070
     0
1000
MTEXTEND
  0
POINT
  5
1B7E
330
169E
100
AcDbEntity
  8
DEFPOINTS
  6
ByBlock
 62
     0
100
AcDbPoint
 10
349.834059
 20
404.0098669999999
 30
0.0
  0
POINT
  5
1B7F
330
169E
100
AcDbEntity
  8
DEFPOINTS
  6
ByBlock
 62
     0
100
AcDbPoint
 10
318.834059
 20
579.0098669999999
 30
0.0
  0
POINT
  5
1B80
330
169E
100
AcDbEntity
  8
DEFPOINTS
  6
ByBlock
 62
     0
100
AcDbPoint
 10
138.083444
 20
579.0098669999999
 30
0.0
  0
ENDBLK
  5
1B81
330
169E
100
AcDbEntity
  8
0
100
AcDbBlockEnd
  0
BLOCK
  5
1AF8
330
16AA
100
AcDbEntity
  8
0
100
AcDbBlockBegin
  2
*D6
 70
     1
 10
0.0
 20
0.0
 30
0.0
  3
*D6
  1

  0
LINE
  5
1AF9
330
16AA
100
AcDbEntity
  8
0
  6
ByBlock
100
AcDbLine
 10
297.861059
 20
201.018867
 30
0.0
 11
234.334059
 21
201.018867
 31
0.0
  0
LINE
  5
1AFA
330
16AA
100
AcDbEntity
  8
0
  6
ByBlock
100
AcDbLine
 10
297.861059
 20
210.018867
 30
0.0
 11
234.334059
 21
210.018867
 31
0.0
  0
LINE
  5
1AFB
330
16AA
100
AcDbEntity
  8
0
  6
ByBlock
100
AcDbLine
 10
239.334059
 20
188.518867
 30
0.0
 11
239.334059
 21
176.018867
 31
0.0
  0
LINE
  5
1AFC
330
16AA
100
AcDbEntity
  8
0
  6
ByBlock
100
AcDbLine
 10
239.334059
 20
222.518867
 30
0.0
 11
239.334059
 21
249.935476
 31
0.0
  0
LINE
  5
1AFD
330
16AA
100
AcDbEntity
  8
0
  6
ByBlock
100
AcDbLine
 10
239.334059
 20
201.018867
 30
0.0
 11
239.334059
 21
210.018867
 31
0.0
  0
SOLID
  5
1AFE
330
16AA
100
AcDbEntity
  8
0
  6
ByBlock
100
AcDbTrace
 10
237.250725
 20
188.518867
 30
0.0
 11
241.417392
 21
188.518867
 31
0.0
 12
239.334059
 22
201.018867
 32
0.0
 13
239.334059
 23
201.018867
 33
0.0
  0
SOLID
  5
1AFF
330
16AA
100
AcDbEntity
  8
0
  6
ByBlock
100
AcDbTrace
 10
237.250725
 20
222.518867
 30
0.0
 11
241.417392
 21
222.518867
 31
0.0
 12
239.334059
 22
210.018867
 32
0.0
 13
239.334059
 23
210.018867
 33
0.0
  0
MTEXT
  5
1B00
330
16AA
100
AcDbEntity
  8
0
  6
ByBlock
 62
     2
100
AcDbMText
 10
227.584059
 20
242.477171
 30
0.0
 40
17.5
 41
0.0
 71
     5
 72
     1
  1
9
 11
0.0
 21
1.0
 31
0.0
 73
     1
 44
1.0
1001
ACAD
1000
MTEXTBEGIN
1070
    73
1070
     1
1070
    44
1040
1.0
1070
    74
1070
     0
1000
MTEXTEND
  0
POINT
  5
1B01
330
16AA
100
AcDbEntity
  8
DEFPOINTS
  6
ByBlock
 62
     0
100
AcDbPoint
 10
302.861059
 20
201.018867
 30
0.0
  0
POINT
  5
1B02
330
16AA
100
AcDbEntity
  8
DEFPOINTS
  6
ByBlock
 62
     0
100
AcDbPoint
 10
302.861059
 20
210.018867
 30
0.0
  0
POINT
  5
1B03
330
16AA
100
AcDbEntity
  8
DEFPOINTS
  6
ByBlock
 62
     0
100
AcDbPoint
 10
239.334059
 20
210.018867
 30
0.0
  0
ENDBLK
  5
1B04
330
16AA
100
AcDbEntity
  8
0
100
AcDbBlockEnd
  0
BLOCK
  5
1B28
330
16C5
100
AcDbEntity
  8
0
100
AcDbBlockBegin
  2
*D7
 70
     1
 10
0.0
 20
0.0
 30
0.0
  3
*D7
  1

  0
LINE
  5
1B29
330
16C5
100
AcDbEntity
  8
0
  6
ByBlock
100
AcDbLine
 10
287.334059
 20
173.001867
 30
0.0
 11
287.334059
 21
52.018867
 31
0.0
  0
LINE
  5
1B2A
330
16C5
100
AcDbEntity
  8
0
  6
ByBlock
100
AcDbLine
 10
547.334059
 20
173.001867
 30
0.0
 11
547.334059
 21
52.018867
 31
0.0
  0
LINE
  5
1B2B
330
16C5
100
AcDbEntity
  8
0
  6
ByBlock
100
AcDbLine
 10
299.834059
 20
57.01886700000001
 30
0.0
 11
534.834059
 21
57.01886700000001
 31
0.0
  0
SOLID
  5
1B2C
330
16C5
100
AcDbEntity
  8
0
  6
ByBlock
100
AcDbTrace
 10
299.834059
 20
59.1022
 30
0.0
 11
299.834059
 21
54.93553399999999
 31
0.0
 12
287.334059
 22
57.01886700000001
 32
0.0
 13
287.334059
 23
57.01886700000001
 33
0.0
  0
SOLID
  5
1B2D
330
16C5
100
AcDbEntity
  8
0
  6
ByBlock
100
AcDbTrace
 10
534.834059
 20
59.1022
 30
0.0
 11
534.834059
 21
54.93553399999999
 31
0.0
 12
547.334059
 22
57.01886700000001
 32
0.0
 13
547.334059
 23
57.01886700000001
 33
0.0
  0
MTEXT
  5
1B2E
330
16C5
100
AcDbEntity
  8
0
  6
ByBlock
 62
     2
100
AcDbMText
 10
417.3340589999999
 20
68.770589
 30
0.0
 40
17.5
 41
0.0
 71
     5
 72
     1
  1
260
 73
     1
 44
1.0
1001
ACAD
1000
MTEXTBEGIN
1070
    73
1070
     1
1070
    44
1040
1.0
1070
    74
1070
     0
1000
MTEXTEND
  0
POINT
  5
1B2F
330
16C5
100
AcDbEntity
  8
DEFPOINTS
  6
ByBlock
 62
     0
100
AcDbPoint
 10
287.334059
 20
178.001867
 30
0.0
  0
POINT
  5
1B30
330
16C5
100
AcDbEntity
  8
DEFPOINTS
  6
ByBlock
 62
     0
100
AcDbPoint
 10
547.334059
 20
178.001867
 30
0.0
  0
POINT
  5
1B31
330
16C5
100
AcDbEntity
  8
DEFPOINTS
  6
ByBlock
 62
     0
100
AcDbPoint
 10
547.334059
 20
57.01886700000001
 30
0.0
  0
ENDBLK
  5
1B32
330
16C5
100
AcDbEntity
  8
0
100
AcDbBlockEnd
  0
BLOCK
  5
1AAE
330
16DC
100
AcDbEntity
  8
0
100
AcDbBlockBegin
  2
*D8
 70
     1
 10
0.0
 20
0.0
 30
0.0
  3
*D8
  1

  0
LINE
  5
1AAF
330
16DC
100
AcDbEntity
  8
0
  6
ByBlock
100
AcDbLine
 10
336.965059
 20
557.017867
 30
0.0
 11
233.083444
 21
557.017867
 31
0.0
  0
LINE
  5
1AB0
330
16DC
100
AcDbEntity
  8
0
  6
ByBlock
100
AcDbLine
 10
292.668059
 20
579.018867
 30
0.0
 11
233.083444
 21
579.018867
 31
0.0
  0
LINE
  5
1AB1
330
16DC
100
AcDbEntity
  8
0
  6
ByBlock
100
AcDbLine
 10
238.083444
 20
544.517867
 30
0.0
 11
238.083444
 21
532.017867
 31
0.0
  0
LINE
  5
1AB2
330
16DC
100
AcDbEntity
  8
0
  6
ByBlock
100
AcDbLine
 10
238.083444
 20
591.518867
 30
0.0
 11
238.083444
 21
630.7642900000001
 31
0.0
  0
LINE
  5
1AB3
330
16DC
100
AcDbEntity
  8
0
  6
ByBlock
100
AcDbLine
 10
238.083444
 20
557.017867
 30
0.0
 11
238.083444
 21
579.018867
 31
0.0
  0
SOLID
  5
1AB4
330
16DC
100
AcDbEntity
  8
0
  6
ByBlock
100
AcDbTrace
 10
236.00011
 20
544.517867
 30
0.0
 11
240.166777
 21
544.517867
 31
0.0
 12
238.083444
 22
557.017867
 32
0.0
 13
238.083444
 23
557.017867
 33
0.0
  0
SOLID
  5
1AB5
330
16DC
100
AcDbEntity
  8
0
  6
ByBlock
100
AcDbTrace
 10
236.00011
 20
591.518867
 30
0.0
 11
240.166777
 21
591.518867
 31
0.0
 12
238.083444
 22
579.018867
 32
0.0
 13
238.083444
 23
579.018867
 33
0.0
  0
MTEXT
  5
1AB6
330
16DC
100
AcDbEntity
  8
0
  6
ByBlock
 62
     2
100
AcDbMText
 10
226.331721
 20
617.3915779999999
 30
0.0
 40
17.5
 41
0.0
 71
     5
 72
     1
  1
22
 11
0.0
 21
1.0
 31
0.0
 73
     1
 44
1.0
1001
ACAD
1000
MTEXTBEGIN
1070
    73
1070
     1
1070
    44
1040
1.0
1070
    74
1070
     0
1000
MTEXTEND
  0
POINT
  5
1AB7
330
16DC
100
AcDbEntity
  8
DEFPOINTS
  6
ByBlock
 62
     0
100
AcDbPoint
 10
341.965059
 20
557.017867
 30
0.0
  0
POINT
  5
1AB8
330
16DC
100
AcDbEntity
  8
DEFPOINTS
  6
ByBlock
 62
     0
100
AcDbPoint
 10
297.668059
 20
579.018867
 30
0.0
  0
POINT
  5
1AB9
330
16DC
100
AcDbEntity
  8
DEFPOINTS
  6
ByBlock
 62
     0
100
AcDbPoint
 10
238.083444
 20
579.018867
 30
0.0
  0
ENDBLK
  5
1ABA
330
16DC
100
AcDbEntity
  8
0
100
AcDbBlockEnd
  0
BLOCK
  5
1B57
330
16F7
100
AcDbEntity
  8
0
100
AcDbBlockBegin
  2
*D9
 70
     1
 10
0.0
 20
0.0
 30
0.0
  3
*D9
  1
GEVFRAME
  0
LINE
  5
1B58
330
16F7
100
AcDbEntity
  8
0
  6
ByBlock
100
AcDbLine
 10
311.741059
 20
107.018867
 30
0.0
 11
184.334059
 21
107.018867
 31
0.0
  0
LINE
  5
1B59
330
16F7
100
AcDbEntity
  8
0
  6
ByBlock
100
AcDbLine
 10
311.741059
 20
304.018867
 30
0.0
 11
184.334059
 21
304.018867
 31
0.0
  0
LINE
  5
1B5A
330
16F7
100
AcDbEntity
  8
0
  6
ByBlock
100
AcDbLine
 10
189.334059
 20
119.518867
 30
0.0
 11
189.334059
 21
291.518867
 31
0.0
  0
SOLID
  5
1B5B
330
16F7
100
AcDbEntity
  8
0
  6
ByBlock
100
AcDbTrace
 10
187.250725
 20
119.518867
 30
0.0
 11
191.417392
 21
119.518867
 31
0.0
 12
189.334059
 22
107.018867
 32
0.0
 13
189.334059
 23
107.018867
 33
0.0
  0
SOLID
  5
1B5C
330
16F7
100
AcDbEntity
  8
0
  6
ByBlock
100
AcDbTrace
 10
187.250725
 20
291.518867
 30
0.0
 11
191.417392
 21
291.518867
 31
0.0
 12
189.334059
 22
304.018867
 32
0.0
 13
189.334059
 23
304.018867
 33
0.0
  0
MTEXT
  5
1B5D
330
16F7
100
AcDbEntity
  8
0
  6
ByBlock
 62
     2
100
AcDbMText
 10
177.584059
 20
205.518867
 30
0.0
 40
17.5
 41
0.0
 71
     5
 72
     1
  1
{\Fgeniso.shx|c0;\U+25A1}197
 11
0.0
 21
1.0
 31
0.0
 73
     1
 44
1.0
1001
ACAD
1000
MTEXTBEGIN
1070
    73
1070
     1
1070
    44
1040
1.0
1070
    74
1070
     0
1000
MTEXTEND
  0
POINT
  5
1B5E
330
16F7
100
AcDbEntity
  8
DEFPOINTS
  6
ByBlock
 62
     0
100
AcDbPoint
 10
316.741059
 20
107.018867
 30
0.0
  0
POINT
  5
1B5F
330
16F7
100
AcDbEntity
  8
DEFPOINTS
  6
ByBlock
 62
     0
100
AcDbPoint
 10
316.741059
 20
304.018867
 30
0.0
  0
POINT
  5
1B60
330
16F7
100
AcDbEntity
  8
DEFPOINTS
  6
ByBlock
 62
     0
100
AcDbPoint
 10
189.334059
 20
304.018867
 30
0.0
  0
ENDBLK
  5
1B61
330
16F7
100
AcDbEntity
  8
0
100
AcDbBlockEnd
  0
BLOCK
  5
1AC8
330
170E
100
AcDbEntity
  8
0
100
AcDbBlockBegin
  2
*D10
 70
     1
 10
0.0
 20
0.0
 30
0.0
  3
*D10
  1

  0
LINE
  5
1AC9
330
170E
100
AcDbEntity
  8
0
  6
ByBlock
100
AcDbLine
 10
282.334059
 20
529.016867
 30
0.0
 11
183.083444
 21
529.016867
 31
0.0
  0
LINE
  5
1ACA
330
170E
100
AcDbEntity
  8
0
  6
ByBlock
100
AcDbLine
 10
258.824059
 20
579.016867
 30
0.0
 11
183.083444
 21
579.016867
 31
0.0
  0
LINE
  5
1ACB
330
170E
100
AcDbEntity
  8
0
  6
ByBlock
100
AcDbLine
 10
188.083444
 20
541.516867
 30
0.0
 11
188.083444
 21
566.516867
 31
0.0
  0
SOLID
  5
1ACC
330
170E
100
AcDbEntity
  8
0
  6
ByBlock
100
AcDbTrace
 10
186.00011
 20
541.516867
 30
0.0
 11
190.166777
 21
541.516867
 31
0.0
 12
188.083444
 22
529.016867
 32
0.0
 13
188.083444
 23
529.016867
 33
0.0
  0
SOLID
  5
1ACD
330
170E
100
AcDbEntity
  8
0
  6
ByBlock
100
AcDbTrace
 10
186.00011
 20
566.516867
 30
0.0
 11
190.166777
 21
566.516867
 31
0.0
 12
188.083444
 22
579.016867
 32
0.0
 13
188.083444
 23
579.016867
 33
0.0
  0
MTEXT
  5
1ACE
330
170E
100
AcDbEntity
  8
0
  6
ByBlock
 62
     2
100
AcDbMText
 10
176.333444
 20
554.016867
 30
0.0
 40
17.5
 41
0.0
 71
     5
 72
     1
  1
50
 11
0.0
 21
1.0
 31
0.0
 73
     1
 44
1.0
1001
ACAD
1000
MTEXTBEGIN
1070
    73
1070
     1
1070
    44
1040
1.0
1070
    74
1070
     0
1000
MTEXTEND
  0
POINT
  5
1ACF
330
170E
100
AcDbEntity
  8
DEFPOINTS
  6
ByBlock
 62
     0
100
AcDbPoint
 10
287.334059
 20
529.016867
 30
0.0
  0
POINT
  5
1AD0
330
170E
100
AcDbEntity
  8
DEFPOINTS
  6
ByBlock
 62
     0
100
AcDbPoint
 10
263.824059
 20
579.016867
 30
0.0
  0
POINT
  5
1AD1
330
170E
100
AcDbEntity
  8
DEFPOINTS
  6
ByBlock
 62
     0
100
AcDbPoint
 10
188.083444
 20
579.016867
 30
0.0
  0
ENDBLK
  5
1AD2
330
170E
100
AcDbEntity
  8
0
100
AcDbBlockEnd
  0
BLOCK
  5
1C59
330
1C57
100
AcDbEntity
  8
0
100
AcDbBlockBegin
  2
GENAXEH
 70
     0
 10
0.0
 20
0.0
 30
0.0
  3
GENAXEH
  1

  0
LINE
  5
1C58
330
1C57
100
AcDbEntity
  8
0
100
AcDbLine
 10
-1.0
 20
0.0
 30
0.0
 11
1.0
 21
0.0
 31
0.0
  0
ENDBLK
  5
1C5A
330
1C57
100
AcDbEntity
  8
0
100
AcDbBlockEnd
  0
ENDSEC
  0
SECTION
  2
ENTITIES
  0
POINT
  5
1001
330
1609
100
AcDbEntity
  8
PUNKTE
100
AcDbPoint
 10
302.861059
 20
201.018867
 30
0.0
  0
POINT
  5
1002
330
1609
100
AcDbEntity
  8
PUNKTE
100
AcDbPoint
 10
302.861059
 20
210.018867
 30
0.0
  0
LINE
  5
1003
330
1609
100
AcDbEntity
  8
0
100
AcDbLine
 10
316.741059
 20
539.0738669999999
 30
0.0
 11
318.834059
 21
579.018867
 31
0.0
  0
LINE
  5
1004
330
1609
100
AcDbEntity
  8
0
100
AcDbLine
 10
287.334059
 20
529.018867
 30
0.0
 11
287.857059
 21
539.0048669999999
 31
0.0
  0
LINE
  5
1005
330
1609
100
AcDbEntity
  8
0
100
AcDbLine
 10
316.741059
 20
539.0738669999999
 30
0.0
 11
287.861059
 21
539.0738669999999
 31
0.0
  0
LINE
  5
1006
330
1609
100
AcDbEntity
  8
0
100
AcDbLine
 10
330.543059
 20
538.4228669999999
 30
0.0
 11
329.985059
 21
570.360867
 31
0.0
  0
LINE
  5
1007
330
1609
100
AcDbEntity
  8
0
100
AcDbLine
 10
326.834059
 20
579.018867
 30
0.0
 11
329.985059
 21
570.360867
 31
0.0
  0
ARC
  5
1008
330
1609
100
AcDbEntity
  8
0
100
AcDbCircle
 10
336.042059
 20
538.5188669999999
 30
0.0
 40
5.5
100
AcDbArc
 50
181.0
 51
270.0
  0
LINE
  5
1009
330
1609
100
AcDbEntity
  8
0
100
AcDbLine
 10
484.8340589999999
 20
404.018867
 30
0.0
 11
349.834059
 21
404.018867
 31
0.0
  0
LINE
  5
100A
330
1609
100
AcDbEntity
  8
0
100
AcDbLine
 10
287.334059
 20
529.018867
 30
0.0
 11
322.517059
 21
529.018867
 31
0.0
  0
LINE
  5
100B
330
1609
100
AcDbEntity
  8
0
100
AcDbLine
 10
341.834059
 20
533.018867
 30
0.0
 11
342.442059
 21
498.220867
 31
0.0
  0
LINE
  5
100C
330
1609
100
AcDbEntity
  8
0
100
AcDbLine
 10
333.557059
 20
499.4398669999999
 30
0.0
 11
332.503059
 21
519.541867
 31
0.0
  0
ARC
  5
100D
330
1609
100
AcDbEntity
  8
0
100
AcDbCircle
 10
322.517059
 20
519.018867
 30
0.0
 40
10.0
100
AcDbArc
 50
3.0
 51
90.0
  0
LINE
  5
100E
330
1609
100
AcDbEntity
  8
0
100
AcDbLine
 10
296.111059
 20
539.0728669999999
 30
0.0
 11
298.361059
 21
529.018867
 31
0.0
  0
LINE
  5
100F
330
1609
100
AcDbEntity
  8
0
100
AcDbLine
 10
307.361059
 20
529.018867
 30
0.0
 11
309.611059
 21
539.0728669999999
 31
0.0
  0
CIRCLE
  5
1010
330
1609
100
AcDbEntity
  8
0
100
AcDbCircle
 10
336.042059
 20
538.5188669999999
 30
0.0
 40
5.5
  0
LINE
  5
1011
330
1609
100
AcDbEntity
  8
0
100
AcDbLine
 10
417.3340589999999
 20
539.0188669999999
 30
0.0
 11
341.519059
 21
539.0188669999999
 31
0.0
  0
LINE
  5
1012
330
1609
100
AcDbEntity
  8
0
100
AcDbLine
 10
346.834059
 20
539.0188669999999
 30
0.0
 11
346.903059
 21
540.3328669999999
 31
0.0
  0
LINE
  5
1013
330
1609
100
AcDbEntity
  8
0
100
AcDbLine
 10
334.064059
 20
572.473867
 30
0.0
 11
335.061059
 21
543.9298669999999
 31
0.0
  0
LINE
  5
1014
330
1609
100
AcDbEntity
  8
0
100
AcDbLine
 10
331.509059
 20
574.018867
 30
0.0
 11
332.465059
 21
574.018867
 31
0.0
  0
ARC
  5
1015
330
1609
100
AcDbEntity
  8
0
100
AcDbCircle
 10
332.465059
 20
572.418867
 30
0.0
 40
1.6
100
AcDbArc
 50
2.0
 51
90.0
  0
LINE
  5
1016
330
1609
100
AcDbEntity
  8
0
100
AcDbLine
 10
515.834059
 20
579.018867
 30
0.0
 11
318.834059
 21
579.018867
 31
0.0
  0
LINE
  5
1017
330
1609
100
AcDbEntity
  8
0
100
AcDbLine
 10
517.9270589999999
 20
539.0738669999999
 30
0.0
 11
515.834059
 21
579.018867
 31
0.0
  0
LINE
  5
1018
330
1609
100
AcDbEntity
  8
0
100
AcDbLine
 10
547.334059
 20
529.018867
 30
0.0
 11
546.811059
 21
539.0048669999999
 31
0.0
  0
LINE
  5
1019
330
1609
100
AcDbEntity
  8
0
100
AcDbLine
 10
517.9270589999999
 20
539.0738669999999
 30
0.0
 11
546.8070589999999
 21
539.0738669999999
 31
0.0
  0
LINE
  5
101A
330
1609
100
AcDbEntity
  8
0
100
AcDbLine
 10
504.1250589999999
 20
538.4228669999999
 30
0.0
 11
504.6830589999999
 21
570.360867
 31
0.0
  0
LINE
  5
101B
330
1609
100
AcDbEntity
  8
0
100
AcDbLine
 10
507.8340589999999
 20
579.018867
 30
0.0
 11
504.6830589999999
 21
570.360867
 31
0.0
  0
ARC
  5
101C
330
1609
100
AcDbEntity
  8
0
100
AcDbCircle
 10
498.627059
 20
538.5188669999999
 30
0.0
 40
5.5
100
AcDbArc
 50
270.0
 51
359.0
  0
LINE
  5
101D
330
1609
100
AcDbEntity
  8
0
100
AcDbLine
 10
547.334059
 20
529.018867
 30
0.0
 11
512.151059
 21
529.018867
 31
0.0
  0
LINE
  5
101E
330
1609
100
AcDbEntity
  8
0
100
AcDbLine
 10
492.8340589999999
 20
533.018867
 30
0.0
 11
492.227059
 21
498.220867
 31
0.0
  0
LINE
  5
101F
330
1609
100
AcDbEntity
  8
0
100
AcDbLine
 10
501.1120589999999
 20
499.4408669999999
 30
0.0
 11
502.165059
 21
519.541867
 31
0.0
  0
ARC
  5
1020
330
1609
100
AcDbEntity
  8
0
100
AcDbCircle
 10
512.151059
 20
519.018867
 30
0.0
 40
10.0
100
AcDbArc
 50
90.0
 51
177.0
  0
LINE
  5
1021
330
1609
100
AcDbEntity
  8
0
100
AcDbLine
 10
538.5570589999999
 20
539.0728669999999
 30
0.0
 11
536.3070589999999
 21
529.018867
 31
0.0
  0
LINE
  5
1022
330
1609
100
AcDbEntity
  8
0
100
AcDbLine
 10
527.3070589999999
 20
529.018867
 30
0.0
 11
525.0570589999999
 21
539.0738669999999
 31
0.0
  0
CIRCLE
  5
1023
330
1609
100
AcDbEntity
  8
0
100
AcDbCircle
 10
498.627059
 20
538.5188669999999
 30
0.0
 40
5.5
  0
LINE
  5
1024
330
1609
100
AcDbEntity
  8
0
100
AcDbLine
 10
502.660059
 20
574.018867
 30
0.0
 11
502.2030589999999
 21
574.018867
 31
0.0
  0
LINE
  5
1025
330
1609
100
AcDbEntity
  8
0
100
AcDbLine
 10
498.6260589999999
 20
533.018867
 30
0.0
 11
336.042059
 21
533.018867
 31
0.0
  0
LINE
  5
1026
330
1609
100
AcDbEntity
  8
0
100
AcDbLine
 10
338.543059
 20
491.3038669999999
 30
0.0
 11
346.834059
 21
486.516867
 31
0.0
  0
LINE
  5
1027
330
1609
100
AcDbEntity
  8
0
100
AcDbLine
 10
487.8340589999999
 20
486.516867
 30
0.0
 11
496.1250589999999
 21
491.3038669999999
 31
0.0
  0
LINE
  5
1028
330
1609
100
AcDbEntity
  8
0
100
AcDbLine
 10
482.8340589999999
 20
490.5578669999999
 30
0.0
 11
490.2270589999999
 21
494.826867
 31
0.0
  0
ARC
  5
1029
330
1609
100
AcDbEntity
  8
0
100
AcDbCircle
 10
491.1250589999999
 20
499.964867
 30
0.0
 40
10.0
100
AcDbArc
 50
300.0
 51
357.0
  0
ARC
  5
102A
330
1609
100
AcDbEntity
  8
0
100
AcDbCircle
 10
343.543059
 20
499.964867
 30
0.0
 40
10.0
100
AcDbArc
 50
183.0
 51
240.0
  0
ARC
  5
102B
330
1609
100
AcDbEntity
  8
0
100
AcDbCircle
 10
346.441059
 20
498.2908669999999
 30
0.0
 40
4.0
100
AcDbArc
 50
181.0
 51
240.0
  0
ARC
  5
102C
330
1609
100
AcDbEntity
  8
0
100
AcDbCircle
 10
488.227059
 20
498.2908669999999
 30
0.0
 40
4.0
100
AcDbArc
 50
300.0
 51
359.0
  0
LINE
  5
102D
330
1609
100
AcDbEntity
  8
0
100
AcDbLine
 10
484.8340589999999
 20
481.3208669999999
 30
0.0
 11
484.8340589999999
 21
404.018867
 31
0.0
  0
LINE
  5
102E
330
1609
100
AcDbEntity
  8
0
100
AcDbLine
 10
349.834059
 20
481.3208669999999
 30
0.0
 11
349.834059
 21
404.018867
 31
0.0
  0
LINE
  5
102F
330
1609
100
AcDbEntity
  8
0
100
AcDbLine
 10
356.834059
 20
481.8978669999999
 30
0.0
 11
356.834059
 21
429.018867
 31
0.0
  0
LINE
  5
1030
330
1609
100
AcDbEntity
  8
0
100
AcDbLine
 10
357.514059
 20
424.018867
 30
0.0
 11
357.514059
 21
404.018867
 31
0.0
  0
LINE
  5
1031
330
1609
100
AcDbEntity
  8
0
100
AcDbLine
 10
356.834059
 20
429.018867
 30
0.0
 11
357.514059
 21
424.018867
 31
0.0
  0
LINE
  5
1032
330
1609
100
AcDbEntity
  8
0
100
AcDbLine
 10
477.8340589999999
 20
481.8978669999999
 30
0.0
 11
477.8340589999999
 21
429.018867
 31
0.0
  0
LINE
  5
1033
330
1609
100
AcDbEntity
  8
0
100
AcDbLine
 10
477.1540589999999
 20
424.018867
 30
0.0
 11
477.1540589999999
 21
404.018867
 31
0.0
  0
LINE
  5
1034
330
1609
100
AcDbEntity
  8
0
100
AcDbLine
 10
477.8340589999999
 20
429.018867
 30
0.0
 11
477.1540589999999
 21
424.018867
 31
0.0
  0
LINE
  5
1035
330
1609
100
AcDbEntity
  8
0
100
AcDbLine
 10
344.441059
 20
494.826867
 30
0.0
 11
351.834059
 21
490.5578669999999
 31
0.0
  0
ARC
  5
1036
330
1609
100
AcDbEntity
  8
0
100
AcDbCircle
 10
343.834059
 20
481.3208669999999
 30
0.0
 40
6.0
100
AcDbArc
 50
0.0
 51
60.0
  0
ARC
  5
1037
330
1609
100
AcDbEntity
  8
0
100
AcDbCircle
 10
490.8340589999999
 20
481.3208669999999
 30
0.0
 40
6.0
100
AcDbArc
 50
120.0
 51
180.0
  0
ARC
  5
1038
330
1609
100
AcDbEntity
  8
0
100
AcDbCircle
 10
487.8340589999999
 20
481.8978669999999
 30
0.0
 40
10.0
100
AcDbArc
 50
120.0
 51
180.0
  0
ARC
  5
1039
330
1609
100
AcDbEntity
  8
0
100
AcDbCircle
 10
346.834059
 20
481.8978669999999
 30
0.0
 40
10.0
100
AcDbArc
 50
0.0
 51
60.0
  0
LINE
  5
103A
330
1609
100
AcDbEntity
  8
0
100
AcDbLine
 10
337.334059
 20
579.018867
 30
0.0
 11
337.968059
 21
560.878867
 31
0.0
  0
LINE
  5
103B
330
1609
100
AcDbEntity
  8
0
100
AcDbLine
 10
331.335059
 20
579.0008669999999
 30
0.0
 11
331.509059
 21
574.0008669999999
 31
0.0
  0
ARC
  5
103C
330
1609
100
AcDbEntity
  8
0
100
AcDbCircle
 10
341.965059
 20
561.018867
 30
0.0
 40
4.0
100
AcDbArc
 50
182.0
 51
270.0
  0
ARC
  5
103D
330
1609
100
AcDbEntity
  8
0
100
AcDbCircle
 10
352.895059
 20
540.018867
 30
0.0
 40
6.0
100
AcDbArc
 50
90.0
 51
177.0
  0
LINE
  5
103E
330
1609
100
AcDbEntity
  8
0
100
AcDbLine
 10
417.3340589999999
 20
539.0188669999999
 30
0.0
 11
493.149059
 21
539.0188669999999
 31
0.0
  0
LINE
  5
103F
330
1609
100
AcDbEntity
  8
0
100
AcDbLine
 10
487.8340589999999
 20
539.0188669999999
 30
0.0
 11
487.765059
 21
540.3328669999999
 31
0.0
  0
LINE
  5
1040
330
1609
100
AcDbEntity
  8
0
100
AcDbLine
 10
500.604059
 20
572.474867
 30
0.0
 11
499.608059
 21
543.930867
 31
0.0
  0
LINE
  5
1041
330
1609
100
AcDbEntity
  8
0
100
AcDbLine
 10
503.159059
 20
574.018867
 30
0.0
 11
502.2030589999999
 21
574.018867
 31
0.0
  0
ARC
  5
1042
330
1609
100
AcDbEntity
  8
0
100
AcDbCircle
 10
502.2030589999999
 20
572.418867
 30
0.0
 40
1.6
100
AcDbArc
 50
90.0
 51
178.0
  0
LINE
  5
1043
330
1609
100
AcDbEntity
  8
0
100
AcDbLine
 10
492.703059
 20
557.018867
 30
0.0
 11
341.965059
 21
557.018867
 31
0.0
  0
LINE
  5
1044
330
1609
100
AcDbEntity
  8
0
100
AcDbLine
 10
497.3340589999999
 20
579.018867
 30
0.0
 11
496.701059
 21
560.878867
 31
0.0
  0
LINE
  5
1045
330
1609
100
AcDbEntity
  8
0
100
AcDbLine
 10
503.333059
 20
579.0008669999999
 30
0.0
 11
503.159059
 21
574.0008669999999
 31
0.0
  0
ARC
  5
1046
330
1609
100
AcDbEntity
  8
0
100
AcDbCircle
 10
492.703059
 20
561.018867
 30
0.0
 40
4.0
100
AcDbArc
 50
270.0
 51
358.0
  0
LINE
  5
1047
330
1609
100
AcDbEntity
  8
0
100
AcDbLine
 10
481.773059
 20
546.0188669999999
 30
0.0
 11
352.895059
 21
546.0188669999999
 31
0.0
  0
ARC
  5
1048
330
1609
100
AcDbEntity
  8
0
100
AcDbCircle
 10
481.7740589999999
 20
540.018867
 30
0.0
 40
6.0
100
AcDbArc
 50
3.0
 51
90.0
  0
LINE
  5
1049
330
1609
100
AcDbEntity
  8
0
100
AcDbLine
 10
287.334059
 20
178.001867
 30
0.0
 11
287.334059
 21
233.034867
 31
0.0
  0
LINE
  5
104A
330
1609
100
AcDbEntity
  8
0
100
AcDbLine
 10
318.834059
 20
109.017867
 30
0.0
 11
318.834059
 21
302.018867
 31
0.0
  0
LINE
  5
104B
330
1609
100
AcDbEntity
  8
0
100
AcDbLine
 10
316.741059
 20
107.018867
 30
0.0
 11
316.741059
 21
304.018867
 31
0.0
  0
LINE
  5
104C
330
1609
100
AcDbEntity
  8
0
100
AcDbLine
 10
517.9280589999999
 20
107.018867
 30
0.0
 11
316.741059
 21
107.018867
 31
0.0
  0
LINE
  5
104D
330
1609
100
AcDbEntity
  8
0
100
AcDbLine
 10
515.834059
 20
109.018867
 30
0.0
 11
318.834059
 21
109.017867
 31
0.0
  0
LINE
  5
104E
330
1609
100
AcDbEntity
  8
0
100
AcDbLine
 10
515.834059
 20
302.018867
 30
0.0
 11
318.834059
 21
302.018867
 31
0.0
  0
LINE
  5
104F
330
1609
100
AcDbEntity
  8
0
100
AcDbLine
 10
517.9280589999999
 20
304.018867
 30
0.0
 11
316.741059
 21
304.018867
 31
0.0
  0
LINE
  5
1051
330
1609
100
AcDbEntity
  8
0
100
AcDbLine
 10
289.334059
 20
178.001867
 30
0.0
 11
289.334059
 21
233.034867
 31
0.0
  0
LINE
  5
1052
330
1609
100
AcDbEntity
  8
0
100
AcDbLine
 10
316.741059
 20
245.518867
 30
0.0
 11
291.781059
 21
238.830867
 31
0.0
  0
LINE
  5
1053
330
1609
100
AcDbEntity
  8
0
100
AcDbLine
 10
316.741059
 20
165.518867
 30
0.0
 11
291.781059
 21
172.206867
 31
0.0
  0
LINE
  5
1054
330
1609
100
AcDbEntity
  8
0
100
AcDbLine
 10
316.741059
 20
243.447867
 30
0.0
 11
292.299059
 21
236.898867
 31
0.0
  0
LINE
  5
1055
330
1609
100
AcDbEntity
  8
0
100
AcDbLine
 10
316.741059
 20
167.588867
 30
0.0
 11
292.299059
 21
174.137867
 31
0.0
  0
ARC
  5
1056
330
1609
100
AcDbEntity
  8
0
100
AcDbCircle
 10
293.334059
 20
233.034867
 30
0.0
 40
6.0
100
AcDbArc
 50
105.0
 51
180.0
  0
ARC
  5
1057
330
1609
100
AcDbEntity
  8
0
100
AcDbCircle
 10
293.334059
 20
178.001867
 30
0.0
 40
6.0
100
AcDbArc
 50
180.0
 51
255.0
  0
ARC
  5
1058
330
1609
100
AcDbEntity
  8
0
100
AcDbCircle
 10
293.334059
 20
233.034867
 30
0.0
 40
4.0
100
AcDbArc
 50
105.0
 51
180.0
  0
ARC
  5
1059
330
1609
100
AcDbEntity
  8
0
100
AcDbCircle
 10
293.334059
 20
178.001867
 30
0.0
 40
4.0
100
AcDbArc
 50
180.0
 51
255.0
  0
CIRCLE
  5
105A
330
1609
100
AcDbEntity
  8
0
100
AcDbCircle
 10
302.861059
 20
205.518867
 30
0.0
 40
6.75
  0
LINE
  5
105B
330
1609
100
AcDbEntity
  8
0
100
AcDbLine
 10
343.659059
 20
134.590867
 30
0.0
 11
350.159059
 21
130.838867
 31
0.0
  0
LINE
  5
105C
330
1609
100
AcDbEntity
  8
0
100
AcDbLine
 10
350.160059
 20
130.838867
 30
0.0
 11
356.659059
 21
134.590867
 31
0.0
  0
LINE
  5
105D
330
1609
100
AcDbEntity
  8
0
100
AcDbLine
 10
356.659059
 20
134.591867
 30
0.0
 11
356.660059
 21
142.094867
 31
0.0
  0
LINE
  5
105E
330
1609
100
AcDbEntity
  8
0
100
AcDbLine
 10
356.659059
 20
142.095867
 30
0.0
 11
350.158059
 21
145.849867
 31
0.0
  0
LINE
  5
105F
330
1609
100
AcDbEntity
  8
0
100
AcDbLine
 10
343.659059
 20
142.097867
 30
0.0
 11
343.659059
 21
134.590867
 31
0.0
  0
LINE
  5
1060
330
1609
100
AcDbEntity
  8
0
100
AcDbLine
 10
350.157059
 20
145.849867
 30
0.0
 11
343.660059
 21
142.098867
 31
0.0
  0
LINE
  5
1061
330
1609
100
AcDbEntity
  8
0
100
AcDbLine
 10
478.0100589999999
 20
268.939867
 30
0.0
 11
484.5090589999999
 21
265.186867
 31
0.0
  0
LINE
  5
1062
330
1609
100
AcDbEntity
  8
0
100
AcDbLine
 10
484.510059
 20
265.187867
 30
0.0
 11
491.0100589999999
 21
268.939867
 31
0.0
  0
LINE
  5
1063
330
1609
100
AcDbEntity
  8
0
100
AcDbLine
 10
491.0100589999999
 20
268.940867
 30
0.0
 11
491.0100589999999
 21
276.446867
 31
0.0
  0
LINE
  5
1064
330
1609
100
AcDbEntity
  8
0
100
AcDbLine
 10
491.009059
 20
276.447867
 30
0.0
 11
484.510059
 21
280.199867
 31
0.0
  0
LINE
  5
1065
330
1609
100
AcDbEntity
  8
0
100
AcDbLine
 10
478.0090589999999
 20
276.446867
 30
0.0
 11
478.0090589999999
 21
268.940867
 31
0.0
  0
LINE
  5
1066
330
1609
100
AcDbEntity
  8
0
100
AcDbLine
 10
484.5090589999999
 20
280.199867
 30
0.0
 11
478.0100589999999
 21
276.447867
 31
0.0
  0
LINE
  5
106B
330
1609
100
AcDbEntity
  8
0
100
AcDbLine
 10
547.334059
 20
178.001867
 30
0.0
 11
547.334059
 21
233.034867
 31
0.0
  0
LINE
  5
106C
330
1609
100
AcDbEntity
  8
0
100
AcDbLine
 10
515.834059
 20
109.018867
 30
0.0
 11
515.834059
 21
302.018867
 31
0.0
  0
LINE
  5
106D
330
1609
100
AcDbEntity
  8
0
100
AcDbLine
 10
517.9280589999999
 20
107.018867
 30
0.0
 11
517.9280589999999
 21
304.018867
 31
0.0
  0
LINE
  5
106E
330
1609
100
AcDbEntity
  8
0
100
AcDbLine
 10
545.334059
 20
178.001867
 30
0.0
 11
545.334059
 21
233.034867
 31
0.0
  0
LINE
  5
106F
330
1609
100
AcDbEntity
  8
0
100
AcDbLine
 10
517.9280589999999
 20
245.518867
 30
0.0
 11
542.887059
 21
238.830867
 31
0.0
  0
LINE
  5
1070
330
1609
100
AcDbEntity
  8
0
100
AcDbLine
 10
517.9280589999999
 20
165.518867
 30
0.0
 11
542.887059
 21
172.205867
 31
0.0
  0
LINE
  5
1071
330
1609
100
AcDbEntity
  8
0
100
AcDbLine
 10
517.9280589999999
 20
243.447867
 30
0.0
 11
542.3690589999999
 21
236.898867
 31
0.0
  0
LINE
  5
1072
330
1609
100
AcDbEntity
  8
0
100
AcDbLine
 10
517.9280589999999
 20
167.588867
 30
0.0
 11
542.370059
 21
174.138867
 31
0.0
  0
ARC
  5
1073
330
1609
100
AcDbEntity
  8
0
100
AcDbCircle
 10
541.334059
 20
233.034867
 30
0.0
 40
6.0
100
AcDbArc
 50
0.0
 51
75.0
  0
ARC
  5
1074
330
1609
100
AcDbEntity
  8
0
100
AcDbCircle
 10
541.334059
 20
178.001867
 30
0.0
 40
6.0
100
AcDbArc
 50
285.0
 51
0.0
  0
ARC
  5
1075
330
1609
100
AcDbEntity
  8
0
100
AcDbCircle
 10
541.334059
 20
233.034867
 30
0.0
 40
4.0
100
AcDbArc
 50
0.0
 51
75.0
  0
ARC
  5
1076
330
1609
100
AcDbEntity
  8
0
100
AcDbCircle
 10
541.334059
 20
178.001867
 30
0.0
 40
4.0
100
AcDbArc
 50
285.0
 51
0.0
  0
CIRCLE
  5
1077
330
1609
100
AcDbEntity
  8
0
100
AcDbCircle
 10
531.8070589999999
 20
205.518867
 30
0.0
 40
6.75
  0
LINE
  5
1078
330
1609
100
AcDbEntity
  8
0
100
AcDbLine
 10
507.8340589999999
 20
294.518867
 30
0.0
 11
507.8340589999999
 21
219.018867
 31
0.0
  0
LINE
  5
1079
330
1609
100
AcDbEntity
  8
0
100
AcDbLine
 10
503.3340589999999
 20
290.018867
 30
0.0
 11
503.3340589999999
 21
118.018867
 31
0.0
  0
LINE
  5
107A
330
1609
100
AcDbEntity
  8
0
100
AcDbLine
 10
497.3340589999999
 20
252.018867
 30
0.0
 11
497.3340589999999
 21
128.018867
 31
0.0
  0
LINE
  5
107B
330
1609
100
AcDbEntity
  8
0
100
AcDbLine
 10
326.834059
 20
294.518867
 30
0.0
 11
326.834059
 21
219.018867
 31
0.0
  0
LINE
  5
107C
330
1609
100
AcDbEntity
  8
0
100
AcDbLine
 10
331.334059
 20
290.018867
 30
0.0
 11
331.334059
 21
118.018867
 31
0.0
  0
LINE
  5
107D
330
1609
100
AcDbEntity
  8
0
100
AcDbLine
 10
337.334059
 20
280.018867
 30
0.0
 11
337.334059
 21
156.018867
 31
0.0
  0
LINE
  5
107E
330
1609
100
AcDbEntity
  8
0
100
AcDbLine
 10
507.8340589999999
 20
294.518867
 30
0.0
 11
326.834059
 21
294.518867
 31
0.0
  0
LINE
  5
107F
330
1609
100
AcDbEntity
  8
0
100
AcDbLine
 10
507.8340589999999
 20
113.518867
 30
0.0
 11
326.834059
 21
113.518867
 31
0.0
  0
LINE
  5
1080
330
1609
100
AcDbEntity
  8
0
100
AcDbLine
 10
503.3340589999999
 20
290.018867
 30
0.0
 11
331.334059
 21
290.018867
 31
0.0
  0
LINE
  5
1081
330
1609
100
AcDbEntity
  8
0
100
AcDbLine
 10
503.3340589999999
 20
118.018867
 30
0.0
 11
331.334059
 21
118.018867
 31
0.0
  0
LINE
  5
1082
330
1609
100
AcDbEntity
  8
0
100
AcDbLine
 10
493.3340589999999
 20
124.018867
 30
0.0
 11
369.334059
 21
124.018867
 31
0.0
  0
LINE
  5
1083
330
1609
100
AcDbEntity
  8
0
100
AcDbLine
 10
493.3340589999999
 20
256.018867
 30
0.0
 11
473.334059
 21
256.018867
 31
0.0
  0
LINE
  5
1084
330
1609
100
AcDbEntity
  8
0
100
AcDbLine
 10
361.334059
 20
152.018867
 30
0.0
 11
341.334059
 21
152.018867
 31
0.0
  0
LINE
  5
1085
330
1609
100
AcDbEntity
  8
0
100
AcDbLine
 10
365.3340589999999
 20
148.018867
 30
0.0
 11
365.3340589999999
 21
128.018867
 31
0.0
  0
LINE
  5
1086
330
1609
100
AcDbEntity
  8
0
100
AcDbLine
 10
469.334059
 20
280.018867
 30
0.0
 11
469.334059
 21
260.018867
 31
0.0
  0
LINE
  5
1087
330
1609
100
AcDbEntity
  8
0
100
AcDbLine
 10
465.3340589999999
 20
284.018867
 30
0.0
 11
341.334059
 21
284.018867
 31
0.0
  0
ARC
  5
1088
330
1609
100
AcDbEntity
  8
0
100
AcDbCircle
 10
465.3340589999999
 20
280.018867
 30
0.0
 40
4.0
100
AcDbArc
 50
0.0
 51
90.0
  0
ARC
  5
1089
330
1609
100
AcDbEntity
  8
0
100
AcDbCircle
 10
493.3340589999999
 20
252.018867
 30
0.0
 40
4.0
100
AcDbArc
 50
0.0
 51
90.0
  0
ARC
  5
108A
330
1609
100
AcDbEntity
  8
0
100
AcDbCircle
 10
493.3340589999999
 20
128.018867
 30
0.0
 40
4.0
100
AcDbArc
 50
270.0
 51
0.0
  0
ARC
  5
108B
330
1609
100
AcDbEntity
  8
0
100
AcDbCircle
 10
369.334059
 20
128.018867
 30
0.0
 40
4.0
100
AcDbArc
 50
180.0
 51
270.0
  0
ARC
  5
108C
330
1609
100
AcDbEntity
  8
0
100
AcDbCircle
 10
341.334059
 20
156.018867
 30
0.0
 40
4.0
100
AcDbArc
 50
180.0
 51
270.0
  0
ARC
  5
108D
330
1609
100
AcDbEntity
  8
0
100
AcDbCircle
 10
341.334059
 20
280.018867
 30
0.0
 40
4.0
100
AcDbArc
 50
90.0
 51
180.0
  0
ARC
  5
108E
330
1609
100
AcDbEntity
  8
0
100
AcDbCircle
 10
473.334059
 20
260.018867
 30
0.0
 40
4.0
100
AcDbArc
 50
180.0
 51
270.0
  0
ARC
  5
108F
330
1609
100
AcDbEntity
  8
0
100
AcDbCircle
 10
361.334059
 20
148.018867
 30
0.0
 40
4.0
100
AcDbArc
 50
0.0
 51
90.0
  0
CIRCLE
  5
1090
330
1609
100
AcDbEntity
  8
0
100
AcDbCircle
 10
350.159059
 20
138.342867
 30
0.0
 40
11.0
  0
CIRCLE
  5
1091
330
1609
100
AcDbEntity
  8
0
100
AcDbCircle
 10
484.5090589999999
 20
272.693867
 30
0.0
 40
11.0
  0
LINE
  5
1092
330
1609
100
AcDbEntity
  8
0
100
AcDbLine
 10
509.8340589999999
 20
219.018867
 30
0.0
 11
507.8340589999999
 21
219.018867
 31
0.0
  0
LINE
  5
1093
330
1609
100
AcDbEntity
  8
0
100
AcDbLine
 10
509.8340589999999
 20
189.018867
 30
0.0
 11
507.8340589999999
 21
189.018867
 31
0.0
  0
LINE
  5
1094
330
1609
100
AcDbEntity
  8
0
100
AcDbLine
 10
509.8340589999999
 20
219.018867
 30
0.0
 11
509.8340589999999
 21
189.018867
 31
0.0
  0
LINE
  5
1095
330
1609
100
AcDbEntity
  8
0
100
AcDbLine
 10
507.8340589999999
 20
189.018867
 30
0.0
 11
507.8340589999999
 21
113.518867
 31
0.0
  0
LINE
  5
1096
330
1609
100
AcDbEntity
  8
0
100
AcDbLine
 10
324.834059
 20
219.018867
 30
0.0
 11
326.834059
 21
219.018867
 31
0.0
  0
LINE
  5
1097
330
1609
100
AcDbEntity
  8
0
100
AcDbLine
 10
324.834059
 20
189.018867
 30
0.0
 11
326.834059
 21
189.018867
 31
0.0
  0
LINE
  5
1098
330
1609
100
AcDbEntity
  8
0
100
AcDbLine
 10
324.834059
 20
219.018867
 30
0.0
 11
324.834059
 21
189.018867
 31
0.0
  0
LINE
  5
1099
330
1609
100
AcDbEntity
  8
0
100
AcDbLine
 10
326.834059
 20
189.018867
 30
0.0
 11
326.834059
 21
113.518867
 31
0.0
  0
LINE
  5
109A
330
1609
100
AcDbEntity
  8
4
100
AcDbLine
 10
474.229059
 20
486.9938669999999
 30
0.0
 11
360.439059
 21
486.9938669999999
 31
0.0
  0
LINE
  5
109B
330
1609
100
AcDbEntity
  8
4
100
AcDbLine
 10
486.723059
 20
496.346867
 30
0.0
 11
347.9450589999999
 21
496.346867
 31
0.0
  0
CIRCLE
  5
109C
330
1609
100
AcDbEntity
  8
0
100
AcDbCircle
 10
531.8070589999999
 20
205.518867
 30
0.0
 40
4.5
  0
CIRCLE
  5
109D
330
1609
100
AcDbEntity
  8
0
100
AcDbCircle
 10
302.861059
 20
205.518867
 30
0.0
 40
4.5
  0
POLYLINE
  5
109F
330
1609
100
AcDbEntity
  8
SCHRAFFUR_RAND
100
AcDb2dPolyline
 66
     1
 10
0.0
 20
0.0
 30
0.0
 70
     1
  0
VERTEX
  5
10A0
330
109F
100
AcDbEntity
  8
SCHRAFFUR_RAND
100
AcDbVertex
100
AcDb2dVertex
 10
333.086059
 20
543.156867
 30
0.0
  0
VERTEX
  5
10A1
330
109F
100
AcDbEntity
  8
SCHRAFFUR_RAND
100
AcDbVertex
100
AcDb2dVertex
 10
332.854059
 20
543.0348669999999
 30
0.0
  0
VERTEX
  5
10A2
330
109F
100
AcDbEntity
  8
SCHRAFFUR_RAND
100
AcDbVertex
100
AcDb2dVertex
 10
331.754059
 20
542.0068669999999
 30
0.0
  0
VERTEX
  5
10A3
330
109F
100
AcDbEntity
  8
SCHRAFFUR_RAND
100
AcDbVertex
100
AcDb2dVertex
 10
330.971059
 20
540.720867
 30
0.0
  0
VERTEX
  5
10A4
330
109F
100
AcDbEntity
  8
SCHRAFFUR_RAND
100
AcDbVertex
100
AcDb2dVertex
 10
330.5650589999999
 20
539.2708669999999
 30
0.0
  0
VERTEX
  5
10A5
330
109F
100
AcDbEntity
  8
SCHRAFFUR_RAND
100
AcDbVertex
100
AcDb2dVertex
 10
330.543059
 20
538.4228669999999
 30
0.0
  0
VERTEX
  5
10A6
330
109F
100
AcDbEntity
  8
SCHRAFFUR_RAND
100
AcDbVertex
100
AcDb2dVertex
 10
330.723059
 20
537.0098669999999
 30
0.0
  0
VERTEX
  5
10A7
330
109F
100
AcDbEntity
  8
SCHRAFFUR_RAND
100
AcDbVertex
100
AcDb2dVertex
 10
330.971059
 20
536.315867
 30
0.0
  0
VERTEX
  5
10A8
330
109F
100
AcDbEntity
  8
SCHRAFFUR_RAND
100
AcDbVertex
100
AcDb2dVertex
 10
331.287059
 20
535.6988669999999
 30
0.0
  0
VERTEX
  5
10A9
330
109F
100
AcDbEntity
  8
SCHRAFFUR_RAND
100
AcDbVertex
100
AcDb2dVertex
 10
331.754059
 20
535.0298669999999
 30
0.0
  0
VERTEX
  5
10AA
330
109F
100
AcDbEntity
  8
SCHRAFFUR_RAND
100
AcDbVertex
100
AcDb2dVertex
 10
332.167059
 20
534.575867
 30
0.0
  0
VERTEX
  5
10AB
330
109F
100
AcDbEntity
  8
SCHRAFFUR_RAND
100
AcDbVertex
100
AcDb2dVertex
 10
332.854059
 20
534.002867
 30
0.0
  0
VERTEX
  5
10AC
330
109F
100
AcDbEntity
  8
SCHRAFFUR_RAND
100
AcDbVertex
100
AcDb2dVertex
 10
333.306059
 20
533.714867
 30
0.0
  0
VERTEX
  5
10AD
330
109F
100
AcDbEntity
  8
SCHRAFFUR_RAND
100
AcDbVertex
100
AcDb2dVertex
 10
334.191059
 20
533.3098669999999
 30
0.0
  0
VERTEX
  5
10AE
330
109F
100
AcDbEntity
  8
SCHRAFFUR_RAND
100
AcDbVertex
100
AcDb2dVertex
 10
334.627059
 20
533.1748669999999
 30
0.0
  0
VERTEX
  5
10AF
330
109F
100
AcDbEntity
  8
SCHRAFFUR_RAND
100
AcDbVertex
100
AcDb2dVertex
 10
336.042059
 20
533.018867
 30
0.0
  0
VERTEX
  5
10B0
330
109F
100
AcDbEntity
  8
SCHRAFFUR_RAND
100
AcDbVertex
100
AcDb2dVertex
 10
337.167059
 20
533.1058669999999
 30
0.0
  0
VERTEX
  5
10B1
330
109F
100
AcDbEntity
  8
SCHRAFFUR_RAND
100
AcDbVertex
100
AcDb2dVertex
 10
338.585059
 20
533.609867
 30
0.0
  0
VERTEX
  5
10B2
330
109F
100
AcDbEntity
  8
SCHRAFFUR_RAND
100
AcDbVertex
100
AcDb2dVertex
 10
339.815059
 20
534.478867
 30
0.0
  0
VERTEX
  5
10B3
330
109F
100
AcDbEntity
  8
SCHRAFFUR_RAND
100
AcDbVertex
100
AcDb2dVertex
 10
340.765059
 20
535.6458669999999
 30
0.0
  0
VERTEX
  5
10B4
330
109F
100
AcDbEntity
  8
SCHRAFFUR_RAND
100
AcDbVertex
100
AcDb2dVertex
 10
341.365059
 20
537.027867
 30
0.0
  0
VERTEX
  5
10B5
330
109F
100
AcDbEntity
  8
SCHRAFFUR_RAND
100
AcDbVertex
100
AcDb2dVertex
 10
341.542059
 20
538.5188669999999
 30
0.0
  0
VERTEX
  5
10B6
330
109F
100
AcDbEntity
  8
SCHRAFFUR_RAND
100
AcDbVertex
100
AcDb2dVertex
 10
341.519059
 20
539.0188669999999
 30
0.0
  0
VERTEX
  5
10B7
330
109F
100
AcDbEntity
  8
SCHRAFFUR_RAND
100
AcDbVertex
100
AcDb2dVertex
 10
341.365059
 20
540.009867
 30
0.0
  0
VERTEX
  5
10B8
330
109F
100
AcDbEntity
  8
SCHRAFFUR_RAND
100
AcDbVertex
100
AcDb2dVertex
 10
340.765059
 20
541.3908669999999
 30
0.0
  0
VERTEX
  5
10B9
330
109F
100
AcDbEntity
  8
SCHRAFFUR_RAND
100
AcDbVertex
100
AcDb2dVertex
 10
339.815059
 20
542.5588669999999
 30
0.0
  0
VERTEX
  5
10BA
330
109F
100
AcDbEntity
  8
SCHRAFFUR_RAND
100
AcDbVertex
100
AcDb2dVertex
 10
338.585059
 20
543.426867
 30
0.0
  0
VERTEX
  5
10BB
330
109F
100
AcDbEntity
  8
SCHRAFFUR_RAND
100
AcDbVertex
100
AcDb2dVertex
 10
337.167059
 20
543.930867
 30
0.0
  0
VERTEX
  5
10BC
330
109F
100
AcDbEntity
  8
SCHRAFFUR_RAND
100
AcDbVertex
100
AcDb2dVertex
 10
335.665059
 20
544.033867
 30
0.0
  0
VERTEX
  5
10BD
330
109F
100
AcDbEntity
  8
SCHRAFFUR_RAND
100
AcDbVertex
100
AcDb2dVertex
 10
335.061059
 20
543.930867
 30
0.0
  0
VERTEX
  5
10BE
330
109F
100
AcDbEntity
  8
SCHRAFFUR_RAND
100
AcDbVertex
100
AcDb2dVertex
 10
334.191059
 20
543.7278669999999
 30
0.0
  0
VERTEX
  5
10BF
330
109F
100
AcDbEntity
  8
SCHRAFFUR_RAND
100
AcDbVertex
100
AcDb2dVertex
 10
333.086059
 20
543.156867
 30
0.0
  0
SEQEND
  5
10C0
330
109F
100
AcDbEntity
  8
SCHRAFFUR_RAND
  0
INSERT
  5
10C6
330
1609
100
AcDbEntity
  8
8
100
AcDbBlockReference
  2
*X0
 10
198.730059
 20
-97.981133
 30
0.0
1001
ACAD
1000
HATCH
1002
{
1070
    19
1000
ANSI31,_I
1040
3.174999999999999
1040
2.355999999999999
1002
}
  0
POLYLINE
  5
10C7
330
1609
100
AcDbEntity
  8
SCHRAFFUR_RAND
100
AcDb2dPolyline
 66
     1
 10
0.0
 20
0.0
 30
0.0
 70
     1
  0
VERTEX
  5
10C8
330
10C7
100
AcDbEntity
  8
SCHRAFFUR_RAND
100
AcDbVertex
100
AcDb2dVertex
 10
333.086059
 20
543.156867
 30
0.0
  0
VERTEX
  5
10C9
330
10C7
100
AcDbEntity
  8
SCHRAFFUR_RAND
100
AcDbVertex
100
AcDb2dVertex
 10
332.854059
 20
543.0348669999999
 30
0.0
  0
VERTEX
  5
10CA
330
10C7
100
AcDbEntity
  8
SCHRAFFUR_RAND
100
AcDbVertex
100
AcDb2dVertex
 10
331.754059
 20
542.0068669999999
 30
0.0
  0
VERTEX
  5
10CB
330
10C7
100
AcDbEntity
  8
SCHRAFFUR_RAND
100
AcDbVertex
100
AcDb2dVertex
 10
330.971059
 20
540.720867
 30
0.0
  0
VERTEX
  5
10CC
330
10C7
100
AcDbEntity
  8
SCHRAFFUR_RAND
100
AcDbVertex
100
AcDb2dVertex
 10
330.5650589999999
 20
539.2708669999999
 30
0.0
  0
VERTEX
  5
10CD
330
10C7
100
AcDbEntity
  8
SCHRAFFUR_RAND
100
AcDbVertex
100
AcDb2dVertex
 10
330.543059
 20
538.4228669999999
 30
0.0
  0
VERTEX
  5
10CE
330
10C7
100
AcDbEntity
  8
SCHRAFFUR_RAND
100
AcDbVertex
100
AcDb2dVertex
 10
330.723059
 20
537.0098669999999
 30
0.0
  0
VERTEX
  5
10CF
330
10C7
100
AcDbEntity
  8
SCHRAFFUR_RAND
100
AcDbVertex
100
AcDb2dVertex
 10
330.971059
 20
536.315867
 30
0.0
  0
VERTEX
  5
10D0
330
10C7
100
AcDbEntity
  8
SCHRAFFUR_RAND
100
AcDbVertex
100
AcDb2dVertex
 10
331.287059
 20
535.6988669999999
 30
0.0
  0
VERTEX
  5
10D1
330
10C7
100
AcDbEntity
  8
SCHRAFFUR_RAND
100
AcDbVertex
100
AcDb2dVertex
 10
331.754059
 20
535.0298669999999
 30
0.0
  0
VERTEX
  5
10D2
330
10C7
100
AcDbEntity
  8
SCHRAFFUR_RAND
100
AcDbVertex
100
AcDb2dVertex
 10
332.167059
 20
534.575867
 30
0.0
  0
VERTEX
  5
10D3
330
10C7
100
AcDbEntity
  8
SCHRAFFUR_RAND
100
AcDbVertex
100
AcDb2dVertex
 10
332.854059
 20
534.002867
 30
0.0
  0
VERTEX
  5
10D4
330
10C7
100
AcDbEntity
  8
SCHRAFFUR_RAND
100
AcDbVertex
100
AcDb2dVertex
 10
333.306059
 20
533.714867
 30
0.0
  0
VERTEX
  5
10D5
330
10C7
100
AcDbEntity
  8
SCHRAFFUR_RAND
100
AcDbVertex
100
AcDb2dVertex
 10
334.191059
 20
533.3098669999999
 30
0.0
  0
VERTEX
  5
10D6
330
10C7
100
AcDbEntity
  8
SCHRAFFUR_RAND
100
AcDbVertex
100
AcDb2dVertex
 10
334.627059
 20
533.1748669999999
 30
0.0
  0
VERTEX
  5
10D7
330
10C7
100
AcDbEntity
  8
SCHRAFFUR_RAND
100
AcDbVertex
100
AcDb2dVertex
 10
336.042059
 20
533.018867
 30
0.0
  0
VERTEX
  5
10D8
330
10C7
100
AcDbEntity
  8
SCHRAFFUR_RAND
100
AcDbVertex
100
AcDb2dVertex
 10
337.167059
 20
533.1058669999999
 30
0.0
  0
VERTEX
  5
10D9
330
10C7
100
AcDbEntity
  8
SCHRAFFUR_RAND
100
AcDbVertex
100
AcDb2dVertex
 10
338.585059
 20
533.609867
 30
0.0
  0
VERTEX
  5
10DA
330
10C7
100
AcDbEntity
  8
SCHRAFFUR_RAND
100
AcDbVertex
100
AcDb2dVertex
 10
339.815059
 20
534.478867
 30
0.0
  0
VERTEX
  5
10DB
330
10C7
100
AcDbEntity
  8
SCHRAFFUR_RAND
100
AcDbVertex
100
AcDb2dVertex
 10
340.765059
 20
535.6458669999999
 30
0.0
  0
VERTEX
  5
10DC
330
10C7
100
AcDbEntity
  8
SCHRAFFUR_RAND
100
AcDbVertex
100
AcDb2dVertex
 10
341.365059
 20
537.027867
 30
0.0
  0
VERTEX
  5
10DD
330
10C7
100
AcDbEntity
  8
SCHRAFFUR_RAND
100
AcDbVertex
100
AcDb2dVertex
 10
341.542059
 20
538.5188669999999
 30
0.0
  0
VERTEX
  5
10DE
330
10C7
100
AcDbEntity
  8
SCHRAFFUR_RAND
100
AcDbVertex
100
AcDb2dVertex
 10
341.519059
 20
539.0188669999999
 30
0.0
  0
VERTEX
  5
10DF
330
10C7
100
AcDbEntity
  8
SCHRAFFUR_RAND
100
AcDbVertex
100
AcDb2dVertex
 10
341.365059
 20
540.009867
 30
0.0
  0
VERTEX
  5
10E0
330
10C7
100
AcDbEntity
  8
SCHRAFFUR_RAND
100
AcDbVertex
100
AcDb2dVertex
 10
340.765059
 20
541.3908669999999
 30
0.0
  0
VERTEX
  5
10E1
330
10C7
100
AcDbEntity
  8
SCHRAFFUR_RAND
100
AcDbVertex
100
AcDb2dVertex
 10
339.815059
 20
542.5588669999999
 30
0.0
  0
VERTEX
  5
10E2
330
10C7
100
AcDbEntity
  8
SCHRAFFUR_RAND
100
AcDbVertex
100
AcDb2dVertex
 10
338.585059
 20
543.426867
 30
0.0
  0
VERTEX
  5
10E3
330
10C7
100
AcDbEntity
  8
SCHRAFFUR_RAND
100
AcDbVertex
100
AcDb2dVertex
 10
337.167059
 20
543.930867
 30
0.0
  0
VERTEX
  5
10E4
330
10C7
100
AcDbEntity
  8
SCHRAFFUR_RAND
100
AcDbVertex
100
AcDb2dVertex
 10
335.665059
 20
544.033867
 30
0.0
  0
VERTEX
  5
10E5
330
10C7
100
AcDbEntity
  8
SCHRAFFUR_RAND
100
AcDbVertex
100
AcDb2dVertex
 10
335.061059
 20
543.930867
 30
0.0
  0
VERTEX
  5
10E6
330
10C7
100
AcDbEntity
  8
SCHRAFFUR_RAND
100
AcDbVertex
100
AcDb2dVertex
 10
334.191059
 20
543.7278669999999
 30
0.0
  0
VERTEX
  5
10E7
330
10C7
100
AcDbEntity
  8
SCHRAFFUR_RAND
100
AcDbVertex
100
AcDb2dVertex
 10
333.086059
 20
543.156867
 30
0.0
  0
SEQEND
  5
10E8
330
10C7
100
AcDbEntity
  8
SCHRAFFUR_RAND
  0
INSERT
  5
10EE
330
1609
100
AcDbEntity
  8
8
100
AcDbBlockReference
  2
*X1
 10
198.730059
 20
-97.981133
 30
0.0
1001
ACAD
1000
HATCH
1002
{
1070
    19
1000
ANSI31,_I
1040
3.174999999999999
1040
0.7850000000000001
1002
}
  0
POLYLINE
  5
10EF
330
1609
100
AcDbEntity
  8
SCHRAFFUR_RAND
100
AcDb2dPolyline
 66
     1
 10
0.0
 20
0.0
 30
0.0
 70
     1
  0
VERTEX
  5
10F0
330
10EF
100
AcDbEntity
  8
SCHRAFFUR_RAND
100
AcDbVertex
100
AcDb2dVertex
 10
499.607059
 20
543.930867
 30
0.0
  0
VERTEX
  5
10F1
330
10EF
100
AcDbEntity
  8
SCHRAFFUR_RAND
100
AcDbVertex
100
AcDb2dVertex
 10
498.627059
 20
544.036867
 30
0.0
  0
VERTEX
  5
10F2
330
10EF
100
AcDbEntity
  8
SCHRAFFUR_RAND
100
AcDbVertex
100
AcDb2dVertex
 10
497.3990589999999
 20
543.8988669999999
 30
0.0
  0
VERTEX
  5
10F3
330
10EF
100
AcDbEntity
  8
SCHRAFFUR_RAND
100
AcDbVertex
100
AcDb2dVertex
 10
496.232059
 20
543.4908669999999
 30
0.0
  0
VERTEX
  5
10F4
330
10EF
100
AcDbEntity
  8
SCHRAFFUR_RAND
100
AcDbVertex
100
AcDb2dVertex
 10
495.1850589999999
 20
542.8328669999999
 30
0.0
  0
VERTEX
  5
10F5
330
10EF
100
AcDbEntity
  8
SCHRAFFUR_RAND
100
AcDbVertex
100
AcDb2dVertex
 10
494.3120589999999
 20
541.959867
 30
0.0
  0
VERTEX
  5
10F6
330
10EF
100
AcDbEntity
  8
SCHRAFFUR_RAND
100
AcDbVertex
100
AcDb2dVertex
 10
493.6540589999999
 20
540.912867
 30
0.0
  0
VERTEX
  5
10F7
330
10EF
100
AcDbEntity
  8
SCHRAFFUR_RAND
100
AcDbVertex
100
AcDb2dVertex
 10
493.2460589999999
 20
539.7468669999999
 30
0.0
  0
VERTEX
  5
10F8
330
10EF
100
AcDbEntity
  8
SCHRAFFUR_RAND
100
AcDbVertex
100
AcDb2dVertex
 10
493.1080589999999
 20
538.5188669999999
 30
0.0
  0
VERTEX
  5
10F9
330
10EF
100
AcDbEntity
  8
SCHRAFFUR_RAND
100
AcDbVertex
100
AcDb2dVertex
 10
493.2460589999999
 20
537.290867
 30
0.0
  0
VERTEX
  5
10FA
330
10EF
100
AcDbEntity
  8
SCHRAFFUR_RAND
100
AcDbVertex
100
AcDb2dVertex
 10
493.6540589999999
 20
536.123867
 30
0.0
  0
VERTEX
  5
10FB
330
10EF
100
AcDbEntity
  8
SCHRAFFUR_RAND
100
AcDbVertex
100
AcDb2dVertex
 10
494.3120589999999
 20
535.0778669999999
 30
0.0
  0
VERTEX
  5
10FC
330
10EF
100
AcDbEntity
  8
SCHRAFFUR_RAND
100
AcDbVertex
100
AcDb2dVertex
 10
495.1850589999999
 20
534.2038669999999
 30
0.0
  0
VERTEX
  5
10FD
330
10EF
100
AcDbEntity
  8
SCHRAFFUR_RAND
100
AcDbVertex
100
AcDb2dVertex
 10
496.232059
 20
533.546867
 30
0.0
  0
VERTEX
  5
10FE
330
10EF
100
AcDbEntity
  8
SCHRAFFUR_RAND
100
AcDbVertex
100
AcDb2dVertex
 10
497.3990589999999
 20
533.137867
 30
0.0
  0
VERTEX
  5
10FF
330
10EF
100
AcDbEntity
  8
SCHRAFFUR_RAND
100
AcDbVertex
100
AcDb2dVertex
 10
498.627059
 20
533.018867
 30
0.0
  0
VERTEX
  5
1100
330
10EF
100
AcDbEntity
  8
SCHRAFFUR_RAND
100
AcDbVertex
100
AcDb2dVertex
 10
499.6910589999999
 20
533.103867
 30
0.0
  0
VERTEX
  5
1101
330
10EF
100
AcDbEntity
  8
SCHRAFFUR_RAND
100
AcDbVertex
100
AcDb2dVertex
 10
499.8550589999999
 20
533.137867
 30
0.0
  0
VERTEX
  5
1102
330
10EF
100
AcDbEntity
  8
SCHRAFFUR_RAND
100
AcDbVertex
100
AcDb2dVertex
 10
500.7160589999999
 20
533.4108669999999
 30
0.0
  0
VERTEX
  5
1103
330
10EF
100
AcDbEntity
  8
SCHRAFFUR_RAND
100
AcDbVertex
100
AcDb2dVertex
 10
501.0210589999999
 20
533.546867
 30
0.0
  0
VERTEX
  5
1104
330
10EF
100
AcDbEntity
  8
SCHRAFFUR_RAND
100
AcDbVertex
100
AcDb2dVertex
 10
501.662059
 20
533.9098669999999
 30
0.0
  0
VERTEX
  5
1105
330
10EF
100
AcDbEntity
  8
SCHRAFFUR_RAND
100
AcDbVertex
100
AcDb2dVertex
 10
502.0670589999999
 20
534.2038669999999
 30
0.0
  0
VERTEX
  5
1106
330
10EF
100
AcDbEntity
  8
SCHRAFFUR_RAND
100
AcDbVertex
100
AcDb2dVertex
 10
502.4940589999999
 20
534.5818669999999
 30
0.0
  0
VERTEX
  5
1107
330
10EF
100
AcDbEntity
  8
SCHRAFFUR_RAND
100
AcDbVertex
100
AcDb2dVertex
 10
502.941059
 20
535.0778669999999
 30
0.0
  0
VERTEX
  5
1108
330
10EF
100
AcDbEntity
  8
SCHRAFFUR_RAND
100
AcDbVertex
100
AcDb2dVertex
 10
503.1820589999999
 20
535.4028669999999
 30
0.0
  0
VERTEX
  5
1109
330
10EF
100
AcDbEntity
  8
SCHRAFFUR_RAND
100
AcDbVertex
100
AcDb2dVertex
 10
503.598059
 20
536.123867
 30
0.0
  0
VERTEX
  5
110A
330
10EF
100
AcDbEntity
  8
SCHRAFFUR_RAND
100
AcDbVertex
100
AcDb2dVertex
 10
503.697059
 20
536.339867
 30
0.0
  0
VERTEX
  5
110B
330
10EF
100
AcDbEntity
  8
SCHRAFFUR_RAND
100
AcDbVertex
100
AcDb2dVertex
 10
504.007059
 20
537.290867
 30
0.0
  0
VERTEX
  5
110C
330
10EF
100
AcDbEntity
  8
SCHRAFFUR_RAND
100
AcDbVertex
100
AcDb2dVertex
 10
504.022059
 20
537.3598669999999
 30
0.0
  0
VERTEX
  5
110D
330
10EF
100
AcDbEntity
  8
SCHRAFFUR_RAND
100
AcDbVertex
100
AcDb2dVertex
 10
504.126059
 20
538.4228669999999
 30
0.0
  0
VERTEX
  5
110E
330
10EF
100
AcDbEntity
  8
SCHRAFFUR_RAND
100
AcDbVertex
100
AcDb2dVertex
 10
504.126059
 20
538.5188669999999
 30
0.0
  0
VERTEX
  5
110F
330
10EF
100
AcDbEntity
  8
SCHRAFFUR_RAND
100
AcDbVertex
100
AcDb2dVertex
 10
504.007059
 20
539.7468669999999
 30
0.0
  0
VERTEX
  5
1110
330
10EF
100
AcDbEntity
  8
SCHRAFFUR_RAND
100
AcDbVertex
100
AcDb2dVertex
 10
503.598059
 20
540.912867
 30
0.0
  0
VERTEX
  5
1111
330
10EF
100
AcDbEntity
  8
SCHRAFFUR_RAND
100
AcDbVertex
100
AcDb2dVertex
 10
502.941059
 20
541.959867
 30
0.0
  0
VERTEX
  5
1112
330
10EF
100
AcDbEntity
  8
SCHRAFFUR_RAND
100
AcDbVertex
100
AcDb2dVertex
 10
502.0670589999999
 20
542.8328669999999
 30
0.0
  0
VERTEX
  5
1113
330
10EF
100
AcDbEntity
  8
SCHRAFFUR_RAND
100
AcDbVertex
100
AcDb2dVertex
 10
501.0210589999999
 20
543.4908669999999
 30
0.0
  0
VERTEX
  5
1114
330
10EF
100
AcDbEntity
  8
SCHRAFFUR_RAND
100
AcDbVertex
100
AcDb2dVertex
 10
499.8550589999999
 20
543.8988669999999
 30
0.0
  0
VERTEX
  5
1115
330
10EF
100
AcDbEntity
  8
SCHRAFFUR_RAND
100
AcDbVertex
100
AcDb2dVertex
 10
499.607059
 20
543.930867
 30
0.0
  0
SEQEND
  5
1116
330
10EF
100
AcDbEntity
  8
SCHRAFFUR_RAND
  0
INSERT
  5
111F
330
1609
100
AcDbEntity
  8
8
100
AcDbBlockReference
  2
*X2
 10
198.730059
 20
-97.981133
 30
0.0
1001
ACAD
1000
HATCH
1002
{
1070
    19
1000
ANSI37,_I
1040
3.174999999999999
1040
5.497999999999999
1002
}
  0
POLYLINE
  5
1120
330
1609
100
AcDbEntity
  8
SCHRAFFUR_RAND
100
AcDb2dPolyline
 66
     1
 10
0.0
 20
0.0
 30
0.0
 70
     1
  0
VERTEX
  5
1121
330
1120
100
AcDbEntity
  8
SCHRAFFUR_RAND
100
AcDbVertex
100
AcDb2dVertex
 10
326.834059
 20
579.018867
 30
0.0
  0
VERTEX
  5
1122
330
1120
100
AcDbEntity
  8
SCHRAFFUR_RAND
100
AcDbVertex
100
AcDb2dVertex
 10
318.834059
 20
579.018867
 30
0.0
  0
VERTEX
  5
1123
330
1120
100
AcDbEntity
  8
SCHRAFFUR_RAND
100
AcDbVertex
100
AcDb2dVertex
 10
316.741059
 20
539.0728669999999
 30
0.0
  0
VERTEX
  5
1124
330
1120
100
AcDbEntity
  8
SCHRAFFUR_RAND
100
AcDbVertex
100
AcDb2dVertex
 10
309.611059
 20
539.0728669999999
 30
0.0
  0
VERTEX
  5
1125
330
1120
100
AcDbEntity
  8
SCHRAFFUR_RAND
100
AcDbVertex
100
AcDb2dVertex
 10
307.361059
 20
529.018867
 30
0.0
  0
VERTEX
  5
1126
330
1120
100
AcDbEntity
  8
SCHRAFFUR_RAND
100
AcDbVertex
100
AcDb2dVertex
 10
322.517059
 20
529.018867
 30
0.0
  0
VERTEX
  5
1127
330
1120
100
AcDbEntity
  8
SCHRAFFUR_RAND
100
AcDbVertex
100
AcDb2dVertex
 10
326.274059
 20
528.435867
 30
0.0
  0
VERTEX
  5
1128
330
1120
100
AcDbEntity
  8
SCHRAFFUR_RAND
100
AcDbVertex
100
AcDb2dVertex
 10
329.496059
 20
526.372867
 30
0.0
  0
VERTEX
  5
1129
330
1120
100
AcDbEntity
  8
SCHRAFFUR_RAND
100
AcDbVertex
100
AcDb2dVertex
 10
331.724059
 20
523.263867
 30
0.0
  0
VERTEX
  5
112A
330
1120
100
AcDbEntity
  8
SCHRAFFUR_RAND
100
AcDbVertex
100
AcDb2dVertex
 10
332.503059
 20
519.541867
 30
0.0
  0
VERTEX
  5
112B
330
1120
100
AcDbEntity
  8
SCHRAFFUR_RAND
100
AcDbVertex
100
AcDb2dVertex
 10
333.557059
 20
499.4408669999999
 30
0.0
  0
VERTEX
  5
112C
330
1120
100
AcDbEntity
  8
SCHRAFFUR_RAND
100
AcDbVertex
100
AcDb2dVertex
 10
334.143059
 20
496.165867
 30
0.0
  0
VERTEX
  5
112D
330
1120
100
AcDbEntity
  8
SCHRAFFUR_RAND
100
AcDbVertex
100
AcDb2dVertex
 10
335.891059
 20
493.312867
 30
0.0
  0
VERTEX
  5
112E
330
1120
100
AcDbEntity
  8
SCHRAFFUR_RAND
100
AcDbVertex
100
AcDb2dVertex
 10
338.543059
 20
491.3038669999999
 30
0.0
  0
VERTEX
  5
112F
330
1120
100
AcDbEntity
  8
SCHRAFFUR_RAND
100
AcDbVertex
100
AcDb2dVertex
 10
346.834059
 20
486.516867
 30
0.0
  0
VERTEX
  5
1130
330
1120
100
AcDbEntity
  8
SCHRAFFUR_RAND
100
AcDbVertex
100
AcDb2dVertex
 10
348.537059
 20
485.2668669999999
 30
0.0
  0
VERTEX
  5
1131
330
1120
100
AcDbEntity
  8
SCHRAFFUR_RAND
100
AcDbVertex
100
AcDb2dVertex
 10
349.602059
 20
483.419867
 30
0.0
  0
VERTEX
  5
1132
330
1120
100
AcDbEntity
  8
SCHRAFFUR_RAND
100
AcDbVertex
100
AcDb2dVertex
 10
349.834059
 20
481.3608669999999
 30
0.0
  0
VERTEX
  5
1133
330
1120
100
AcDbEntity
  8
SCHRAFFUR_RAND
100
AcDbVertex
100
AcDb2dVertex
 10
349.834059
 20
465.3608669999999
 30
0.0
  0
VERTEX
  5
1134
330
1120
100
AcDbEntity
  8
SCHRAFFUR_RAND
100
AcDbVertex
100
AcDb2dVertex
 10
349.834059
 20
454.018867
 30
0.0
  0
VERTEX
  5
1135
330
1120
100
AcDbEntity
  8
SCHRAFFUR_RAND
100
AcDbVertex
100
AcDb2dVertex
 10
349.834059
 20
442.721867
 30
0.0
  0
VERTEX
  5
1136
330
1120
100
AcDbEntity
  8
SCHRAFFUR_RAND
100
AcDbVertex
100
AcDb2dVertex
 10
349.834059
 20
420.8928669999999
 30
0.0
  0
VERTEX
  5
1137
330
1120
100
AcDbEntity
  8
SCHRAFFUR_RAND
100
AcDbVertex
100
AcDb2dVertex
 10
349.834059
 20
404.018867
 30
0.0
  0
VERTEX
  5
1138
330
1120
100
AcDbEntity
  8
SCHRAFFUR_RAND
100
AcDbVertex
100
AcDb2dVertex
 10
357.514059
 20
404.018867
 30
0.0
  0
VERTEX
  5
1139
330
1120
100
AcDbEntity
  8
SCHRAFFUR_RAND
100
AcDbVertex
100
AcDb2dVertex
 10
357.514059
 20
424.018867
 30
0.0
  0
VERTEX
  5
113A
330
1120
100
AcDbEntity
  8
SCHRAFFUR_RAND
100
AcDbVertex
100
AcDb2dVertex
 10
356.834059
 20
429.018867
 30
0.0
  0
VERTEX
  5
113B
330
1120
100
AcDbEntity
  8
SCHRAFFUR_RAND
100
AcDbVertex
100
AcDb2dVertex
 10
356.834059
 20
481.8978669999999
 30
0.0
  0
VERTEX
  5
113C
330
1120
100
AcDbEntity
  8
SCHRAFFUR_RAND
100
AcDbVertex
100
AcDb2dVertex
 10
356.361059
 20
485.3658669999999
 30
0.0
  0
VERTEX
  5
113D
330
1120
100
AcDbEntity
  8
SCHRAFFUR_RAND
100
AcDbVertex
100
AcDb2dVertex
 10
354.601059
 20
488.414867
 30
0.0
  0
VERTEX
  5
113E
330
1120
100
AcDbEntity
  8
SCHRAFFUR_RAND
100
AcDbVertex
100
AcDb2dVertex
 10
351.834059
 20
490.5578669999999
 30
0.0
  0
VERTEX
  5
113F
330
1120
100
AcDbEntity
  8
SCHRAFFUR_RAND
100
AcDbVertex
100
AcDb2dVertex
 10
344.441059
 20
494.826867
 30
0.0
  0
VERTEX
  5
1140
330
1120
100
AcDbEntity
  8
SCHRAFFUR_RAND
100
AcDbVertex
100
AcDb2dVertex
 10
342.994059
 20
496.260867
 30
0.0
  0
VERTEX
  5
1141
330
1120
100
AcDbEntity
  8
SCHRAFFUR_RAND
100
AcDbVertex
100
AcDb2dVertex
 10
342.442059
 20
498.220867
 30
0.0
  0
VERTEX
  5
1142
330
1120
100
AcDbEntity
  8
SCHRAFFUR_RAND
100
AcDbVertex
100
AcDb2dVertex
 10
341.834059
 20
533.018867
 30
0.0
  0
VERTEX
  5
1143
330
1120
100
AcDbEntity
  8
SCHRAFFUR_RAND
100
AcDbVertex
100
AcDb2dVertex
 10
336.042059
 20
533.018867
 30
0.0
  0
VERTEX
  5
1144
330
1120
100
AcDbEntity
  8
SCHRAFFUR_RAND
100
AcDbVertex
100
AcDb2dVertex
 10
335.239059
 20
532.9378669999999
 30
0.0
  0
VERTEX
  5
1145
330
1120
100
AcDbEntity
  8
SCHRAFFUR_RAND
100
AcDbVertex
100
AcDb2dVertex
 10
333.251059
 20
533.618867
 30
0.0
  0
VERTEX
  5
1146
330
1120
100
AcDbEntity
  8
SCHRAFFUR_RAND
100
AcDbVertex
100
AcDb2dVertex
 10
332.349059
 20
534.257867
 30
0.0
  0
VERTEX
  5
1147
330
1120
100
AcDbEntity
  8
SCHRAFFUR_RAND
100
AcDbVertex
100
AcDb2dVertex
 10
331.192059
 20
535.642867
 30
0.0
  0
VERTEX
  5
1148
330
1120
100
AcDbEntity
  8
SCHRAFFUR_RAND
100
AcDbVertex
100
AcDb2dVertex
 10
330.632059
 20
536.9298669999999
 30
0.0
  0
VERTEX
  5
1149
330
1120
100
AcDbEntity
  8
SCHRAFFUR_RAND
100
AcDbVertex
100
AcDb2dVertex
 10
330.543059
 20
538.4228669999999
 30
0.0
  0
VERTEX
  5
114A
330
1120
100
AcDbEntity
  8
SCHRAFFUR_RAND
100
AcDbVertex
100
AcDb2dVertex
 10
330.632059
 20
540.1068669999999
 30
0.0
  0
VERTEX
  5
114B
330
1120
100
AcDbEntity
  8
SCHRAFFUR_RAND
100
AcDbVertex
100
AcDb2dVertex
 10
329.985059
 20
570.360867
 30
0.0
  0
VERTEX
  5
114C
330
1120
100
AcDbEntity
  8
SCHRAFFUR_RAND
100
AcDbVertex
100
AcDb2dVertex
 10
326.834059
 20
579.018867
 30
0.0
  0
SEQEND
  5
114D
330
1120
100
AcDbEntity
  8
SCHRAFFUR_RAND
  0
POLYLINE
  5
12D5
330
1609
100
AcDbEntity
  8
SCHRAFFUR_RAND
100
AcDb2dPolyline
 66
     1
 10
0.0
 20
0.0
 30
0.0
 70
     1
  0
VERTEX
  5
12D6
330
12D5
100
AcDbEntity
  8
SCHRAFFUR_RAND
100
AcDbVertex
100
AcDb2dVertex
 10
484.8340589999999
 20
481.3608669999999
 30
0.0
  0
VERTEX
  5
12D7
330
12D5
100
AcDbEntity
  8
SCHRAFFUR_RAND
100
AcDbVertex
100
AcDb2dVertex
 10
485.066059
 20
483.419867
 30
0.0
  0
VERTEX
  5
12D8
330
12D5
100
AcDbEntity
  8
SCHRAFFUR_RAND
100
AcDbVertex
100
AcDb2dVertex
 10
486.132059
 20
485.2668669999999
 30
0.0
  0
VERTEX
  5
12D9
330
12D5
100
AcDbEntity
  8
SCHRAFFUR_RAND
100
AcDbVertex
100
AcDb2dVertex
 10
487.8340589999999
 20
486.516867
 30
0.0
  0
VERTEX
  5
12DA
330
12D5
100
AcDbEntity
  8
SCHRAFFUR_RAND
100
AcDbVertex
100
AcDb2dVertex
 10
496.1250589999999
 20
491.3038669999999
 30
0.0
  0
VERTEX
  5
12DB
330
12D5
100
AcDbEntity
  8
SCHRAFFUR_RAND
100
AcDbVertex
100
AcDb2dVertex
 10
498.777059
 20
493.312867
 30
0.0
  0
VERTEX
  5
12DC
330
12D5
100
AcDbEntity
  8
SCHRAFFUR_RAND
100
AcDbVertex
100
AcDb2dVertex
 10
500.525059
 20
496.165867
 30
0.0
  0
VERTEX
  5
12DD
330
12D5
100
AcDbEntity
  8
SCHRAFFUR_RAND
100
AcDbVertex
100
AcDb2dVertex
 10
501.1120589999999
 20
499.4408669999999
 30
0.0
  0
VERTEX
  5
12DE
330
12D5
100
AcDbEntity
  8
SCHRAFFUR_RAND
100
AcDbVertex
100
AcDb2dVertex
 10
502.165059
 20
519.541867
 30
0.0
  0
VERTEX
  5
12DF
330
12D5
100
AcDbEntity
  8
SCHRAFFUR_RAND
100
AcDbVertex
100
AcDb2dVertex
 10
502.944059
 20
523.263867
 30
0.0
  0
VERTEX
  5
12E0
330
12D5
100
AcDbEntity
  8
SCHRAFFUR_RAND
100
AcDbVertex
100
AcDb2dVertex
 10
505.173059
 20
526.372867
 30
0.0
  0
VERTEX
  5
12E1
330
12D5
100
AcDbEntity
  8
SCHRAFFUR_RAND
100
AcDbVertex
100
AcDb2dVertex
 10
508.3950589999999
 20
528.435867
 30
0.0
  0
VERTEX
  5
12E2
330
12D5
100
AcDbEntity
  8
SCHRAFFUR_RAND
100
AcDbVertex
100
AcDb2dVertex
 10
512.151059
 20
529.018867
 30
0.0
  0
VERTEX
  5
12E3
330
12D5
100
AcDbEntity
  8
SCHRAFFUR_RAND
100
AcDbVertex
100
AcDb2dVertex
 10
527.3070589999999
 20
529.018867
 30
0.0
  0
VERTEX
  5
12E4
330
12D5
100
AcDbEntity
  8
SCHRAFFUR_RAND
100
AcDbVertex
100
AcDb2dVertex
 10
525.0570589999999
 20
539.0728669999999
 30
0.0
  0
VERTEX
  5
12E5
330
12D5
100
AcDbEntity
  8
SCHRAFFUR_RAND
100
AcDbVertex
100
AcDb2dVertex
 10
517.9280589999999
 20
539.0728669999999
 30
0.0
  0
VERTEX
  5
12E6
330
12D5
100
AcDbEntity
  8
SCHRAFFUR_RAND
100
AcDbVertex
100
AcDb2dVertex
 10
515.834059
 20
579.018867
 30
0.0
  0
VERTEX
  5
12E7
330
12D5
100
AcDbEntity
  8
SCHRAFFUR_RAND
100
AcDbVertex
100
AcDb2dVertex
 10
507.8340589999999
 20
579.018867
 30
0.0
  0
VERTEX
  5
12E8
330
12D5
100
AcDbEntity
  8
SCHRAFFUR_RAND
100
AcDbVertex
100
AcDb2dVertex
 10
504.6830589999999
 20
570.360867
 30
0.0
  0
VERTEX
  5
12E9
330
12D5
100
AcDbEntity
  8
SCHRAFFUR_RAND
100
AcDbVertex
100
AcDb2dVertex
 10
504.126059
 20
538.4228669999999
 30
0.0
  0
VERTEX
  5
12EA
330
12D5
100
AcDbEntity
  8
SCHRAFFUR_RAND
100
AcDbVertex
100
AcDb2dVertex
 10
503.4760589999999
 20
535.642867
 30
0.0
  0
VERTEX
  5
12EB
330
12D5
100
AcDbEntity
  8
SCHRAFFUR_RAND
100
AcDbVertex
100
AcDb2dVertex
 10
501.4170589999999
 20
533.618867
 30
0.0
  0
VERTEX
  5
12EC
330
12D5
100
AcDbEntity
  8
SCHRAFFUR_RAND
100
AcDbVertex
100
AcDb2dVertex
 10
500.968059
 20
533.3898669999999
 30
0.0
  0
VERTEX
  5
12ED
330
12D5
100
AcDbEntity
  8
SCHRAFFUR_RAND
100
AcDbVertex
100
AcDb2dVertex
 10
498.627059
 20
533.018867
 30
0.0
  0
VERTEX
  5
12EE
330
12D5
100
AcDbEntity
  8
SCHRAFFUR_RAND
100
AcDbVertex
100
AcDb2dVertex
 10
497.8240589999999
 20
532.9378669999999
 30
0.0
  0
VERTEX
  5
12EF
330
12D5
100
AcDbEntity
  8
SCHRAFFUR_RAND
100
AcDbVertex
100
AcDb2dVertex
 10
492.8340589999999
 20
533.018867
 30
0.0
  0
VERTEX
  5
12F0
330
12D5
100
AcDbEntity
  8
SCHRAFFUR_RAND
100
AcDbVertex
100
AcDb2dVertex
 10
492.227059
 20
498.220867
 30
0.0
  0
VERTEX
  5
12F1
330
12D5
100
AcDbEntity
  8
SCHRAFFUR_RAND
100
AcDbVertex
100
AcDb2dVertex
 10
491.6740589999999
 20
496.260867
 30
0.0
  0
VERTEX
  5
12F2
330
12D5
100
AcDbEntity
  8
SCHRAFFUR_RAND
100
AcDbVertex
100
AcDb2dVertex
 10
490.2270589999999
 20
494.826867
 30
0.0
  0
VERTEX
  5
12F3
330
12D5
100
AcDbEntity
  8
SCHRAFFUR_RAND
100
AcDbVertex
100
AcDb2dVertex
 10
482.8340589999999
 20
490.5578669999999
 30
0.0
  0
VERTEX
  5
12F4
330
12D5
100
AcDbEntity
  8
SCHRAFFUR_RAND
100
AcDbVertex
100
AcDb2dVertex
 10
480.0680589999999
 20
488.414867
 30
0.0
  0
VERTEX
  5
12F5
330
12D5
100
AcDbEntity
  8
SCHRAFFUR_RAND
100
AcDbVertex
100
AcDb2dVertex
 10
478.307059
 20
485.3658669999999
 30
0.0
  0
VERTEX
  5
12F6
330
12D5
100
AcDbEntity
  8
SCHRAFFUR_RAND
100
AcDbVertex
100
AcDb2dVertex
 10
477.8340589999999
 20
481.8978669999999
 30
0.0
  0
VERTEX
  5
12F7
330
12D5
100
AcDbEntity
  8
SCHRAFFUR_RAND
100
AcDbVertex
100
AcDb2dVertex
 10
477.8340589999999
 20
429.018867
 30
0.0
  0
VERTEX
  5
12F8
330
12D5
100
AcDbEntity
  8
SCHRAFFUR_RAND
100
AcDbVertex
100
AcDb2dVertex
 10
477.1540589999999
 20
424.018867
 30
0.0
  0
VERTEX
  5
12F9
330
12D5
100
AcDbEntity
  8
SCHRAFFUR_RAND
100
AcDbVertex
100
AcDb2dVertex
 10
477.1540589999999
 20
404.018867
 30
0.0
  0
VERTEX
  5
12FA
330
12D5
100
AcDbEntity
  8
SCHRAFFUR_RAND
100
AcDbVertex
100
AcDb2dVertex
 10
484.8340589999999
 20
404.018867
 30
0.0
  0
VERTEX
  5
12FB
330
12D5
100
AcDbEntity
  8
SCHRAFFUR_RAND
100
AcDbVertex
100
AcDb2dVertex
 10
484.8340589999999
 20
420.8928669999999
 30
0.0
  0
VERTEX
  5
12FC
330
12D5
100
AcDbEntity
  8
SCHRAFFUR_RAND
100
AcDbVertex
100
AcDb2dVertex
 10
484.8340589999999
 20
442.721867
 30
0.0
  0
VERTEX
  5
12FD
330
12D5
100
AcDbEntity
  8
SCHRAFFUR_RAND
100
AcDbVertex
100
AcDb2dVertex
 10
484.8340589999999
 20
454.018867
 30
0.0
  0
VERTEX
  5
12FE
330
12D5
100
AcDbEntity
  8
SCHRAFFUR_RAND
100
AcDbVertex
100
AcDb2dVertex
 10
484.8340589999999
 20
465.3608669999999
 30
0.0
  0
VERTEX
  5
12FF
330
12D5
100
AcDbEntity
  8
SCHRAFFUR_RAND
100
AcDbVertex
100
AcDb2dVertex
 10
484.8340589999999
 20
481.3608669999999
 30
0.0
  0
SEQEND
  5
1300
330
12D5
100
AcDbEntity
  8
SCHRAFFUR_RAND
  0
POLYLINE
  5
1488
330
1609
100
AcDbEntity
  8
SCHRAFFUR_RAND
100
AcDb2dPolyline
 66
     1
 10
0.0
 20
0.0
 30
0.0
 70
     1
  0
VERTEX
  5
1489
330
1488
100
AcDbEntity
  8
SCHRAFFUR_RAND
100
AcDbVertex
100
AcDb2dVertex
 10
536.3070589999999
 20
529.018867
 30
0.0
  0
VERTEX
  5
148A
330
1488
100
AcDbEntity
  8
SCHRAFFUR_RAND
100
AcDbVertex
100
AcDb2dVertex
 10
547.334059
 20
529.018867
 30
0.0
  0
VERTEX
  5
148B
330
1488
100
AcDbEntity
  8
SCHRAFFUR_RAND
100
AcDbVertex
100
AcDb2dVertex
 10
546.811059
 20
539.0048669999999
 30
0.0
  0
VERTEX
  5
148C
330
1488
100
AcDbEntity
  8
SCHRAFFUR_RAND
100
AcDbVertex
100
AcDb2dVertex
 10
538.5570589999999
 20
539.0728669999999
 30
0.0
  0
VERTEX
  5
148D
330
1488
100
AcDbEntity
  8
SCHRAFFUR_RAND
100
AcDbVertex
100
AcDb2dVertex
 10
536.3070589999999
 20
529.018867
 30
0.0
  0
SEQEND
  5
148E
330
1488
100
AcDbEntity
  8
SCHRAFFUR_RAND
  0
POLYLINE
  5
14A8
330
1609
100
AcDbEntity
  8
SCHRAFFUR_RAND
100
AcDb2dPolyline
 66
     1
 10
0.0
 20
0.0
 30
0.0
 70
     1
  0
VERTEX
  5
14A9
330
14A8
100
AcDbEntity
  8
SCHRAFFUR_RAND
100
AcDbVertex
100
AcDb2dVertex
 10
296.111059
 20
539.0728669999999
 30
0.0
  0
VERTEX
  5
14AA
330
14A8
100
AcDbEntity
  8
SCHRAFFUR_RAND
100
AcDbVertex
100
AcDb2dVertex
 10
287.858059
 20
539.0048669999999
 30
0.0
  0
VERTEX
  5
14AB
330
14A8
100
AcDbEntity
  8
SCHRAFFUR_RAND
100
AcDbVertex
100
AcDb2dVertex
 10
287.334059
 20
529.018867
 30
0.0
  0
VERTEX
  5
14AC
330
14A8
100
AcDbEntity
  8
SCHRAFFUR_RAND
100
AcDbVertex
100
AcDb2dVertex
 10
298.361059
 20
529.018867
 30
0.0
  0
VERTEX
  5
14AD
330
14A8
100
AcDbEntity
  8
SCHRAFFUR_RAND
100
AcDbVertex
100
AcDb2dVertex
 10
296.111059
 20
539.0728669999999
 30
0.0
  0
SEQEND
  5
14AE
330
14A8
100
AcDbEntity
  8
SCHRAFFUR_RAND
  0
POLYLINE
  5
14C8
330
1609
100
AcDbEntity
  8
SCHRAFFUR_RAND
100
AcDb2dPolyline
 66
     1
 10
0.0
 20
0.0
 30
0.0
 70
     1
  0
VERTEX
  5
14C9
330
14C8
100
AcDbEntity
  8
SCHRAFFUR_RAND
100
AcDbVertex
100
AcDb2dVertex
 10
503.3340589999999
 20
579.0008669999999
 30
0.0
  0
VERTEX
  5
14CA
330
14C8
100
AcDbEntity
  8
SCHRAFFUR_RAND
100
AcDbVertex
100
AcDb2dVertex
 10
497.3340589999999
 20
579.018867
 30
0.0
  0
VERTEX
  5
14CB
330
14C8
100
AcDbEntity
  8
SCHRAFFUR_RAND
100
AcDbVertex
100
AcDb2dVertex
 10
496.701059
 20
560.878867
 30
0.0
  0
VERTEX
  5
14CC
330
14C8
100
AcDbEntity
  8
SCHRAFFUR_RAND
100
AcDbVertex
100
AcDb2dVertex
 10
496.227059
 20
558.873867
 30
0.0
  0
VERTEX
  5
14CD
330
14C8
100
AcDbEntity
  8
SCHRAFFUR_RAND
100
AcDbVertex
100
AcDb2dVertex
 10
494.7240589999999
 20
557.422867
 30
0.0
  0
VERTEX
  5
14CE
330
14C8
100
AcDbEntity
  8
SCHRAFFUR_RAND
100
AcDbVertex
100
AcDb2dVertex
 10
492.703059
 20
557.018867
 30
0.0
  0
VERTEX
  5
14CF
330
14C8
100
AcDbEntity
  8
SCHRAFFUR_RAND
100
AcDbVertex
100
AcDb2dVertex
 10
341.965059
 20
557.018867
 30
0.0
  0
VERTEX
  5
14D0
330
14C8
100
AcDbEntity
  8
SCHRAFFUR_RAND
100
AcDbVertex
100
AcDb2dVertex
 10
339.944059
 20
557.422867
 30
0.0
  0
VERTEX
  5
14D1
330
14C8
100
AcDbEntity
  8
SCHRAFFUR_RAND
100
AcDbVertex
100
AcDb2dVertex
 10
338.442059
 20
558.873867
 30
0.0
  0
VERTEX
  5
14D2
330
14C8
100
AcDbEntity
  8
SCHRAFFUR_RAND
100
AcDbVertex
100
AcDb2dVertex
 10
337.968059
 20
560.878867
 30
0.0
  0
VERTEX
  5
14D3
330
14C8
100
AcDbEntity
  8
SCHRAFFUR_RAND
100
AcDbVertex
100
AcDb2dVertex
 10
337.334059
 20
579.018867
 30
0.0
  0
VERTEX
  5
14D4
330
14C8
100
AcDbEntity
  8
SCHRAFFUR_RAND
100
AcDbVertex
100
AcDb2dVertex
 10
331.335059
 20
579.0008669999999
 30
0.0
  0
VERTEX
  5
14D5
330
14C8
100
AcDbEntity
  8
SCHRAFFUR_RAND
100
AcDbVertex
100
AcDb2dVertex
 10
331.509059
 20
574.018867
 30
0.0
  0
VERTEX
  5
14D6
330
14C8
100
AcDbEntity
  8
SCHRAFFUR_RAND
100
AcDbVertex
100
AcDb2dVertex
 10
332.465059
 20
574.018867
 30
0.0
  0
VERTEX
  5
14D7
330
14C8
100
AcDbEntity
  8
SCHRAFFUR_RAND
100
AcDbVertex
100
AcDb2dVertex
 10
333.576059
 20
573.569867
 30
0.0
  0
VERTEX
  5
14D8
330
14C8
100
AcDbEntity
  8
SCHRAFFUR_RAND
100
AcDbVertex
100
AcDb2dVertex
 10
334.064059
 20
572.473867
 30
0.0
  0
VERTEX
  5
14D9
330
14C8
100
AcDbEntity
  8
SCHRAFFUR_RAND
100
AcDbVertex
100
AcDb2dVertex
 10
335.061059
 20
543.930867
 30
0.0
  0
VERTEX
  5
14DA
330
14C8
100
AcDbEntity
  8
SCHRAFFUR_RAND
100
AcDbVertex
100
AcDb2dVertex
 10
338.379059
 20
543.634867
 30
0.0
  0
VERTEX
  5
14DB
330
14C8
100
AcDbEntity
  8
SCHRAFFUR_RAND
100
AcDbVertex
100
AcDb2dVertex
 10
340.7740589999999
 20
541.5598669999999
 30
0.0
  0
VERTEX
  5
14DC
330
14C8
100
AcDbEntity
  8
SCHRAFFUR_RAND
100
AcDbVertex
100
AcDb2dVertex
 10
341.519059
 20
539.0188669999999
 30
0.0
  0
VERTEX
  5
14DD
330
14C8
100
AcDbEntity
  8
SCHRAFFUR_RAND
100
AcDbVertex
100
AcDb2dVertex
 10
346.834059
 20
539.0188669999999
 30
0.0
  0
VERTEX
  5
14DE
330
14C8
100
AcDbEntity
  8
SCHRAFFUR_RAND
100
AcDbVertex
100
AcDb2dVertex
 10
346.903059
 20
540.3328669999999
 30
0.0
  0
VERTEX
  5
14DF
330
14C8
100
AcDbEntity
  8
SCHRAFFUR_RAND
100
AcDbVertex
100
AcDb2dVertex
 10
347.333059
 20
542.5828669999999
 30
0.0
  0
VERTEX
  5
14E0
330
14C8
100
AcDbEntity
  8
SCHRAFFUR_RAND
100
AcDbVertex
100
AcDb2dVertex
 10
348.679059
 20
544.4618669999999
 30
0.0
  0
VERTEX
  5
14E1
330
14C8
100
AcDbEntity
  8
SCHRAFFUR_RAND
100
AcDbVertex
100
AcDb2dVertex
 10
350.625059
 20
545.7068669999999
 30
0.0
  0
VERTEX
  5
14E2
330
14C8
100
AcDbEntity
  8
SCHRAFFUR_RAND
100
AcDbVertex
100
AcDb2dVertex
 10
352.895059
 20
546.0188669999999
 30
0.0
  0
VERTEX
  5
14E3
330
14C8
100
AcDbEntity
  8
SCHRAFFUR_RAND
100
AcDbVertex
100
AcDb2dVertex
 10
481.7740589999999
 20
546.0188669999999
 30
0.0
  0
VERTEX
  5
14E4
330
14C8
100
AcDbEntity
  8
SCHRAFFUR_RAND
100
AcDbVertex
100
AcDb2dVertex
 10
484.0430589999999
 20
545.7068669999999
 30
0.0
  0
VERTEX
  5
14E5
330
14C8
100
AcDbEntity
  8
SCHRAFFUR_RAND
100
AcDbVertex
100
AcDb2dVertex
 10
485.9900589999999
 20
544.4618669999999
 30
0.0
  0
VERTEX
  5
14E6
330
14C8
100
AcDbEntity
  8
SCHRAFFUR_RAND
100
AcDbVertex
100
AcDb2dVertex
 10
487.3360589999999
 20
542.5828669999999
 30
0.0
  0
VERTEX
  5
14E7
330
14C8
100
AcDbEntity
  8
SCHRAFFUR_RAND
100
AcDbVertex
100
AcDb2dVertex
 10
487.765059
 20
540.3328669999999
 30
0.0
  0
VERTEX
  5
14E8
330
14C8
100
AcDbEntity
  8
SCHRAFFUR_RAND
100
AcDbVertex
100
AcDb2dVertex
 10
487.8340589999999
 20
539.0188669999999
 30
0.0
  0
VERTEX
  5
14E9
330
14C8
100
AcDbEntity
  8
SCHRAFFUR_RAND
100
AcDbVertex
100
AcDb2dVertex
 10
493.149059
 20
539.0188669999999
 30
0.0
  0
VERTEX
  5
14EA
330
14C8
100
AcDbEntity
  8
SCHRAFFUR_RAND
100
AcDbVertex
100
AcDb2dVertex
 10
493.229059
 20
540.103867
 30
0.0
  0
VERTEX
  5
14EB
330
14C8
100
AcDbEntity
  8
SCHRAFFUR_RAND
100
AcDbVertex
100
AcDb2dVertex
 10
494.943059
 20
542.7698669999999
 30
0.0
  0
VERTEX
  5
14EC
330
14C8
100
AcDbEntity
  8
SCHRAFFUR_RAND
100
AcDbVertex
100
AcDb2dVertex
 10
497.8260589999999
 20
544.0858669999999
 30
0.0
  0
VERTEX
  5
14ED
330
14C8
100
AcDbEntity
  8
SCHRAFFUR_RAND
100
AcDbVertex
100
AcDb2dVertex
 10
499.607059
 20
543.930867
 30
0.0
  0
VERTEX
  5
14EE
330
14C8
100
AcDbEntity
  8
SCHRAFFUR_RAND
100
AcDbVertex
100
AcDb2dVertex
 10
500.605059
 20
572.473867
 30
0.0
  0
VERTEX
  5
14EF
330
14C8
100
AcDbEntity
  8
SCHRAFFUR_RAND
100
AcDbVertex
100
AcDb2dVertex
 10
501.092059
 20
573.569867
 30
0.0
  0
VERTEX
  5
14F0
330
14C8
100
AcDbEntity
  8
SCHRAFFUR_RAND
100
AcDbVertex
100
AcDb2dVertex
 10
502.2030589999999
 20
574.018867
 30
0.0
  0
VERTEX
  5
14F1
330
14C8
100
AcDbEntity
  8
SCHRAFFUR_RAND
100
AcDbVertex
100
AcDb2dVertex
 10
502.660059
 20
574.018867
 30
0.0
  0
VERTEX
  5
14F2
330
14C8
100
AcDbEntity
  8
SCHRAFFUR_RAND
100
AcDbVertex
100
AcDb2dVertex
 10
503.160059
 20
574.018867
 30
0.0
  0
VERTEX
  5
14F3
330
14C8
100
AcDbEntity
  8
SCHRAFFUR_RAND
100
AcDbVertex
100
AcDb2dVertex
 10
503.3340589999999
 20
579.0008669999999
 30
0.0
  0
SEQEND
  5
14F4
330
14C8
100
AcDbEntity
  8
SCHRAFFUR_RAND
  0
DIMENSION
  5
159A
330
1609
100
AcDbEntity
  8
5
100
AcDbDimension
  2
*D5
 10
138.083444
 20
579.0098669999999
 30
0.0
 11
126.333444
 21
491.5098669999999
 31
0.0
 70
    32
  1
175
 71
     5
 42
-1.0
  3
GEN-ISO
100
AcDbAlignedDimension
 13
349.834059
 23
404.0098669999999
 33
0.0
 14
318.834059
 24
579.0098669999999
 34
0.0
 50
90.0
100
AcDbRotatedDimension
  0
DIMENSION
  5
15A3
330
1609
100
AcDbEntity
  8
5
100
AcDbDimension
  2
*D10
 10
188.083444
 20
579.016867
 30
0.0
 11
176.333444
 21
554.016867
 31
0.0
 70
    32
  1
50
 71
     5
 42
-1.0
  3
GEN-ISO
100
AcDbAlignedDimension
 13
287.334059
 23
529.016867
 33
0.0
 14
263.824059
 24
579.016867
 34
0.0
 50
90.0
100
AcDbRotatedDimension
  0
DIMENSION
  5
15AD
330
1609
100
AcDbEntity
  8
5
100
AcDbDimension
  2
*D9
 10
189.334059
 20
304.018867
 30
0.0
 11
177.584059
 21
205.518867
 31
0.0
 70
    32
  1
{\Fgeniso.shx;\U+25A1}197
 71
     5
 42
-1.0
  3
GEN-ISO
100
AcDbAlignedDimension
 13
316.741059
 23
107.018867
 33
0.0
 14
316.741059
 24
304.018867
 34
0.0
 50
90.0
100
AcDbRotatedDimension
1001
GENIUS_GENDTOL_13
1000

1000
B2/max
1000

1040
0.0
1000
{\Fgeniso.shx;\U+25A1}197
  0
DIMENSION
  5
15B7
330
1609
100
AcDbEntity
  8
5
100
AcDbDimension
  2
*D8
 10
238.083444
 20
579.018867
 30
0.0
 11
226.331721
 21
617.3915779999999
 31
0.0
 70
    32
  1
22
 71
     5
 42
-1.0
  3
GEN-ISO
100
AcDbAlignedDimension
 13
341.965059
 23
557.017867
 33
0.0
 14
297.668059
 24
579.018867
 34
0.0
 50
90.0
100
AcDbRotatedDimension
  0
DIMENSION
  5
15C1
330
1609
100
AcDbEntity
  8
5
100
AcDbDimension
  2
*D7
 10
547.334059
 20
57.01886700000001
 30
0.0
 11
417.3340589999999
 21
68.770589
 31
0.0
 70
    32
  1
260
 71
     5
 42
-1.0
  3
GEN-ISO
100
AcDbAlignedDimension
 13
287.334059
 23
178.001867
 33
0.0
 14
547.334059
 24
178.001867
 34
0.0
100
AcDbRotatedDimension
  0
DIMENSION
  5
15CC
330
1609
100
AcDbEntity
  8
5
100
AcDbDimension
  2
*D6
 10
239.334059
 20
210.018867
 30
0.0
 11
227.584059
 21
242.477171
 31
0.0
 70
    32
  1
9
 71
     5
 42
-1.0
  3
GEN-ISO
100
AcDbAlignedDimension
 13
302.861059
 23
201.018867
 33
0.0
 14
302.861059
 24
210.018867
 34
0.0
 50
90.0
100
AcDbRotatedDimension
  0
INSERT
  5
169C
330
1609
100
AcDbEntity
  8
0
100
AcDbBlockReference
  2
KATALOG_LEER
 10
251.839706
 20
11.304483
 30
0.0
 41
5.0
 42
5.0
 43
5.0
1001
GENIUS_GENOREF_13
1005
169D
  0
POINT
  5
169D
330
1609
100
AcDbEntity
  8
0
 60
     1
100
AcDbPoint
 10
0.0
 20
0.0
 30
0.0
1001
GENIUS_GENOBJ-N-TIT_13
1002
{
1000
OWNER
1000
GEN
1002
}
1001
GENIUS_GENOENT_13
1002
{
1000
MYREF
1005
169D
1002
}
1002
{
1000
GRP
1005
0
1002
}
1001
GENIUS_GENOLIS_13
1002
{
1000
ENT
1005
169C
1002
}
1001
GENIUS_GENTITLE_13
1002
{
1000
SCALE
1000
1:5
1002
}
1002
{
1000
BORDER
1000
KATALOG
1002
}
1002
{
1000
TITLE
1000
KATALOG_LEER
1002
}
1002
{
1000
UNCHG
1002
{
1000
GEN-TITLE-SCA
1000
GEN-TITLE-SIZ
1002
}
1002
}
1002
{
1000
HRA
1005
1695
1002
}
1002
{
1000
HTIT
1005
169C
1002
}
1002
{
1000
GENIUSID
1005
169D
1002
}
1001
GENIUS_GENODEF_13
1002
{
1000
HIER
1070
     1
1002
}
1002
{
1000
MANEDIT
1070
     1
1002
}
1002
{
1000
NOSEL
1070
     0
1002
}
1002
{
1000
BEHIND
1070
     0
1002
}
1002
{
1000
REACTOR
1002
}
  0
HATCH
  5
19B0
330
1609
100
AcDbEntity
  8
8
100
AcDbHatch
 10
0.0
 20
0.0
 30
0.0
210
0.0
220
0.0
230
1.0
  2
_U
 70
     0
 71
     0
 91
        1
 92
        1
 93
        4
 72
     1
 10
538.5570589999999
 20
539.0728669999999
 11
536.3070589999999
 21
529.018867
 72
     1
 10
536.3070589999999
 20
529.018867
 11
547.334059
 21
529.018867
 72
     1
 10
547.334059
 20
529.018867
 11
546.811059
 21
539.0048669999999
 72
     1
 10
546.811059
 20
539.0048669999999
 11
538.5570589999999
 21
539.0728669999999
 97
        0
 75
     0
 76
     0
 52
45.0
 41
3.0
 77
     0
 78
     1
 53
45.0
 43
0.0
 44
0.0
 45
-2.121320343559641
 46
2.121320343559641
 79
     0
 98
        1
 10
0.0
 20
0.0
1001
GENIUS_GENODEF_13
1002
{
1000
HIER
1070
     0
1002
}
1002
{
1000
MANEDIT
1070
     0
1002
}
1002
{
1000
NOSEL
1070
     0
1002
}
1002
{
1000
BEHIND
1070
     0
1002
}
1002
{
1000
REACTOR
1002
}
1001
GENIUS_GENOBJ-N-HTC_13
1002
{
1000
OWNER
1000
GEN
1002
}
1001
GENIUS_GENHATCH_13
1002
{
1000
DATA
1040
45.0
1042
1.0
1000
_U
1070
     0
1011
543.3493639999999
1021
533.403707
1031
0.0
1002
}
1002
{
1000
UCS
1010
0.0
1020
0.0
1030
0.0
1010
1.0
1020
0.0
1030
0.0
1010
0.0
1020
1.0
1030
0.0
1002
}
  0
HATCH
  5
19FD
330
1609
100
AcDbEntity
  8
8
100
AcDbHatch
 10
0.0
 20
0.0
 30
0.0
210
0.0
220
0.0
230
1.0
  2
_U
 70
     0
 71
     0
 91
        1
 92
        1
 93
       72
 72
     1
 10
502.944059
 20
523.263867
 11
503.5139679999999
 21
524.0587739999999
 72
     2
 10
512.151059
 20
519.018867
 40
10.0
 50
210.264376
 51
221.012946
 73
     0
 72
     1
 10
504.6054459999999
 20
525.5811620000001
 11
505.173059
 21
526.372867
 72
     1
 10
505.173059
 20
526.372867
 11
505.993123
 21
526.8979419999999
 72
     2
 10
512.151059
 20
519.018867
 40
10.0
 50
231.990394
 51
242.7479100000001
 73
     0
 72
     1
 10
507.5719949999999
 20
527.9088709999999
 11
508.3950589999999
 21
528.435867
 72
     1
 10
508.3950589999999
 20
528.435867
 11
509.1197259999999
 21
528.548348
 72
     2
 10
512.151059
 20
519.018867
 40
10.0
 50
252.354104
 51
270.0
 73
     0
 72
     1
 10
512.151059
 20
529.018867
 11
527.3070589999999
 21
529.018867
 72
     1
 10
527.3070589999999
 20
529.018867
 11
525.0570589999999
 21
539.0728669999999
 72
     1
 10
525.0570589999999
 20
539.0728669999999
 11
517.9280589999999
 21
539.0728669999999
 72
     1
 10
517.9280589999999
 20
539.0728669999999
 11
517.9280059999999
 21
539.0738669999999
 72
     1
 10
517.9280059999999
 20
539.0738669999999
 11
517.9270589999999
 21
539.0738669999999
 72
     1
 10
517.9270589999999
 20
539.0738669999999
 11
515.834059
 21
579.018867
 72
     1
 10
515.834059
 20
579.018867
 11
507.8340589999999
 21
579.018867
 72
     1
 10
507.8340589999999
 20
579.018867
 11
504.6830589999999
 21
570.360867
 72
     1
 10
504.6830589999999
 20
570.360867
 11
504.1267969999999
 21
538.465183
 72
     2
 10
498.627059
 20
538.5188669999999
 40
5.5
 50
0.5592520000000001
 51
10.196492
 73
     0
 72
     1
 10
504.040194
 20
537.545232
 11
504.022059
 21
537.3598669999999
 72
     1
 10
504.022059
 20
537.3598669999999
 11
504.007059
 21
537.290867
 72
     1
 10
504.007059
 20
537.290867
 11
503.919665
 21
537.0227639999999
 72
     2
 10
498.627059
 20
538.5188669999999
 40
5.5
 50
15.784424
 51
20.324681
 73
     0
 72
     1
 10
503.784625
 20
536.608499
 11
503.697059
 21
536.339867
 72
     1
 10
503.697059
 20
536.339867
 11
503.598059
 21
536.123867
 72
     1
 10
503.598059
 20
536.123867
 11
503.582026
 21
536.096078
 72
     1
 10
503.582026
 20
536.096078
 11
503.4760589999999
 21
535.642867
 72
     1
 10
503.4760589999999
 20
535.642867
 11
503.048006
 21
535.2220909999999
 72
     1
 10
503.048006
 20
535.2220909999999
 11
502.941059
 21
535.0778669999999
 72
     1
 10
502.941059
 20
535.0778669999999
 11
502.4940589999999
 21
534.5818669999999
 72
     1
 10
502.4940589999999
 20
534.5818669999999
 11
502.0670589999999
 21
534.2038669999999
 72
     1
 10
502.0670589999999
 20
534.2038669999999
 11
501.8571950000001
 21
534.0515209999999
 72
     1
 10
501.8571950000001
 20
534.0515209999999
 11
501.4170589999999
 21
533.618867
 72
     1
 10
501.4170589999999
 20
533.618867
 11
500.968059
 21
533.3898669999999
 72
     1
 10
500.968059
 20
533.3898669999999
 11
500.331827
 21
533.289037
 72
     1
 10
500.331827
 20
533.289037
 11
499.8550589999999
 21
533.137867
 72
     1
 10
499.8550589999999
 20
533.137867
 11
499.6910589999999
 21
533.103867
 72
     1
 10
499.6910589999999
 20
533.103867
 11
499.500246
 21
533.088623
 72
     2
 10
498.627059
 20
538.5188669999999
 40
5.5
 50
80.86499899999999
 51
90.0
 73
     0
 72
     1
 10
498.627059
 20
533.018867
 11
497.8240589999999
 21
532.9378669999999
 72
     1
 10
497.8240589999999
 20
532.9378669999999
 11
492.8340589999999
 21
533.018867
 72
     1
 10
492.8340589999999
 20
533.018867
 11
492.227059
 21
498.220867
 72
     1
 10
492.227059
 20
498.220867
 11
492.2264049999999
 21
498.2185499999999
 72
     2
 10
488.227059
 20
498.2908669999999
 40
4.0
 50
1.035924
 51
30.476144
 73
     0
 72
     1
 10
491.67442
 20
496.262149
 11
491.6740589999999
 21
496.260867
 72
     1
 10
491.6740589999999
 20
496.260867
 11
491.6731139999999
 21
496.2599309999999
 72
     1
 10
491.6731139999999
 20
496.2599309999999
 11
490.2270589999999
 21
494.826867
 72
     1
 10
490.2270589999999
 20
494.826867
 11
482.8340589999999
 21
490.5578669999999
 72
     1
 10
482.8340589999999
 20
490.5578669999999
 11
480.69629
 21
488.901598
 72
     2
 10
487.8340589999999
 20
481.8978669999999
 40
10.0
 50
135.543052
 51
146.783632
 73
     1
 72
     1
 10
479.4679799999999
 20
487.3758889999999
 11
478.908374
 21
486.4069859999999
 72
     2
 10
487.8340589999999
 20
481.8978669999999
 40
10.0
 50
153.197793
 51
164.466719
 73
     1
 72
     1
 10
478.199308
 20
484.575848
 11
477.8340589999999
 21
481.8978669999999
 72
     1
 10
477.8340589999999
 20
481.8978669999999
 11
477.8340589999999
 21
429.018867
 72
     1
 10
477.8340589999999
 20
429.018867
 11
477.1540589999999
 21
424.018867
 72
     1
 10
477.1540589999999
 20
424.018867
 11
477.1540589999999
 21
404.018867
 72
     1
 10
477.1540589999999
 20
404.018867
 11
484.8340589999999
 21
404.018867
 72
     1
 10
484.8340589999999
 20
404.018867
 11
484.8340589999999
 21
481.3608669999999
 72
     1
 10
484.8340589999999
 20
481.3608669999999
 11
484.8342009999999
 21
481.3621259999999
 72
     2
 10
490.8340589999999
 20
481.3208669999999
 40
6.0
 50
180.393998
 51
192.463498
 73
     0
 72
     1
 10
484.9754569999999
 20
482.615772
 11
485.066059
 21
483.419867
 72
     1
 10
485.066059
 20
483.419867
 11
486.132059
 21
485.2668669999999
 72
     1
 10
486.132059
 20
485.2668669999999
 11
487.8340589999999
 21
486.516867
 72
     1
 10
487.8340589999999
 20
486.516867
 11
496.1250589999999
 21
491.3038669999999
 72
     1
 10
496.1250589999999
 20
491.3038669999999
 11
496.1292059999999
 21
491.3070089999999
 72
     1
 10
496.1292059999999
 20
491.3070089999999
 11
498.1046429999999
 21
492.8034839999999
 72
     2
 10
491.1250589999999
 20
499.964867
 40
10.0
 50
314.2634360000001
 51
328.284566
 73
     1
 72
     1
 10
499.6317539999999
 20
494.707859
 11
499.6718949999999
 21
494.773374
 72
     2
 10
491.1250589999999
 20
499.964867
 40
10.0
 50
328.7247980000001
 51
342.713959
 73
     1
 72
     1
 10
500.673391
 20
496.9934440000001
 11
501.111013
 21
499.4350299999999
 72
     1
 10
501.111013
 20
499.4350299999999
 11
501.1120589999999
 21
499.4408669999999
 72
     1
 10
501.1120589999999
 20
499.4408669999999
 11
502.165059
 21
519.541867
 72
     1
 10
502.165059
 20
519.541867
 11
502.944059
 21
523.263867
 97
        0
 75
     0
 76
     0
 52
45.0
 41
5.0
 77
     0
 78
     1
 53
45.0
 43
0.0
 44
0.0
 45
-3.535533905932736
 46
3.535533905932736
 79
     0
 98
        1
 10
0.0
 20
0.0
1001
GENIUS_GENODEF_13
1002
{
1000
HIER
1070
     0
1002
}
1002
{
1000
MANEDIT
1070
     0
1002
}
1002
{
1000
NOSEL
1070
     0
1002
}
1002
{
1000
BEHIND
1070
     0
1002
}
1002
{
1000
REACTOR
1002
}
1001
GENIUS_GENOBJ-N-HTC_13
1002
{
1000
OWNER
1000
GEN
1002
}
1001
GENIUS_GENHATCH_13
1002
{
1000
DATA
1040
45.0
1042
1.0
1000
_U
1070
     0
1011
514.6261319999999
1021
531.931413
1031
0.0
1002
}
1002
{
1000
UCS
1010
0.0
1020
0.0
1030
0.0
1010
1.0
1020
0.0
1030
0.0
1010
0.0
1020
1.0
1030
0.0
1002
}
  0
HATCH
  5
1A37
330
1609
100
AcDbEntity
  8
8
100
AcDbHatch
 10
0.0
 20
0.0
 30
0.0
210
0.0
220
0.0
230
1.0
  2
_U
 70
     0
 71
     0
 91
        1
 92
        1
 93
       53
 72
     1
 10
348.537059
 20
485.2668669999999
 11
349.602059
 21
483.419867
 72
     1
 10
349.602059
 20
483.419867
 11
349.692661
 21
482.615772
 72
     2
 10
343.834059
 20
481.3208669999999
 40
6.0
 50
347.536502
 51
359.606002
 73
     0
 72
     1
 10
349.833917
 20
481.3621259999999
 11
349.834059
 21
481.3608669999999
 72
     1
 10
349.834059
 20
481.3608669999999
 11
349.834059
 21
404.018867
 72
     1
 10
349.834059
 20
404.018867
 11
357.514059
 21
404.018867
 72
     1
 10
357.514059
 20
404.018867
 11
357.514059
 21
424.018867
 72
     1
 10
357.514059
 20
424.018867
 11
356.834059
 21
429.018867
 72
     1
 10
356.834059
 20
429.018867
 11
356.834059
 21
481.8978669999999
 72
     1
 10
356.834059
 20
481.8978669999999
 11
356.468809
 21
484.575848
 72
     2
 10
346.834059
 20
481.8978669999999
 40
10.0
 50
15.533281
 51
26.832774
 73
     1
 72
     1
 10
355.757336
 20
486.411747
 11
355.20575
 21
487.367307
 72
     2
 10
346.834059
 20
481.8978669999999
 40
10.0
 50
33.157615
 51
44.476989
 73
     1
 72
     1
 10
353.969378
 20
488.904094
 11
351.834059
 21
490.5578669999999
 72
     1
 10
351.834059
 20
490.5578669999999
 11
344.441059
 21
494.826867
 72
     1
 10
344.441059
 20
494.826867
 11
342.995003
 21
496.2599309999999
 72
     1
 10
342.995003
 20
496.2599309999999
 11
342.994059
 21
496.260867
 72
     1
 10
342.994059
 20
496.260867
 11
342.993698
 21
496.262146
 72
     1
 10
342.993698
 20
496.262146
 11
342.442059
 21
498.220867
 72
     1
 10
342.442059
 20
498.220867
 11
341.834059
 21
533.018867
 72
     1
 10
341.834059
 20
533.018867
 11
336.042059
 21
533.018867
 72
     1
 10
336.042059
 20
533.018867
 11
335.239059
 21
532.9378669999999
 72
     1
 10
335.239059
 20
532.9378669999999
 11
333.251059
 21
533.618867
 72
     1
 10
333.251059
 20
533.618867
 11
332.349059
 21
534.257867
 72
     1
 10
332.349059
 20
534.257867
 11
331.192059
 21
535.642867
 72
     1
 10
331.192059
 20
535.642867
 11
330.632059
 21
536.9298669999999
 72
     1
 10
330.632059
 20
536.9298669999999
 11
330.570825
 21
537.957087
 72
     2
 10
336.042059
 20
538.5188669999999
 40
5.5
 50
174.137477
 51
179.438954
 73
     0
 72
     1
 10
330.542322
 20
538.4650109999999
 11
329.985059
 21
570.360867
 72
     1
 10
329.985059
 20
570.360867
 11
326.834059
 21
579.018867
 72
     1
 10
326.834059
 20
579.018867
 11
318.834059
 21
579.018867
 72
     1
 10
318.834059
 20
579.018867
 11
316.741059
 21
539.0728669999999
 72
     1
 10
316.741059
 20
539.0728669999999
 11
309.611059
 21
539.0728669999999
 72
     1
 10
309.611059
 20
539.0728669999999
 11
307.361059
 21
529.018867
 72
     1
 10
307.361059
 20
529.018867
 11
322.517059
 21
529.018867
 72
     2
 10
322.517059
 20
519.018867
 40
10.0
 50
270.0
 51
287.6412730000001
 73
     0
 72
     1
 10
325.547623
 20
528.548593
 11
326.274059
 21
528.435867
 72
     1
 10
326.274059
 20
528.435867
 11
327.101251
 21
527.906228
 72
     2
 10
322.517059
 20
519.018867
 40
10.0
 50
297.28515
 51
307.976546
 73
     0
 72
     1
 10
328.670447
 20
526.901494
 11
329.496059
 21
526.372867
 72
     1
 10
329.496059
 20
526.372867
 11
330.0669200000001
 21
525.576274
 72
     2
 10
322.517059
 20
519.018867
 40
10.0
 50
319.024159
 51
329.722867
 73
     0
 72
     1
 10
331.153027
 20
524.0606969999999
 11
331.724059
 21
523.263867
 72
     1
 10
331.724059
 20
523.263867
 11
332.503059
 21
519.541867
 72
     1
 10
332.503059
 20
519.541867
 11
333.557059
 21
499.4408669999999
 72
     1
 10
333.557059
 20
499.4408669999999
 11
333.995321
 21
496.9915349999999
 72
     2
 10
343.543059
 20
499.964867
 40
10.0
 50
197.297496
 51
211.275202
 73
     1
 72
     1
 10
334.996223
 20
494.773374
 11
335.036364
 21
494.707859
 72
     2
 10
343.543059
 20
499.964867
 40
10.0
 50
211.715434
 51
225.7365640000001
 73
     1
 72
     1
 10
336.563475
 20
492.8034839999999
 11
338.5389120000001
 21
491.3070089999999
 72
     1
 10
338.5389120000001
 20
491.3070089999999
 11
338.543059
 21
491.3038669999999
 72
     1
 10
338.543059
 20
491.3038669999999
 11
346.834059
 21
486.516867
 72
     1
 10
346.834059
 20
486.516867
 11
348.537059
 21
485.2668669999999
 97
        0
 75
     0
 76
     0
 52
45.0
 41
5.0
 77
     0
 78
     1
 53
45.0
 43
0.0
 44
0.0
 45
-3.535533905932736
 46
3.535533905932736
 79
     0
 98
        1
 10
0.0
 20
0.0
1001
GENIUS_GENODEF_13
1002
{
1000
HIER
1070
     0
1002
}
1002
{
1000
MANEDIT
1070
     0
1002
}
1002
{
1000
NOSEL
1070
     0
1002
}
1002
{
1000
BEHIND
1070
     0
1002
}
1002
{
1000
REACTOR
1002
}
1001
GENIUS_GENOBJ-N-HTC_13
1002
{
1000
OWNER
1000
GEN
1002
}
1001
GENIUS_GENHATCH_13
1002
{
1000
DATA
1040
45.0
1042
1.0
1000
_U
1070
     0
1011
352.597648
1021
482.609576
1031
0.0
1002
}
1002
{
1000
UCS
1010
0.0
1020
0.0
1030
0.0
1010
1.0
1020
0.0
1030
0.0
1010
0.0
1020
1.0
1030
0.0
1002
}
  0
HATCH
  5
1A40
330
1609
100
AcDbEntity
  8
8
100
AcDbHatch
 10
0.0
 20
0.0
 30
0.0
210
0.0
220
0.0
230
1.0
  2
_U
 70
     0
 71
     0
 91
        1
 92
        1
 93
        4
 72
     1
 10
296.111059
 20
539.0728669999999
 11
287.858059
 21
539.0048669999999
 72
     1
 10
287.858059
 20
539.0048669999999
 11
287.334059
 21
529.018867
 72
     1
 10
287.334059
 20
529.018867
 11
298.361059
 21
529.018867
 72
     1
 10
298.361059
 20
529.018867
 11
296.111059
 21
539.0728669999999
 97
        0
 75
     0
 76
     0
 52
45.0
 41
3.0
 77
     0
 78
     1
 53
45.0
 43
0.0
 44
0.0
 45
-2.121320343559641
 46
2.121320343559641
 79
     0
 98
        1
 10
0.0
 20
0.0
1001
GENIUS_GENODEF_13
1002
{
1000
HIER
1070
     0
1002
}
1002
{
1000
MANEDIT
1070
     0
1002
}
1002
{
1000
NOSEL
1070
     0
1002
}
1002
{
1000
BEHIND
1070
     0
1002
}
1002
{
1000
REACTOR
1002
}
1001
GENIUS_GENOBJ-N-HTC_13
1002
{
1000
OWNER
1000
GEN
1002
}
1001
GENIUS_GENHATCH_13
1002
{
1000
DATA
1040
45.0
1042
1.0
1000
_U
1070
     0
1011
292.941706
1021
531.931413
1031
0.0
1002
}
1002
{
1000
UCS
1010
0.0
1020
0.0
1030
0.0
1010
1.0
1020
0.0
1030
0.0
1010
0.0
1020
1.0
1030
0.0
1002
}
  0
HATCH
  5
1A9F
330
1609
100
AcDbEntity
  8
8
100
AcDbHatch
 10
0.0
 20
0.0
 30
0.0
210
0.0
220
0.0
230
1.0
  2
_U
 70
     0
 71
     0
 91
        1
 92
        1
 93
       90
 72
     1
 10
503.3340589999999
 20
579.0008669999999
 11
497.3340589999999
 21
579.018867
 72
     1
 10
497.3340589999999
 20
579.018867
 11
496.701059
 21
560.878867
 72
     1
 10
496.701059
 20
560.878867
 11
496.700529
 21
560.876625
 72
     2
 10
492.703059
 20
561.018867
 40
4.0
 50
2.037887
 51
24.564175
 73
     0
 72
     1
 10
496.341044
 20
559.3560179999999
 11
496.227059
 21
558.873867
 72
     1
 10
496.227059
 20
558.873867
 11
495.6698929999999
 21
558.3359780000001
 72
     2
 10
492.703059
 20
561.018867
 40
4.0
 50
42.122839
 51
49.894137
 73
     0
 72
     1
 10
495.279866
 20
557.959445
 11
494.7240589999999
 21
557.422867
 72
     1
 10
494.7240589999999
 20
557.422867
 11
494.240818
 21
557.326266
 72
     2
 10
492.703059
 20
561.018867
 40
4.0
 50
67.391039
 51
90.0
 73
     0
 72
     1
 10
492.703059
 20
557.018867
 11
341.965059
 21
557.018867
 72
     2
 10
341.965059
 20
561.018867
 40
4.0
 50
90.0
 51
112.608961
 73
     0
 72
     1
 10
340.4273
 20
557.326266
 11
339.944059
 21
557.422867
 72
     1
 10
339.944059
 20
557.422867
 11
339.391118
 21
557.957032
 72
     2
 10
341.965059
 20
561.018867
 40
4.0
 50
130.052187
 51
137.968948
 73
     0
 72
     1
 10
338.99393
 20
558.3407339999999
 11
338.442059
 21
558.873867
 72
     1
 10
338.442059
 20
558.873867
 11
337.968059
 21
560.878867
 72
     1
 10
337.968059
 20
560.878867
 11
337.334059
 21
579.018867
 72
     1
 10
337.334059
 20
579.018867
 11
331.335059
 21
579.0008669999999
 72
     1
 10
331.335059
 20
579.0008669999999
 11
331.509059
 21
574.018867
 72
     1
 10
331.509059
 20
574.018867
 11
332.465059
 21
574.018867
 72
     1
 10
332.465059
 20
574.018867
 11
333.576059
 21
573.569867
 72
     1
 10
333.576059
 20
573.569867
 11
334.064059
 21
572.473867
 72
     1
 10
334.064059
 20
572.473867
 11
335.061059
 21
543.930867
 72
     1
 10
335.061059
 20
543.930867
 11
335.083728
 21
543.934733
 72
     2
 10
336.042059
 20
538.5188669999999
 40
5.5
 50
259.965453
 51
260.679456
 73
     0
 72
     1
 10
335.151292
 20
543.946254
 11
335.665059
 21
544.033867
 72
     1
 10
335.665059
 20
544.033867
 11
335.907723
 21
544.0172259999999
 72
     2
 10
336.042059
 20
538.5188669999999
 40
5.5
 50
268.600434
 51
279.245425
 73
     0
 72
     1
 10
336.925709
 20
543.9474169999999
 11
337.167059
 21
543.930867
 72
     1
 10
337.167059
 20
543.930867
 11
337.3948410000001
 21
543.8499059999998
 72
     2
 10
336.042059
 20
538.5188669999999
 40
5.5
 50
284.238598
 51
290.462611
 73
     0
 72
     1
 10
337.964837
 20
543.67182
 11
338.379059
 21
543.634867
 72
     1
 10
338.379059
 20
543.634867
 11
338.768783
 21
543.2972139999999
 72
     1
 10
338.768783
 20
543.2972139999999
 11
338.782666
 21
543.2874169999999
 72
     2
 10
336.042059
 20
538.5188669999999
 40
5.5
 50
299.887082
 51
310.533472
 73
     0
 72
     1
 10
339.616466
 20
542.699012
 11
339.815059
 21
542.5588669999999
 72
     1
 10
339.815059
 20
542.5588669999999
 11
339.96839
 21
542.37035
 72
     2
 10
336.042059
 20
538.5188669999999
 40
5.5
 50
315.55136
 51
322.014998
 73
     0
 72
     1
 10
340.377004
 20
541.9038699999999
 11
340.7740589999999
 21
541.5598669999999
 72
     1
 10
340.7740589999999
 20
541.5598669999999
 11
340.92163
 21
541.05654
 72
     2
 10
336.042059
 20
538.5188669999999
 40
5.5
 50
332.522834
 51
341.841533
 73
     0
 72
     1
 10
341.268149
 20
540.232921
 11
341.365059
 21
540.009867
 72
     1
 10
341.365059
 20
540.009867
 11
341.411961
 21
539.7080459999999
 72
     2
 10
336.042059
 20
538.5188669999999
 40
5.5
 50
347.513221
 51
354.784091
 73
     0
 72
     1
 10
341.519284
 20
539.0188669999999
 11
346.834059
 21
539.0188669999999
 72
     1
 10
346.834059
 20
539.0188669999999
 11
346.903059
 21
540.3328669999999
 72
     1
 10
346.903059
 20
540.3328669999999
 11
346.903365
 21
540.3344689999999
 72
     2
 10
352.895059
 20
540.018867
 40
6.0
 50
183.015167
 51
198.62363
 73
     0
 72
     1
 10
347.209238
 20
541.934968
 11
347.333059
 21
542.5828669999999
 72
     1
 10
347.333059
 20
542.5828669999999
 11
348.679059
 21
544.4618669999999
 72
     1
 10
348.679059
 20
544.4618669999999
 11
350.625059
 21
545.7068669999999
 72
     1
 10
350.625059
 20
545.7068669999999
 11
351.2763
 21
545.796377
 72
     2
 10
352.895059
 20
540.018867
 40
6.0
 50
254.34804
 51
270.0
 73
     0
 72
     1
 10
352.895059
 20
546.0188669999999
 11
481.7740589999999
 21
546.0188669999999
 72
     2
 10
481.7740589999999
 20
540.018867
 40
6.0
 50
270.0
 51
285.658773
 73
     0
 72
     1
 10
483.393505
 20
545.796184
 11
484.0430589999999
 21
545.7068669999999
 72
     1
 10
484.0430589999999
 20
545.7068669999999
 11
485.9900589999999
 21
544.4618669999999
 72
     1
 10
485.9900589999999
 20
544.4618669999999
 11
487.3360589999999
 21
542.5828669999999
 72
     1
 10
487.3360589999999
 20
542.5828669999999
 11
487.765059
 21
540.3328669999999
 72
     1
 10
487.765059
 20
540.3328669999999
 11
487.8340589999999
 21
539.0188669999999
 72
     1
 10
487.8340589999999
 20
539.0188669999999
 11
493.149059
 21
539.0188669999999
 72
     1
 10
493.149059
 20
539.0188669999999
 11
493.229059
 21
540.103867
 72
     1
 10
493.229059
 20
540.103867
 11
493.515786
 21
540.54985
 72
     2
 10
498.627059
 20
538.5188669999999
 40
5.5
 50
201.670585
 51
203.571592
 73
     0
 72
     1
 10
493.585973
 20
540.718287
 11
493.6540589999999
 21
540.912867
 72
     1
 10
493.6540589999999
 20
540.912867
 11
493.7632129999999
 21
541.0865509999999
 72
     2
 10
498.627059
 20
538.5188669999999
 40
5.5
 50
207.83013
 51
216.465494
 73
     0
 72
     1
 10
494.2038769999999
 20
541.7877289999999
 11
494.3120589999999
 21
541.959867
 72
     1
 10
494.3120589999999
 20
541.959867
 11
494.455604
 21
542.103412
 72
     2
 10
498.627059
 20
538.5188669999999
 40
5.5
 50
220.6725720000001
 51
223.804212
 73
     0
 72
     1
 10
494.657657
 20
542.325946
 11
494.943059
 21
542.7698669999999
 72
     1
 10
494.943059
 20
542.7698669999999
 11
495.4219659999999
 21
542.988473
 72
     2
 10
498.627059
 20
538.5188669999999
 40
5.5
 50
234.356217
 51
242.213181
 73
     0
 72
     1
 10
496.0630519999999
 20
543.3846519999999
 11
496.232059
 21
543.4908669999999
 72
     1
 10
496.232059
 20
543.4908669999999
 11
496.4195509999999
 21
543.556417
 72
     2
 10
498.627059
 20
538.5188669999999
 40
5.5
 50
246.336463
 51
255.122814
 73
     0
 72
     1
 10
497.2149449999999
 20
543.834498
 11
497.3990589999999
 21
543.8988669999999
 72
     1
 10
497.3990589999999
 20
543.8988669999999
 11
497.422053
 21
543.9014509999999
 72
     1
 10
497.422053
 20
543.9014509999999
 11
497.8260589999999
 21
544.0858669999999
 72
     1
 10
497.8260589999999
 20
544.0858669999999
 11
498.523197
 21
544.025195
 72
     1
 10
498.523197
 20
544.025195
 11
498.627059
 21
544.036867
 72
     1
 10
498.627059
 20
544.036867
 11
498.8271269999999
 21
544.0152269999999
 72
     2
 10
498.627059
 20
538.5188669999999
 40
5.5
 50
272.084656
 51
280.261942
 73
     0
 72
     1
 10
499.6068759999999
 20
543.9308869999999
 11
499.607059
 21
543.930867
 72
     1
 10
499.607059
 20
543.930867
 11
500.605059
 21
572.473867
 72
     1
 10
500.605059
 20
572.473867
 11
501.092059
 21
573.569867
 72
     1
 10
501.092059
 20
573.569867
 11
502.2030589999999
 21
574.018867
 72
     1
 10
502.2030589999999
 20
574.018867
 11
503.160059
 21
574.018867
 72
     1
 10
503.160059
 20
574.018867
 11
503.3340589999999
 21
579.0008669999999
 97
        0
 75
     0
 76
     0
 52
135.0
 41
5.0
 77
     0
 78
     1
 53
135.0
 43
0.0
 44
0.0
 45
-3.535533905932736
 46
-3.535533905932736
 79
     0
 98
        1
 10
0.0
 20
0.0
1001
GENIUS_GENODEF_13
1002
{
1000
HIER
1070
     0
1002
}
1002
{
1000
MANEDIT
1070
     0
1002
}
1002
{
1000
NOSEL
1070
     0
1002
}
1002
{
1000
BEHIND
1070
     0
1002
}
1002
{
1000
REACTOR
1002
}
1001
GENIUS_GENOBJ-N-HTC_13
1002
{
1000
OWNER
1000
GEN
1002
}
1001
GENIUS_GENHATCH_13
1002
{
1000
DATA
1040
135.0
1042
1.0
1000
_U
1070
     0
1011
448.7099999999999
1021
551.8073779999999
1031
0.0
1002
}
1002
{
1000
UCS
1010
0.0
1020
0.0
1030
0.0
1010
1.0
1020
0.0
1030
0.0
1010
0.0
1020
1.0
1030
0.0
1002
}
  0
ENDSEC
  0
SECTION
  2
OBJECTS
  0
DICTIONARY
  5
15FD
330
0
100
AcDbDictionary
281
     1
  3
ACAD_COLOR
350
1B98
  3
ACAD_GROUP
350
15FE
  3
ACAD_LAYOUT
350
1B9B
  3
ACAD_MATERIAL
350
1B97
  3
ACAD_MLINESTYLE
350
160C
  3
ACAD_PLOTSETTINGS
350
1B9C
  3
ACAD_PLOTSTYLENAME
350
1B95
  3
ACAD_TABLESTYLE
350
1B99
  3
ACDBHEADERROUNDTRIPXREC
350
1C9C
  3
AcDbVariableDictionary
350
1C97
  3
AcmDictionary
350
1BFA
  3
AMG
350
1BA0
  3
AMGSNAPSETTINGS
350
1C6C
  0
DICTIONARY
  5
1B98
102
{ACAD_REACTORS
330
15FD
102
}
330
15FD
100
AcDbDictionary
281
     1
  0
DICTIONARY
  5
15FE
102
{ACAD_REACTORS
330
15FD
102
}
330
15FD
100
AcDbDictionary
281
     1
  0
DICTIONARY
  5
1B9B
102
{ACAD_REACTORS
330
15FD
102
}
330
15FD
100
AcDbDictionary
281
     1
  3
Layout1
350
1B9E
  3
Model
350
1B9D
  0
DICTIONARY
  5
1B97
102
{ACAD_REACTORS
330
15FD
102
}
330
15FD
100
AcDbDictionary
281
     1
  0
DICTIONARY
  5
160C
102
{ACAD_REACTORS
330
15FD
102
}
330
15FD
100
AcDbDictionary
281
     1
  3
STANDARD
350
160D
  0
DICTIONARY
  5
1B9C
102
{ACAD_REACTORS
330
15FD
102
}
330
15FD
100
AcDbDictionary
281
     1
  0
ACDBDICTIONARYWDFLT
  5
1B95
102
{ACAD_REACTORS
330
15FD
102
}
330
15FD
100
AcDbDictionary
281
     1
  3
Normal
350
1B96
100
AcDbDictionaryWithDefault
340
1B96
  0
DICTIONARY
  5
1B99
102
{ACAD_REACTORS
330
15FD
102
}
330
15FD
100
AcDbDictionary
281
     1
  3
Standard
350
1B9A
  0
DICTIONARY
  5
1C9C
102
{ACAD_REACTORS
330
15FD
102
}
330
15FD
100
AcDbDictionary
281
     1
  0
DICTIONARY
  5
1C97
102
{ACAD_REACTORS
330
15FD
102
}
330
15FD
100
AcDbDictionary
281
     1
  3
CTABLESTYLE
350
1C98
  3
DIMASSOC
350
1C99
  3
PROJECTNAME
350
1C9A
  0
DICTIONARY
  5
1BFA
102
{ACAD_REACTORS
330
15FD
102
}
330
15FD
100
AcDbDictionary
281
     1
  3
AcmStdDictionary
350
1C05
  3
AMDTSECTSYM_ARROWCOLOR
350
1C28
  0
DICTIONARY
  5
1BA0
102
{ACAD_REACTORS
330
15FD
102
}
330
15FD
100
AcDbDictionary
281
     1
  0
DICTIONARY
  5
1C6C
102
{ACAD_REACTORS
330
15FD
102
}
330
15FD
100
AcDbDictionary
281
     1
  0
LAYOUT
  5
1B9E
102
{ACAD_XDICTIONARY
360
1C9F
102
}
102
{ACAD_REACTORS
330
1B9B
102
}
330
1B9B
100
AcDbPlotSettings
  1

  2
Xerox Document Centre CS50 PS
  4

  6

 40
0.0
 41
0.0
 42
0.0
 43
0.0
 44
0.0
 45
0.0
 46
0.0
 47
0.0
 48
0.0
 49
0.0
140
0.0
141
0.0
142
1.0
143
1.0
 70
   688
 72
     0
 73
     0
 74
     5
  7

 75
    16
147
1.0
148
0.0
149
0.0
100
AcDbLayout
  1
Layout1
 70
     1
 71
     1
 10
0.0
 20
0.0
 11
139.442
 21
285.648
 12
0.0
 22
0.0
 32
0.0
 14
0.0
 24
0.0
 34
0.0
 15
139.442
 25
285.648
 35
0.0
146
0.0
 13
0.0
 23
0.0
 33
0.0
 16
1.0
 26
0.0
 36
0.0
 17
0.0
 27
1.0
 37
0.0
 76
     0
330
1606
  0
LAYOUT
  5
1B9D
102
{ACAD_XDICTIONARY
360
1C9D
102
}
102
{ACAD_REACTORS
330
1B9B
102
}
330
1B9B
100
AcDbPlotSettings
  1

  2
Xerox Document Centre CS50 PS
  4

  6

 40
0.0
 41
0.0
 42
0.0
 43
0.0
 44
0.0
 45
0.0
 46
0.0
 47
0.0
 48
0.0
 49
0.0
140
0.0
141
0.0
142
1.0
143
1.0
 70
  1712
 72
     0
 73
     0
 74
     0
  7

 75
     0
147
1.0
148
0.0
149
0.0
100
AcDbLayout
  1
Model
 70
     1
 71
     0
 10
0.0
 20
0.0
 11
12.0
 21
9.0
 12
0.0
 22
0.0
 32
0.0
 14
0.0
 24
0.0
 34
0.0
 15
0.0
 25
0.0
 35
0.0
146
0.0
 13
0.0
 23
0.0
 33
0.0
 16
1.0
 26
0.0
 36
0.0
 17
0.0
 27
1.0
 37
0.0
 76
     0
330
1609
  0
MLINESTYLE
  5
160D
102
{ACAD_REACTORS
330
160C
102
}
330
160C
100
AcDbMlineStyle
  2
STANDARD
 70
     0
  3

 62
   256
 51
90.0
 52
90.0
 71
     2
 49
0.5
 62
   256
  6
BYLAYER
 49
-0.5
 62
   256
  6
BYLAYER
  0
ACDBPLACEHOLDER
  5
1B96
102
{ACAD_REACTORS
330
1B95
102
}
330
1B95
  0
TABLESTYLE
  5
1B9A
102
{ACAD_REACTORS
330
1B99
102
}
330
1B99
100
AcDbTableStyle
  3
Standard
 70
     0
 71
     0
 40
1.5
 41
1.5
280
     0
281
     0
  7
STANDARD
140
4.5
170
     2
 62
     0
 63
     7
283
     0
274
    -2
284
     1
 64
     0
275
    -2
285
     1
 65
     0
276
    -2
286
     1
 66
     0
277
    -2
287
     1
 67
     0
278
    -2
288
     1
 68
     0
279
    -2
289
     1
 69
     0
  7
STANDARD
140
6.0
170
     5
 62
     0
 63
     7
283
     0
274
    -2
284
     1
 64
     0
275
    -2
285
     1
 65
     0
276
    -2
286
     1
 66
     0
277
    -2
287
     1
 67
     0
278
    -2
288
     1
 68
     0
279
    -2
289
     1
 69
     0
  7
STANDARD
140
4.5
170
     5
 62
     0
 63
     7
283
     0
274
    -2
284
     1
 64
     0
275
    -2
285
     1
 65
     0
276
    -2
286
     1
 66
     0
277
    -2
287
     1
 67
     0
278
    -2
288
     1
 68
     0
279
    -2
289
     1
 69
     0
  0
DICTIONARYVAR
  5
1C98
102
{ACAD_REACTORS
330
1C97
102
}
330
1C97
100
DictionaryVariables
280
     0
  1
STANDARD
  0
DICTIONARYVAR
  5
1C99
102
{ACAD_REACTORS
330
1C97
102
}
330
1C97
100
DictionaryVariables
280
     0
  1
1
  0
DICTIONARYVAR
  5
1C9A
102
{ACAD_REACTORS
330
1C97
102
}
330
1C97
100
DictionaryVariables
280
     0
  1

  0
DICTIONARY
  5
1C05
102
{ACAD_REACTORS
330
1BFA
102
}
330
1BFA
100
AcDbDictionary
281
     1
  0
XRECORD
  5
1C28
102
{ACAD_REACTORS
330
1BFA
102
}
330
1BFA
100
AcDbXrecord
280
     1
 90
-1023410169
  0
DICTIONARY
  5
1C9F
330
1B9E
100
AcDbDictionary
280
     1
281
     1
  3
ACAD_XREC_ROUNDTRIP
360
1CA0
  0
DICTIONARY
  5
1C9D
330
1B9D
100
AcDbDictionary
280
     1
281
     1
  3
ACAD_XREC_ROUNDTRIP
360
1C9E
  0
XRECORD
  5
1CA0
102
{ACAD_REACTORS
330
1C9F
102
}
330
1C9F
100
AcDbXrecord
280
     1
102
SHADEPLOT
 70
     0
102
SHADEPLOTRESLEVEL
 70
     2
102
SHADEPLOTCUSTOMDPI
 70
   300
  0
XRECORD
  5
1C9E
102
{ACAD_REACTORS
330
1C9D
102
}
330
1C9D
100
AcDbXrecord
280
     1
102
SHADEPLOT
 70
     0
102
SHADEPLOTRESLEVEL
 70
     2
102
SHADEPLOTCUSTOMDPI
 70
   300
  0
ENDSEC
  0
EOF
