  0
SECTION
  2
HEADER
  9
$ACADVER
  1
AC1015
  9
$ACADMAINTVER
 70
    20
  9
$DWGCODEPAGE
  3
ANSI_1252
  9
$INSBASE
 10
0.0
 20
0.0
 30
0.0
  9
$EXTMIN
 10
157.3164952171554
 20
57.91048400000001
 30
0.0
  9
$EXTMAX
 10
521.950454
 20
615.512484
 30
0.0
  9
$LIMMIN
 10
0.0
 20
0.0
  9
$LIMMAX
 10
1050.0
 20
1050.0
  9
$ORTHOMODE
 70
     0
  9
$REGENMODE
 70
     1
  9
$FILLMODE
 70
     1
  9
$QTEXTMODE
 70
     0
  9
$MIRRTEXT
 70
     0
  9
$LTSCALE
 40
5.0
  9
$ATTMODE
 70
     1
  9
$TEXTSIZE
 40
12.5
  9
$TRACEWID
 40
0.05
  9
$TEXTSTYLE
  7
STANDARD
  9
$CLAYER
  8
0
  9
$CELTYPE
  6
BYLAYER
  9
$CECOLOR
 62
   256
  9
$CELTSCALE
 40
1.0
  9
$DISPSILH
 70
     0
  9
$DIMSCALE
 40
5.0
  9
$DIMASZ
 40
2.5
  9
$DIMEXO
 40
1.0
  9
$DIMDLI
 40
7.0
  9
$DIMRND
 40
0.0
  9
$DIMDLE
 40
0.0
  9
$DIMEXE
 40
1.0
  9
$DIMTP
 40
0.1
  9
$DIMTM
 40
0.1
  9
$DIMTXT
 40
3.5
  9
$DIMCEN
 40
0.0
  9
$DIMTSZ
 40
0.0
  9
$DIMTOL
 70
     0
  9
$DIMLIM
 70
     0
  9
$DIMTIH
 70
     0
  9
$DIMTOH
 70
     0
  9
$DIMSE1
 70
     0
  9
$DIMSE2
 70
     0
  9
$DIMTAD
 70
     1
  9
$DIMZIN
 70
    12
  9
$DIMBLK
  1

  9
$DIMASO
 70
     1
  9
$DIMSHO
 70
     1
  9
$DIMPOST
  1

  9
$DIMAPOST
  1
"
  9
$DIMALT
 70
     0
  9
$DIMALTD
 70
     2
  9
$DIMALTF
 40
0.03937
  9
$DIMLFAC
 40
1.0
  9
$DIMTOFL
 70
     1
  9
$DIMTVP
 40
0.0
  9
$DIMTIX
 70
     0
  9
$DIMSOXD
 70
     0
  9
$DIMSAH
 70
     0
  9
$DIMBLK1
  1

  9
$DIMBLK2
  1

  9
$DIMSTYLE
  2
GEN-ISO
  9
$DIMCLRD
 70
   256
  9
$DIMCLRE
 70
   256
  9
$DIMCLRT
 70
     2
  9
$DIMTFAC
 40
0.71
  9
$DIMGAP
 40
0.6
  9
$DIMJUST
 70
     0
  9
$DIMSD1
 70
     0
  9
$DIMSD2
 70
     0
  9
$DIMTOLJ
 70
     0
  9
$DIMTZIN
 70
     0
  9
$DIMALTZ
 70
     0
  9
$DIMALTTZ
 70
     0
  9
$DIMUPT
 70
     0
  9
$DIMDEC
 70
     2
  9
$DIMTDEC
 70
     3
  9
$DIMALTU
 70
     2
  9
$DIMALTTD
 70
     4
  9
$DIMTXSTY
  7
STANDARD
  9
$DIMAUNIT
 70
     0
  9
$DIMADEC
 70
     0
  9
$DIMALTRND
 40
0.0
  9
$DIMAZIN
 70
     0
  9
$DIMDSEP
 70
    46
  9
$DIMATFIT
 70
     3
  9
$DIMFRAC
 70
     0
  9
$DIMLDRBLK
  1

  9
$DIMLUNIT
 70
     2
  9
$DIMLWD
 70
    -2
  9
$DIMLWE
 70
    -2
  9
$DIMTMOVE
 70
     0
  9
$LUNITS
 70
     2
  9
$LUPREC
 70
     2
  9
$SKETCHINC
 40
0.1
  9
$FILLETRAD
 40
12.5
  9
$AUNITS
 70
     0
  9
$AUPREC
 70
     2
  9
$MENU
  1
.
  9
$ELEVATION
 40
0.0
  9
$PELEVATION
 40
0.0
  9
$THICKNESS
 40
0.0
  9
$LIMCHECK
 70
     0
  9
$CHAMFERA
 40
12.5
  9
$CHAMFERB
 40
12.5
  9
$CHAMFERC
 40
0.0
  9
$CHAMFERD
 40
0.0
  9
$SKPOLY
 70
     0
  9
$TDCREATE
 40
2451261.425752847
  9
$TDUCREATE
 40
2451261.384086181
  9
$TDUPDATE
 40
2454088.843519630
  9
$TDUUPDATE
 40
2454088.801852963
  9
$TDINDWG
 40
0.0053868750
  9
$TDUSRTIMER
 40
0.0053868750
  9
$USRTIMER
 70
     1
  9
$ANGBASE
 50
0.0
  9
$ANGDIR
 70
     0
  9
$PDMODE
 70
     0
  9
$PDSIZE
 40
0.0
  9
$PLINEWID
 40
0.0
  9
$SPLFRAME
 70
     0
  9
$SPLINETYPE
 70
     6
  9
$SPLINESEGS
 70
     8
  9
$HANDSEED
  5
1FDB
  9
$SURFTAB1
 70
     6
  9
$SURFTAB2
 70
     6
  9
$SURFTYPE
 70
     6
  9
$SURFU
 70
     6
  9
$SURFV
 70
     6
  9
$UCSBASE
  2

  9
$UCSNAME
  2

  9
$UCSORG
 10
0.0
 20
0.0
 30
0.0
  9
$UCSXDIR
 10
1.0
 20
0.0
 30
0.0
  9
$UCSYDIR
 10
0.0
 20
1.0
 30
0.0
  9
$UCSORTHOREF
  2

  9
$UCSORTHOVIEW
 70
     0
  9
$UCSORGTOP
 10
0.0
 20
0.0
 30
0.0
  9
$UCSORGBOTTOM
 10
0.0
 20
0.0
 30
0.0
  9
$UCSORGLEFT
 10
0.0
 20
0.0
 30
0.0
  9
$UCSORGRIGHT
 10
0.0
 20
0.0
 30
0.0
  9
$UCSORGFRONT
 10
0.0
 20
0.0
 30
0.0
  9
$UCSORGBACK
 10
0.0
 20
0.0
 30
0.0
  9
$PUCSBASE
  2

  9
$PUCSNAME
  2

  9
$PUCSORG
 10
0.0
 20
0.0
 30
0.0
  9
$PUCSXDIR
 10
1.0
 20
0.0
 30
0.0
  9
$PUCSYDIR
 10
0.0
 20
1.0
 30
0.0
  9
$PUCSORTHOREF
  2

  9
$PUCSORTHOVIEW
 70
     0
  9
$PUCSORGTOP
 10
0.0
 20
0.0
 30
0.0
  9
$PUCSORGBOTTOM
 10
0.0
 20
0.0
 30
0.0
  9
$PUCSORGLEFT
 10
0.0
 20
0.0
 30
0.0
  9
$PUCSORGRIGHT
 10
0.0
 20
0.0
 30
0.0
  9
$PUCSORGFRONT
 10
0.0
 20
0.0
 30
0.0
  9
$PUCSORGBACK
 10
0.0
 20
0.0
 30
0.0
  9
$USERI1
 70
     0
  9
$USERI2
 70
     0
  9
$USERI3
 70
     0
  9
$USERI4
 70
     0
  9
$USERI5
 70
     0
  9
$USERR1
 40
0.0
  9
$USERR2
 40
0.0
  9
$USERR3
 40
0.0
  9
$USERR4
 40
0.0
  9
$USERR5
 40
0.0
  9
$WORLDVIEW
 70
     1
  9
$SHADEDGE
 70
     3
  9
$SHADEDIF
 70
    70
  9
$TILEMODE
 70
     1
  9
$MAXACTVP
 70
    48
  9
$PINSBASE
 10
0.0
 20
0.0
 30
0.0
  9
$PLIMCHECK
 70
     0
  9
$PEXTMIN
 10
0.0
 20
0.0
 30
0.0
  9
$PEXTMAX
 10
209.9
 20
296.9
 30
0.0
  9
$PLIMMIN
 10
0.0
 20
0.0
  9
$PLIMMAX
 10
209.9
 20
296.9
  9
$UNITMODE
 70
     0
  9
$VISRETAIN
 70
     1
  9
$PLINEGEN
 70
     1
  9
$PSLTSCALE
 70
     1
  9
$TREEDEPTH
 70
 -3020
  9
$CMLSTYLE
  2
STANDARD
  9
$CMLJUST
 70
     0
  9
$CMLSCALE
 40
1.0
  9
$PROXYGRAPHICS
 70
     1
  9
$MEASUREMENT
 70
     1
  9
$CELWEIGHT
370
    -1
  9
$ENDCAPS
280
     0
  9
$JOINSTYLE
280
     0
  9
$LWDISPLAY
290
     0
  9
$INSUNITS
 70
     0
  9
$HYPERLINKBASE
  1

  9
$STYLESHEET
  1

  9
$XEDIT
290
     1
  9
$CEPSNTYPE
380
     0
  9
$PSTYLEMODE
290
     1
  9
$FINGERPRINTGUID
  2
{3793A420-741F-43CF-BED7-0BCB09F03962}
  9
$VERSIONGUID
  2
{60B092C6-3CC8-4714-8344-4F7F270F2DFC}
  9
$EXTNAMES
290
     1
  9
$PSVPSCALE
 40
0.0
  9
$OLESTARTUP
290
     0
  0
ENDSEC
  0
SECTION
  2
CLASSES
  0
CLASS
  1
ACDBDICTIONARYWDFLT
  2
AcDbDictionaryWithDefault
  3
ObjectDBX Classes
 90
        0
280
     0
281
     0
  0
CLASS
  1
TABLESTYLE
  2
AcDbTableStyle
  3
ObjectDBX Classes
 90
     2047
280
     0
281
     0
  0
CLASS
  1
AMGSETTINGSOBJ
  2
AmgSettingsObj
  3
"AcadM|Product Description: AutoCAD Mechanical 2000|Company: Autodesk"
 90
        0
280
     0
281
     0
  0
CLASS
  1
ACME_DOCUMENT
  2
AcMeDbDoc
  3
AcMeServices
 90
        0
280
     0
281
     0
  0
CLASS
  1
ACMESCOPE
  2
AcMeScope
  3
AcMeServices
 90
        0
280
     0
281
     0
  0
CLASS
  1
ACMECOMMANDHISTORY
  2
AcMeCommandHistory
  3
AcMeServices
 90
        0
280
     0
281
     0
  0
CLASS
  1
ACIMSYSVARMAN
  2
AcImSysVarManager
  3
AcMeServices
 90
        0
280
     0
281
     0
  0
CLASS
  1
ACIMINTSYSVAR
  2
AcImIntSysVar
  3
AcMeServices
 90
        0
280
     0
281
     0
  0
CLASS
  1
ACMEDRAWINGMAN
  2
AcMeDrawingMan
  3
AcMeServices
 90
        0
280
     0
281
     0
  0
CLASS
  1
ACMEVIEW
  2
AcMeView
  3
AcMeServices
 90
        0
280
     0
281
     0
  0
CLASS
  1
ACDBENTITYCACHE
  2
AcMeEntityCache
  3
AcMeServices
 90
        0
280
     0
281
     0
  0
CLASS
  1
GSMANAGER
  2
AcMeGSManager
  3
AcMeServices
 90
        0
280
     0
281
     0
  0
CLASS
  1
AMDTINTERNALREACTOR
  2
AmdtInternalReactor
  3
AcMeServices
 90
        0
280
     0
281
     0
  0
CLASS
  1
ACMESTATEMGR
  2
AcMeStateMgr
  3
AcMeServices
 90
        0
280
     0
281
     0
  0
CLASS
  1
ACGREFMASTER
  2
AcGrefMaster
  3
AcAttribServices
 90
        0
280
     0
281
     0
  0
CLASS
  1
AM_DRAWING_MGR
  2
AcDmDwgMgr
  3
AcMechDwgViewMgmt
 90
        0
280
     0
281
     0
  0
CLASS
  1
AM_DWG_DOCUMENT
  2
AcDmDwgDocument
  3
AcMechDwgViewMgmt
 90
        0
280
     0
281
     0
  0
CLASS
  1
AM_DWG_SHEET
  2
AcDmSheet
  3
AcMechDwgViewMgmt
 90
        0
280
     0
281
     0
  0
CLASS
  1
AM_VIEWDIMPARMAP
  2
AcDmViewDimParMap
  3
AcMechDwgViewMgmt
 90
        0
280
     0
281
     0
  0
CLASS
  1
ACIMREALSYSVAR
  2
AcImRealSysVar
  3
AcMeServices
 90
        0
280
     0
281
     0
  0
CLASS
  1
AM_DWGMGR_NAME
  2
AcDmDwgMgrName
  3
AcMechDwgViewMgmt
 90
        0
280
     0
281
     0
  0
CLASS
  1
ACME_DATABASE
  2
AcMeDbDatabase
  3
AcMeServices
 90
        0
280
     0
281
     0
  0
CLASS
  1
ACRFINSADJUSTERMGR
  2
AcRfInsAdjusterMgr
  3
AcMeServices
 90
        0
280
     0
281
     0
  0
CLASS
  1
ACGREFACADMASTER
  2
AcGrefacadMaster
  3
AcGrefServices
 90
        0
280
     0
281
     0
  0
CLASS
  1
AMDTMENUSTATEMGR
  2
AmdtMenuStateMgr
  3
McadcomServices
 90
        0
280
     0
281
     0
  0
CLASS
  1
AMDTMCOMMENUSTATE
  2
AmdtMcomMenuState
  3
McadcomServices
 90
        0
280
     0
281
     0
  0
CLASS
  1
AMIMASTER
  2
AmiMaster
  3
AmiServices
 90
        0
280
     0
281
     0
  0
CLASS
  1
MAPIAMMOUDLE
  2
MApiAmModule
  3
MApiAmServices
 90
        0
280
     0
281
     0
  0
CLASS
  1
ACIMSTRSYSVAR
  2
AcImStrSysVar
  3
AcMeServices
 90
        0
280
     0
281
     0
  0
CLASS
  1
AMDTADMENUSTATE
  2
AmdtAdMenuState
  3
DesignerServices
 90
        0
280
     0
281
     0
  0
CLASS
  1
ADAPPL
  2
AcAdAppl
  3
DesignerServices
 90
        0
280
     0
281
     0
  0
CLASS
  1
DEPMGR
  2
AcAdDepMgr
  3
DesignerServices
 90
        0
280
     0
281
     0
  0
CLASS
  1
PARAMMGR
  2
AcAdParamMgr
  3
DesignerServices
 90
        0
280
     0
281
     0
  0
CLASS
  1
PARAMSCOPE
  2
AcAdParamScope
  3
DesignerServices
 90
        0
280
     0
281
     0
  0
CLASS
  1
NAMEDAPPL
  2
AcAdNamedAppl
  3
DesignerServices
 90
        0
280
     0
281
     0
  0
CLASS
  1
AMDTDMMENUSTATE
  2
AmdtDmMenuState
  3
AcMechDwgViewMgmt
 90
        0
280
     0
281
     0
  0
CLASS
  1
AMDTAMMENUSTATE
  2
AmdtAmMenuState
  3
DesignerAssemblies
 90
        0
280
     0
281
     0
  0
CLASS
  1
ACAMPROJECT
  2
AcAmProject
  3
DesignerAssemblies
 90
        0
280
     0
281
     0
  0
CLASS
  1
ACAMGRCOMPDEF
  2
AcAmGrCompDef
  3
DesignerAssemblies
 90
        0
280
     0
281
     0
  0
CLASS
  1
ACCMCONTEXT
  2
AcCmContext
  3
DesignerAssemblies
 90
        0
280
     0
281
     0
  0
CLASS
  1
ACAMCOMPDEF
  2
AcAmCompDef
  3
DesignerAssemblies
 90
        0
280
     0
281
     0
  0
CLASS
  1
ACAMCOMPDEFMGR
  2
AcAmCompDefMgr
  3
DesignerAssemblies
 90
        0
280
     0
281
     0
  0
CLASS
  1
AMCONTEXTMGR
  2
AcAmContextMgr
  3
DesignerAssemblies
 90
        0
280
     0
281
     0
  0
CLASS
  1
ACAMCONTEXTMODELER
  2
AcAmContextModeler
  3
DesignerAssemblies
 90
        0
280
     0
281
     0
  0
CLASS
  1
ACMDATADICTIONARY
  2
AcmDataDictionary
  3
"AcmSymBB|Product Description: AutoCAD Mechanical 2004 DX|Company: Autodesk"
 90
        0
280
     0
281
     0
  0
CLASS
  1
CATALOGSTATE
  2
AcAmCatalogState
  3
DesignerAssemblies
 90
        0
280
     0
281
     0
  0
CLASS
  1
ACAMGRCOMPDEFSET
  2
AcAmGrCompDefSet
  3
DesignerAssemblies
 90
        0
280
     0
281
     0
  0
CLASS
  1
AMDTBROWSERDBTAB
  2
AmdtBrowserDbTab
  3
McadcomServices
 90
        0
280
     0
281
     0
  0
CLASS
  1
CBROWSERAPPOBJECT
  2
CBrowserAppObject
  3
McadcomServices
 90
        0
280
     0
281
     0
  0
CLASS
  1
DM_PLACEHOLDER
  2
AcDmSelsetPlaceholder
  3
AcMechDwgViewMgmt
 90
        0
280
     0
281
     0
  0
CLASS
  1
ACMSTANDARDDIN
  2
AcmStandardDIN
  3
"Amdt_StdImp|Product Description: AutoCAD Mechanical 2004 DX|Company: Autodesk"
 90
        0
280
     0
281
     0
  0
CLASS
  1
AMGOBJPROPCFG
  2
AmgObjPropCfg
  3
"AmgLay|Product Description: AutoCAD Mechanical 2000|Company: Autodesk"
 90
        1
280
     0
281
     0
  0
CLASS
  1
AMDTEDGESTANDARDDIN13715
  2
AmdtEdgeStdDIN13715
  3
"Amdt_StdImp|Product Description: AutoCAD Mechanical 2004 DX|Company: Autodesk"
 90
        0
280
     0
281
     0
  0
CLASS
  1
ACMSURFSTANDARDDIN
  2
AcmSurfTextStdDIN
  3
"Amdt_StdImp|Product Description: AutoCAD Mechanical 2004 DX|Company: Autodesk"
 90
        0
280
     0
281
     0
  0
CLASS
  1
ACMFCFSTANDARDDIN
  2
AcmFCFStdDIN
  3
"Amdt_StdImp|Product Description: AutoCAD Mechanical 2004 DX|Company: Autodesk"
 90
        0
280
     0
281
     0
  0
CLASS
  1
ACMWELDSTANDARDDIN
  2
AcmWeldingStdDIN
  3
"Amdt_StdImp|Product Description: AutoCAD Mechanical 2004 DX|Company: Autodesk"
 90
        0
280
     0
281
     0
  0
CLASS
  1
ACMIDSTANDARDDIN
  2
AcmIdStdDIN
  3
"Amdt_StdImp|Product Description: AutoCAD Mechanical 2004 DX|Company: Autodesk"
 90
        0
280
     0
281
     0
  0
CLASS
  1
ACMDATUMSTANDARDDIN
  2
AcmDatumStdDIN
  3
"Amdt_StdImp|Product Description: AutoCAD Mechanical 2004 DX|Company: Autodesk"
 90
        0
280
     0
281
     0
  0
CLASS
  1
ACMBOMSTANDARDDIN
  2
AcmBOMStdDIN
  3
"Amdt_StdImp|Product Description: AutoCAD Mechanical 2004 DX|Company: Autodesk"
 90
        0
280
     0
281
     0
  0
CLASS
  1
ACMDETAILSTANDARDDIN
  2
AmdtDetailSymStdDIN
  3
"Amdt_StdImp|Product Description: AutoCAD Mechanical 2004 DX|Company: Autodesk"
 90
        0
280
     0
281
     0
  0
CLASS
  1
ACMSECTIONSTANDARDDIN
  2
AmdtSectionSymStdDIN
  3
"Amdt_StdImp|Product Description: AutoCAD Mechanical 2004 DX|Company: Autodesk"
 90
        0
280
     0
281
     0
  0
CLASS
  1
ACMCENTERLINESTANDARDDIN
  2
AmdtCenterLineStdDIN
  3
"Amdt_StdImp|Product Description: AutoCAD Mechanical 2004 DX|Company: Autodesk"
 90
        0
280
     0
281
     0
  0
CLASS
  1
ACMTHREADLINESTANDARDDIN
  2
AmdtThreadLineStdDIN
  3
"Amdt_StdImp|Product Description: AutoCAD Mechanical 2004 DX|Company: Autodesk"
 90
        0
280
     0
281
     0
  0
CLASS
  1
ACMNOTESTANDARDDIN
  2
AmdtNoteStdDIN
  3
"Amdt_StdImp|Product Description: AutoCAD Mechanical 2004 DX|Company: Autodesk"
 90
        0
280
     0
281
     0
  0
CLASS
  1
AMDTNOTETEMPLATEDB
  2
AmdtNoteTemplateDB
  3
AMDT_STDIMP_MODULE_NAME
 90
        0
280
     0
281
     0
  0
CLASS
  1
ACAMGLAYSTD
  2
AcAmgLayStd
  3
"AcAmgLayStd|Product Description: AutoCAD Mechanical 2000|Company: Autodesk"
 90
        0
280
     0
281
     0
  0
CLASS
  1
ACAMGDIMSTD
  2
AcAmgDimStd
  3
"AcAmgDimStd|Product Description: AutoCAD Mechanical 2000|Company: Autodesk"
 90
        0
280
     0
281
     0
  0
CLASS
  1
ACAMGHOLECHARTSTDDIN
  2
AcAmgHoleChartStdDIN
  3
ACMSYMBB_MODULE_NAME
 90
        0
280
     0
281
     0
  0
CLASS
  1
ACAMGTITLESTD
  2
AcAmgTitleStd
  3
"TITLEAPP"
 90
        0
280
     0
281
     0
  0
CLASS
  1
DICTIONARYVAR
  2
AcDbDictionaryVar
  3
ObjectDBX Classes
 90
        0
280
     0
281
     0
  0
CLASS
  1
ACAMGFILTERDAT
  2
AcAmgFilterDat
  3
"AcadM|Product Description: AutoCAD Mechanical 2000|Company: Autodesk"
 90
        0
280
     0
281
     0
  0
CLASS
  1
ACDBPLACEHOLDER
  2
AcDbPlaceHolder
  3
ObjectDBX Classes
 90
        0
280
     0
281
     0
  0
CLASS
  1
LAYOUT
  2
AcDbLayout
  3
ObjectDBX Classes
 90
        0
280
     0
281
     0
  0
ENDSEC
  0
SECTION
  2
TABLES
  0
TABLE
  2
VPORT
  5
16B3
330
0
100
AcDbSymbolTable
 70
     4
  0
VPORT
  5
1FD5
330
16B3
100
AcDbSymbolTableRecord
100
AcDbViewportTableRecord
  2
*Active
 70
     0
 10
0.0
 20
0.0
 11
1.0
 21
1.0
 12
340.1493100000001
 22
347.3694258068814
 13
0.0
 23
0.0
 14
5.0
 24
5.0
 15
50.0
 25
50.0
 16
0.0
 26
0.0
 36
1.0
 17
0.0
 27
0.0
 37
0.0
 40
589.1650136137628
 41
1.494545454545454
 42
50.0
 43
0.0
 44
0.0
 50
0.0
 51
0.0
 71
     0
 72
  1000
 73
     1
 74
     1
 75
     0
 76
     0
 77
     0
 78
     0
281
     0
 65
     0
110
0.0
120
0.0
130
0.0
111
1.0
121
0.0
131
0.0
112
0.0
122
1.0
132
0.0
 79
     0
146
0.0
  0
ENDTAB
  0
TABLE
  2
LTYPE
  5
16B0
330
0
100
AcDbSymbolTable
 70
    20
  0
LTYPE
  5
16BD
330
16B0
100
AcDbSymbolTableRecord
100
AcDbLinetypeTableRecord
  2
BYBLOCK
 70
     0
  3

 72
    65
 73
     0
 40
0.0
  0
LTYPE
  5
16BE
330
16B0
100
AcDbSymbolTableRecord
100
AcDbLinetypeTableRecord
  2
BYLAYER
 70
     0
  3

 72
    65
 73
     0
 40
0.0
  0
LTYPE
  5
16BF
330
16B0
100
AcDbSymbolTableRecord
100
AcDbLinetypeTableRecord
  2
CONTINUOUS
 70
     0
  3
Solid line
 72
    65
 73
     0
 40
0.0
  0
LTYPE
  5
1A01
330
16B0
100
AcDbSymbolTableRecord
100
AcDbLinetypeTableRecord
  2
GEN3A
 70
     0
  3
 - - - - -
 72
    65
 73
     2
 40
3.125
 49
2.25
 74
     0
 49
-0.875
 74
     0
  0
LTYPE
  5
1F34
330
16B0
100
AcDbSymbolTableRecord
100
AcDbLinetypeTableRecord
  2
HIDDEN
 70
     0
  3
Verdeckt
 72
    65
 73
     2
 40
9.525
 49
6.349999999999999
 74
     0
 49
-3.174999999999999
 74
     0
  0
LTYPE
  5
1F35
330
16B0
100
AcDbSymbolTableRecord
100
AcDbLinetypeTableRecord
  2
PHANTOM2
 70
     0
  3
Phantom (.5x) ___ _ _ ___ _ _ ___ _ _ ___ _ _
 72
    65
 73
     6
 40
31.75
 49
15.875
 74
     0
 49
-3.174999999999999
 74
     0
 49
3.174999999999999
 74
     0
 49
-3.174999999999999
 74
     0
 49
3.174999999999999
 74
     0
 49
-3.174999999999999
 74
     0
  0
LTYPE
  5
1F36
330
16B0
100
AcDbSymbolTableRecord
100
AcDbLinetypeTableRecord
  2
CENTER
 70
     0
  3
Mitte ____ _ ____ _ ____ _ ____ _ ____ _ ____
 72
    65
 73
     4
 40
50.8
 49
31.75
 74
     0
 49
-6.349999999999999
 74
     0
 49
6.349999999999999
 74
     0
 49
-6.349999999999999
 74
     0
  0
LTYPE
  5
1F6A
330
16B0
100
AcDbSymbolTableRecord
100
AcDbLinetypeTableRecord
  2
AM_ISO02W050
 70
     0
  3
__ __ __ __ __ __ __ __ __ __ __ __ __ __ __
 72
    65
 73
     2
 40
7.5
 49
6.0
 74
     0
 49
-1.5
 74
     0
  0
LTYPE
  5
1F6B
330
16B0
100
AcDbSymbolTableRecord
100
AcDbLinetypeTableRecord
  2
AM_ISO08W050
 70
     0
  3
____ . ____ . ____ . ____ . ____ . ____ . ____
 72
    65
 73
     4
 40
18.0
 49
12.0
 74
     0
 49
-1.5
 74
     0
 49
3.0
 74
     0
 49
-1.5
 74
     0
  0
LTYPE
  5
1F6C
330
16B0
100
AcDbSymbolTableRecord
100
AcDbLinetypeTableRecord
  2
AM_ISO09W050
 70
     0
  3
_____ . . _____ . . _____ . . ____ .. ____
 72
    65
 73
     6
 40
22.5
 49
12.0
 74
     0
 49
-1.5
 74
     0
 49
3.0
 74
     0
 49
-1.5
 74
     0
 49
3.0
 74
     0
 49
-1.5
 74
     0
  0
LTYPE
  5
1F6D
330
16B0
100
AcDbSymbolTableRecord
100
AcDbLinetypeTableRecord
  2
Amconstr
 70
     0
  3
_______________________
 72
    65
 73
     2
 40
9999.0
 49
9999.0
 74
     0
 49
0.0
 74
     0
  0
LTYPE
  5
1F6E
330
16B0
100
AcDbSymbolTableRecord
100
AcDbLinetypeTableRecord
  2
AM_ISO08W050x2
 70
     0
  3
__ . __ . __ . __ . __ . __
 72
    65
 73
     4
 40
9.0
 49
6.0
 74
     0
 49
-0.75
 74
     0
 49
1.5
 74
     0
 49
-0.75
 74
     0
  0
LTYPE
  5
1F6F
330
16B0
100
AcDbSymbolTableRecord
100
AcDbLinetypeTableRecord
  2
AM_ISO02W050x2
 70
     0
  3
 _ _ _ _ _ _ _ _ _ _ _ _
 72
    65
 73
     2
 40
3.75
 49
3.0
 74
     0
 49
-0.75
 74
     0
  0
LTYPE
  5
1F72
330
16B0
100
AcDbSymbolTableRecord
100
AcDbLinetypeTableRecord
  2
Amzigzag
 70
     0
  3
/\/-/\/-/\/-/\/-/\/-/\/
 72
    65
 73
     2
 40
11.0001
 49
0.0001
 74
     4
 75
   136
340
1F71
 46
0.04
 50
0.0
 44
0.0
 45
0.0
 49
-11.0
 74
     0
  0
LTYPE
  5
1F73
330
16B0
100
AcDbSymbolTableRecord
100
AcDbLinetypeTableRecord
  2
AM_DIN_F_W050
 70
     0
  3
__ __ __ __ __ __ __ __ __ __ __ __ __ __ __
 72
    65
 73
     2
 40
6.25
 49
4.75
 74
     0
 49
-1.5
 74
     0
  0
LTYPE
  5
1F74
330
16B0
100
AcDbSymbolTableRecord
100
AcDbLinetypeTableRecord
  2
AM_DIN_G_W050
 70
     0
  3
____ . ____ . ____ . ____ . ____ . ____ . ____
 72
    65
 73
     4
 40
13.75
 49
9.75
 74
     0
 49
-1.5
 74
     0
 49
1.0
 74
     0
 49
-1.5
 74
     0
  0
LTYPE
  5
1F75
330
16B0
100
AcDbSymbolTableRecord
100
AcDbLinetypeTableRecord
  2
AM_DIN_K_W050
 70
     0
  3
_____ . . _____ . . _____ . . ____ .. ____
 72
    65
 73
     6
 40
16.25
 49
9.75
 74
     0
 49
-1.5
 74
     0
 49
1.0
 74
     0
 49
-1.5
 74
     0
 49
1.0
 74
     0
 49
-1.5
 74
     0
  0
LTYPE
  5
1F76
330
16B0
100
AcDbSymbolTableRecord
100
AcDbLinetypeTableRecord
  2
AM_DIN_G_W050x2
 70
     0
  3
__ . __ . __ . __ . __ . __
 72
    65
 73
     4
 40
6.875
 49
4.75
 74
     0
 49
-0.875
 74
     0
 49
0.375
 74
     0
 49
-0.875
 74
     0
  0
LTYPE
  5
1F77
330
16B0
100
AcDbSymbolTableRecord
100
AcDbLinetypeTableRecord
  2
AM_DIN_F_W050x2
 70
     0
  3
 _ _ _ _ _ _ _ _ _ _ _ _
 72
    65
 73
     2
 40
3.125
 49
2.25
 74
     0
 49
-0.875
 74
     0
  0
LTYPE
  5
1F86
330
16B0
100
AcDbSymbolTableRecord
100
AcDbLinetypeTableRecord
  2
ACDINWELD
 70
     0
  3
_ _ _ _ _
 72
    65
 73
     2
 40
2.0
 49
2.0
 74
     0
 49
-1.0
 74
     0
  0
LTYPE
  5
1F87
330
16B0
100
AcDbSymbolTableRecord
100
AcDbLinetypeTableRecord
  2
ACDINTGB
 70
     0
  3
__ . . __ . .
 72
    65
 73
     6
 40
9.0
 49
4.0
 74
     0
 49
-1.0
 74
     0
 49
1.0
 74
     0
 49
-1.0
 74
     0
 49
1.0
 74
     0
 49
-1.0
 74
     0
  0
LTYPE
  5
1F88
330
16B0
100
AcDbSymbolTableRecord
100
AcDbLinetypeTableRecord
  2
ACDINTGL
 70
     0
  3
_ _ _ _ _
 72
    65
 73
     2
 40
3.0
 49
2.0
 74
     0
 49
-1.0
 74
     0
  0
ENDTAB
  0
TABLE
  2
LAYER
  5
16AD
330
0
100
AcDbSymbolTable
 70
     7
  0
LAYER
  5
16B9
330
16AD
100
AcDbSymbolTableRecord
100
AcDbLayerTableRecord
  2
0
 70
     0
 62
     7
  6
CONTINUOUS
370
    -3
390
1EF7
  0
LAYER
  5
16D6
330
16AD
100
AcDbSymbolTableRecord
100
AcDbLayerTableRecord
  2
5
 70
     0
 62
     3
  6
CONTINUOUS
370
    -3
390
1EF7
  0
LAYER
  5
16D9
330
16AD
100
AcDbSymbolTableRecord
100
AcDbLayerTableRecord
  2
8
 70
     0
 62
     1
  6
CONTINUOUS
370
    -3
390
1EF7
  0
LAYER
  5
16DA
330
16AD
100
AcDbSymbolTableRecord
100
AcDbLayerTableRecord
  2
PUNKTE
 70
     0
 62
     1
  6
CONTINUOUS
370
    -3
390
1EF7
  0
LAYER
  5
16DB
330
16AD
100
AcDbSymbolTableRecord
100
AcDbLayerTableRecord
  2
SCHRAFFUR_RAND
 70
     0
 62
    36
  6
CONTINUOUS
370
    -3
390
1EF7
  0
LAYER
  5
1705
330
16AD
100
AcDbSymbolTableRecord
100
AcDbLayerTableRecord
  2
DEFPOINTS
 70
     0
 62
     7
  6
CONTINUOUS
290
     0
370
    -3
390
1EF7
  0
LAYER
  5
1A02
330
16AD
100
AcDbSymbolTableRecord
100
AcDbLayerTableRecord
  2
3A
 70
     0
 62
     6
  6
GEN3A
370
    -3
390
1EF7
  0
ENDTAB
  0
TABLE
  2
STYLE
  5
16AE
330
0
100
AcDbSymbolTable
 70
     4
  0
STYLE
  5
16BA
330
16AE
100
AcDbSymbolTableRecord
100
AcDbTextStyleTableRecord
  2
STANDARD
 70
     0
 40
0.0
 41
1.0
 50
0.0
 71
     0
 42
12.5
  3
ISOCP.SHX
  4

  0
STYLE
  5
1F71
330
16AE
100
AcDbSymbolTableRecord
100
AcDbTextStyleTableRecord
  2

 70
     1
 40
0.0
 41
1.0
 50
0.0
 71
     0
 42
0.2
  3
genltshp.shx
  4

  0
STYLE
  5
1F78
330
16AE
100
AcDbSymbolTableRecord
100
AcDbTextStyleTableRecord
  2
ACDINTS
 70
     0
 40
1.0
 41
1.0
 50
0.0
 71
     0
 42
0.2
  3
isocp.shx
  4

  0
STYLE
  5
1F85
330
16AE
100
AcDbSymbolTableRecord
100
AcDbTextStyleTableRecord
  2
ACDINGDT
 70
     0
 40
0.0
 41
1.0
 50
0.0
 71
     0
 42
0.2
  3
AMGDT
  4

  0
ENDTAB
  0
TABLE
  2
VIEW
  5
16B1
330
0
100
AcDbSymbolTable
 70
     6
  0
VIEW
  5
1768
330
16B1
100
AcDbSymbolTableRecord
100
AcDbViewTableRecord
  2
GEN1
 70
     0
 40
525.0
 10
403.491903
 20
787.5
 41
806.983806
 11
0.0
 21
0.0
 31
1.0
 12
0.0
 22
0.0
 32
0.0
 42
50.0
 43
0.0
 44
0.0
 50
0.0
 71
     0
281
     0
 72
     0
  0
VIEW
  5
1769
330
16B1
100
AcDbSymbolTableRecord
100
AcDbViewTableRecord
  2
GEN2
 70
     0
 40
525.0
 10
646.508097
 20
787.5
 41
806.983806
 11
0.0
 21
0.0
 31
1.0
 12
0.0
 22
0.0
 32
0.0
 42
50.0
 43
0.0
 44
0.0
 50
0.0
 71
     0
281
     0
 72
     0
  0
VIEW
  5
176A
330
16B1
100
AcDbSymbolTableRecord
100
AcDbViewTableRecord
  2
GEN3
 70
     0
 40
525.0
 10
403.491903
 20
262.5
 41
806.983806
 11
0.0
 21
0.0
 31
1.0
 12
0.0
 22
0.0
 32
0.0
 42
50.0
 43
0.0
 44
0.0
 50
0.0
 71
     0
281
     0
 72
     0
  0
VIEW
  5
176B
330
16B1
100
AcDbSymbolTableRecord
100
AcDbViewTableRecord
  2
GEN4
 70
     0
 40
525.0
 10
646.508097
 20
262.5
 41
806.983806
 11
0.0
 21
0.0
 31
1.0
 12
0.0
 22
0.0
 32
0.0
 42
50.0
 43
0.0
 44
0.0
 50
0.0
 71
     0
281
     0
 72
     0
  0
VIEW
  5
176C
330
16B1
100
AcDbSymbolTableRecord
100
AcDbViewTableRecord
  2
GEN5
 70
     0
 40
525.0
 10
525.0
 20
525.0
 41
806.983806
 11
0.0
 21
0.0
 31
1.0
 12
0.0
 22
0.0
 32
0.0
 42
50.0
 43
0.0
 44
0.0
 50
0.0
 71
     0
281
     0
 72
     0
  0
VIEW
  5
176D
330
16B1
100
AcDbSymbolTableRecord
100
AcDbViewTableRecord
  2
GEN6
 70
     0
 40
1049.9895
 10
525.0
 20
525.0
 41
1613.951472
 11
0.0
 21
0.0
 31
1.0
 12
0.0
 22
0.0
 32
0.0
 42
50.0
 43
0.0
 44
0.0
 50
0.0
 71
     0
281
     0
 72
     0
  0
ENDTAB
  0
TABLE
  2
UCS
  5
16B2
330
0
100
AcDbSymbolTable
 70
     0
  0
ENDTAB
  0
TABLE
  2
APPID
  5
16B4
330
0
100
AcDbSymbolTable
 70
    39
  0
APPID
  5
16BB
330
16B4
100
AcDbSymbolTableRecord
100
AcDbRegAppTableRecord
  2
ACAD
 70
     0
  0
APPID
  5
16F5
330
16B4
100
AcDbSymbolTableRecord
100
AcDbRegAppTableRecord
  2
GENIUS_GENCFG_13
 70
     0
1001
GENIUS_DUMCFG0_13
1000
DUM
1001
GENIUS_GENCFG0_13
1000
GEN@INFO_POS@XLATE
1001
GENIUS_GENCFG1_13
1000
GEN@INFO_POS
1001
GENIUS_GENCFG2_13
1000
GEN@LAYER@DEFS
1001
GENIUS_GENCFG3_13
1000
GEN@LAYER@ENTSORT
1001
GENIUS_GENCFG4_13
1000
GEN
1001
GENIUS_GEVCFG0_13
1000
GEV
  0
APPID
  5
16F6
330
16B4
100
AcDbSymbolTableRecord
100
AcDbRegAppTableRecord
  2
GENIUS_DUMCFG0_13
 70
     0
1001
GENIUS_GENCFG_13
1071
922180494
1000
16F6
1000
DUM
1070
     0
  0
APPID
  5
16F7
330
16B4
100
AcDbSymbolTableRecord
100
AcDbRegAppTableRecord
  2
GENIUS_GENCFG0_13
 70
     0
1001
GENIUS_GENCFG_13
1071
1023341191
1000
16F7
1000
GEN@INFO_POS@XLATE
1070
     7
1000
GenCfgObject
1000
GenCfgShort
1000
GenCfgReal
1000
GenCfgBool
1000
GenCfgString
1000
GenCfgDim
1000
GenCfgAttrInf
1000
INFOPOINTS
1070
     0
1002
{
1000
GENINF14
1070
     0
1002
{
1000
2GENINF
1070
     4
1000
2
1002
{
1002
}
1000
5GENINF
1070
     4
1000
5
1002
{
1002
}
1000
7GENINF
1070
     4
1000
7
1002
{
1002
}
1000
9GENINF
1070
     4
1000
9
1002
{
1002
}
1000
11GENINF
1070
     4
1000
11
1002
{
1002
}
1000
14GENINF
1070
     4
1000
14
1002
{
1002
}
1002
}
1000
GENINF13
1070
     0
1002
{
1000
2GENINF
1070
     4
1000
2
1002
{
1002
}
1000
3GENINF
1070
     4
1000
3
1002
{
1002
}
1000
4GENINF
1070
     4
1000
4
1002
{
1002
}
1000
5GENINF
1070
     4
1000
5
1002
{
1002
}
1000
6GENINF
1070
     4
1000
6
1002
{
1002
}
1000
7GENINF
1070
     4
1000
7
1002
{
1002
}
1000
8GENINF
1070
     4
1000
8
1002
{
1002
}
1000
9GENINF
1070
     4
1000
9
1002
{
1002
}
1000
10GENINF
1070
     4
1000
10
1002
{
1002
}
1000
11GENINF
1070
     4
1000
11
1002
{
1002
}
1000
12GENINF
1070
     4
1000
12
1002
{
1002
}
1000
13GENINF
1070
     4
1000
13
1002
{
1002
}
1000
14GENINF
1070
     4
1000
14
1002
{
1002
}
1000
15GENINF
1070
     4
1000
15
1002
{
1002
}
1000
16GENINF
1070
     4
1000
16
1002
{
1002
}
1000
17GENINF
1070
     4
1000
17
1002
{
1002
}
1000
18GENINF
1070
     4
1000
18
1002
{
1002
}
1000
19GENINF
1070
     4
1000
19
1002
{
1002
}
1000
20GENINF
1070
     4
1000
20
1002
{
1002
}
1000
21GENINF
1070
     4
1000
21
1002
{
1002
}
1000
22GENINF
1070
     4
1000
22
1002
{
1002
}
1000
23GENINF
1070
     4
1000
23
1002
{
1002
}
1000
24GENINF
1070
     4
1000
24
1002
{
1002
}
1000
0GENINF
1070
     4
1000
0
1002
{
1002
}
1002
}
1000
GENINFO
1070
     0
1002
{
1000
3GENINF
1070
     4
1000
3
1002
{
1002
}
1000
4GENINF
1070
     4
1000
4
1002
{
1002
}
1000
5GENINF
1070
     4
1000
5
1002
{
1002
}
1000
6GENINF
1070
     4
1000
6
1002
{
1002
}
1000
7GENINF
1070
     4
1000
7
1002
{
1002
}
1000
8GENINF
1070
     4
1000
8
1002
{
1002
}
1000
9GENINF
1070
     4
1000
9
1002
{
1002
}
1000
10GENINF
1070
     4
1000
10
1002
{
1002
}
1000
11GENINF
1070
     4
1000
11
1002
{
1002
}
1000
12GENINF
1070
     4
1000
12
1002
{
1002
}
1000
13GENINF
1070
     4
1000
13
1002
{
1002
}
1000
14GENINF
1070
     4
1000
14
1002
{
1002
}
1000
15GENINF
1070
     4
1000
15
1002
{
1002
}
1000
16GENINF
1070
     4
1000
16
1002
{
1002
}
1000
17GENINF
1070
     4
1000
17
1002
{
1002
}
1000
18GENINF
1070
     4
1000
18
1002
{
1002
}
1000
19GENINF
1070
     4
1000
19
1002
{
1002
}
1000
20GENINF
1070
     4
1000
20
1002
{
1002
}
1000
21GENINF
1070
     4
1000
21
1002
{
1002
}
1000
22GENINF
1070
     4
1000
22
1002
{
1002
}
1002
}
1000
DININFO
1070
     0
1002
{
1000
ST-NAME1
1070
     4
1000
5
1002
{
1002
}
1000
ST-NAME2
1070
     4
1000
6
1002
{
1002
}
1000
ST-NORM1
1070
     4
1000
7
1002
{
1002
}
1000
ST-NORM2
1070
     4
1000
8
1002
{
1002
}
1000
ST-MAT1
1070
     4
1000
9
1002
{
1002
}
1000
ST-MAT2
1070
     4
1000
10
1002
{
1002
}
1002
}
1002
}
1000
POS_NUMBERS
1070
     0
1002
{
1000
GENPOS14
1070
     0
1002
{
1000
1GENPOS
1070
     4
1000
1
1002
{
1002
}
1000
2GENPOS
1070
     4
1000
2
1002
{
1002
}
1000
5GENPOS
1070
     4
1000
5
1002
{
1002
}
1000
7GENPOS
1070
     4
1000
7
1002
{
1002
}
1000
9GENPOS
1070
     4
1000
9
1002
{
1002
}
1000
11GENPOS
1070
     4
1000
11
1002
{
1002
}
1000
14GENPOS
1070
     4
1000
14
1002
{
1002
}
1002
}
1000
GENPOS13
1070
     0
1002
{
1000
1GENPOS
1070
     4
1000
1
1002
{
1002
}
1000
2GENPOS
1070
     4
1000
2
1002
{
1002
}
1000
3GENPOS
1070
     4
1000
3
1002
{
1002
}
1000
4GENPOS
1070
     4
1000
4
1002
{
1002
}
1000
5GENPOS
1070
     4
1000
5
1002
{
1002
}
1000
6GENPOS
1070
     4
1000
6
1002
{
1002
}
1000
7GENPOS
1070
     4
1000
7
1002
{
1002
}
1000
8GENPOS
1070
     4
1000
8
1002
{
1002
}
1000
9GENPOS
1070
     4
1000
9
1002
{
1002
}
1000
10GENPOS
1070
     4
1000
10
1002
{
1002
}
1000
11GENPOS
1070
     4
1000
11
1002
{
1002
}
1000
12GENPOS
1070
     4
1000
12
1002
{
1002
}
1000
13GENPOS
1070
     4
1000
13
1002
{
1002
}
1000
14GENPOS
1070
     4
1000
14
1002
{
1002
}
1000
15GENPOS
1070
     4
1000
15
1002
{
1002
}
1000
16GENPOS
1070
     4
1000
16
1002
{
1002
}
1000
17GENPOS
1070
     4
1000
17
1002
{
1002
}
1000
18GENPOS
1070
     4
1000
18
1002
{
1002
}
1000
19GENPOS
1070
     4
1000
19
1002
{
1002
}
1000
20GENPOS
1070
     4
1000
20
1002
{
1002
}
1000
21GENPOS
1070
     4
1000
21
1002
{
1002
}
1000
22GENPOS
1070
     4
1000
22
1002
{
1002
}
1000
23GENPOS
1070
     4
1000
23
1002
{
1002
}
1000
24GENPOS
1070
     4
1000
24
1002
{
1002
}
1000
0GENPOS
1070
     4
1000
0
1002
{
1002
}
1002
}
1000
GENPOS
1070
     0
1002
{
1000
1GENPOS
1070
     4
1000
1
1002
{
1002
}
1000
2GENPOS
1070
     4
1000
2
1002
{
1002
}
1000
3GENPOS
1070
     4
1000
3
1002
{
1002
}
1000
4GENPOS
1070
     4
1000
4
1002
{
1002
}
1000
5GENPOS
1070
     4
1000
5
1002
{
1002
}
1000
6GENPOS
1070
     4
1000
6
1002
{
1002
}
1000
7GENPOS
1070
     4
1000
7
1002
{
1002
}
1000
8GENPOS
1070
     4
1000
8
1002
{
1002
}
1000
9GENPOS
1070
     4
1000
9
1002
{
1002
}
1000
10GENPOS
1070
     4
1000
10
1002
{
1002
}
1000
11GENPOS
1070
     4
1000
11
1002
{
1002
}
1000
12GENPOS
1070
     4
1000
12
1002
{
1002
}
1000
13GENPOS
1070
     4
1000
13
1002
{
1002
}
1000
14GENPOS
1070
     4
1000
14
1002
{
1002
}
1000
15GENPOS
1070
     4
1000
15
1002
{
1002
}
1000
16GENPOS
1070
     4
1000
16
1002
{
1002
}
1000
17GENPOS
1070
     4
1000
17
1002
{
1002
}
1000
18GENPOS
1070
     4
1000
18
1002
{
1002
}
1000
19GENPOS
1070
     4
1000
19
1002
{
1002
}
1000
20GENPOS
1070
     4
1000
20
1002
{
1002
}
1000
21GENPOS
1070
     4
1000
21
1002
{
1002
}
1000
22GENPOS
1070
     4
1000
22
1002
{
1002
}
1000
23GENPOS
1070
     4
1000
23
1002
{
1002
}
1002
}
1000
DIN985
1070
     0
1002
{
1000
POSITION
1070
     4
1000
1
1002
{
1002
}
1000
MENGE
1070
     4
1000
2
1002
{
1002
}
1000
BLATT
1070
     4
1000
3
1002
{
1002
}
1000
BENENN
1070
     4
1000
5
1002
{
1002
}
1000
BENENN2
1070
     4
1000
6
1002
{
1002
}
1000
NORM
1070
     4
1000
7
1002
{
1002
}
1000
NORM2
1070
     4
1000
8
1002
{
1002
}
1000
WERKSTOFF
1070
     4
1000
9
1002
{
1002
}
1000
WERKSTOFF2
1070
     4
1000
10
1002
{
1002
}
1002
}
1000
DIN986
1070
     0
1002
{
1000
POSITION
1070
     4
1000
1
1002
{
1002
}
1000
MENGE
1070
     4
1000
2
1002
{
1002
}
1000
BLATT
1070
     4
1000
3
1002
{
1002
}
1000
BENENN
1070
     4
1000
5
1002
{
1002
}
1000
BENENN2
1070
     4
1000
6
1002
{
1002
}
1000
NORM
1070
     4
1000
7
1002
{
1002
}
1000
NORM2
1070
     4
1000
8
1002
{
1002
}
1000
WERKSTOFF
1070
     4
1000
9
1002
{
1002
}
1000
WERKSTOFF2
1070
     4
1000
10
1002
{
1002
}
1002
}
1000
DIN987
1070
     0
1002
{
1000
POSITION
1070
     4
1000
1
1002
{
1002
}
1000
MENGE
1070
     4
1000
2
1002
{
1002
}
1000
BLATT
1070
     4
1000
3
1002
{
1002
}
1000
BENENN
1070
     4
1000
5
1002
{
1002
}
1000
BENENN2
1070
     4
1000
6
1002
{
1002
}
1000
NORM
1070
     4
1000
7
1002
{
1002
}
1000
NORM2
1070
     4
1000
8
1002
{
1002
}
1000
WERKSTOFF
1070
     4
1000
9
1002
{
1002
}
1000
WERKSTOFF2
1070
     4
1000
10
1002
{
1002
}
1002
}
1002
}
  0
APPID
  5
16F8
330
16B4
100
AcDbSymbolTableRecord
100
AcDbRegAppTableRecord
  2
GENIUS_GENCFG1_13
 70
     0
1001
GENIUS_GENCFG_13
1071
1023341191
1000
16F8
1000
GEN@INFO_POS
1070
     7
1000
GenCfgObject
1000
GenCfgShort
1000
GenCfgReal
1000
GenCfgBool
1000
GenCfgString
1000
GenCfgDim
1000
GenCfgAttrInf
1000
DescrText
1070
     4
1000
5, ,6, ,7, ,8
1002
{
1002
}
1000
DescrText2
1070
     4
1000
26
1002
{
1002
}
1000
VisibleAttr1
1070
     4
1000
1
1002
{
1002
}
1000
VisibleAttr2
1070
     4
1000
26
1002
{
1002
}
1000
UpdateBlock
1070
     3
1070
     1
1002
{
1002
}
1000
Attrib
1070
     0
1002
{
1000
0
1070
     6
1002
{
1000
Prompt
1070
     4
1000
(genmsg gendwg 103)
1002
{
1002
}
1000
Value
1070
     4
1000

1002
{
1002
}
1000
EditFlag
1070
     1
1070
     0
1002
{
1002
}
1000
PosInDDATTE
1070
     1
1070
    27
1002
{
1002
}
1000
FieldLen
1070
     1
1070
    -1
1002
{
1002
}
1002
}
1000
1
1070
     6
1002
{
1000
Prompt
1070
     4
1000
(genmsg gendwg 31)
1002
{
1002
}
1000
Value
1070
     4
1000
1
1002
{
1002
}
1000
EditFlag
1070
     1
1070
     1
1002
{
1002
}
1000
PosInDDATTE
1070
     1
1070
     1
1002
{
1002
}
1000
FieldLen
1070
     1
1070
    -1
1002
{
1002
}
1002
}
1000
2
1070
     6
1002
{
1000
Prompt
1070
     4
1000
(genmsg gendwg 32)
1002
{
1002
}
1000
Value
1070
     4
1000
1
1002
{
1002
}
1000
EditFlag
1070
     1
1070
     1
1002
{
1002
}
1000
PosInDDATTE
1070
     1
1070
     2
1002
{
1002
}
1000
FieldLen
1070
     1
1070
    -1
1002
{
1002
}
1002
}
1000
3
1070
     6
1002
{
1000
Prompt
1070
     4
1000
(genmsg gendwg 33)
1002
{
1002
}
1000
Value
1070
     4
1000

1002
{
1002
}
1000
EditFlag
1070
     1
1070
     1
1002
{
1002
}
1000
PosInDDATTE
1070
     1
1070
     3
1002
{
1002
}
1000
FieldLen
1070
     1
1070
    -1
1002
{
1002
}
1002
}
1000
4
1070
     6
1002
{
1000
Prompt
1070
     4
1000
(genmsg gendwg 34)
1002
{
1002
}
1000
Value
1070
     4
1000

1002
{
1002
}
1000
EditFlag
1070
     1
1070
     1
1002
{
1002
}
1000
PosInDDATTE
1070
     1
1070
     4
1002
{
1002
}
1000
FieldLen
1070
     1
1070
    -1
1002
{
1002
}
1002
}
1000
5
1070
     6
1002
{
1000
Prompt
1070
     4
1000
(genmsg gendwg 35)
1002
{
1002
}
1000
Value
1070
     4
1000

1002
{
1002
}
1000
EditFlag
1070
     1
1070
     1
1002
{
1002
}
1000
PosInDDATTE
1070
     1
1070
     5
1002
{
1002
}
1000
FieldLen
1070
     1
1070
    -1
1002
{
1002
}
1002
}
1000
6
1070
     6
1002
{
1000
Prompt
1070
     4
1000
(genmsg gendwg 36)
1002
{
1002
}
1000
Value
1070
     4
1000

1002
{
1002
}
1000
EditFlag
1070
     1
1070
     1
1002
{
1002
}
1000
PosInDDATTE
1070
     1
1070
     6
1002
{
1002
}
1000
FieldLen
1070
     1
1070
    -1
1002
{
1002
}
1002
}
1000
7
1070
     6
1002
{
1000
Prompt
1070
     4
1000
(genmsg gendwg 37)
1002
{
1002
}
1000
Value
1070
     4
1000

1002
{
1002
}
1000
EditFlag
1070
     1
1070
     1
1002
{
1002
}
1000
PosInDDATTE
1070
     1
1070
     7
1002
{
1002
}
1000
FieldLen
1070
     1
1070
    -1
1002
{
1002
}
1002
}
1000
8
1070
     6
1002
{
1000
Prompt
1070
     4
1000
(genmsg gendwg 38)
1002
{
1002
}
1000
Value
1070
     4
1000

1002
{
1002
}
1000
EditFlag
1070
     1
1070
     1
1002
{
1002
}
1000
PosInDDATTE
1070
     1
1070
     8
1002
{
1002
}
1000
FieldLen
1070
     1
1070
    -1
1002
{
1002
}
1002
}
1000
9
1070
     6
1002
{
1000
Prompt
1070
     4
1000
(genmsg gendwg 39)
1002
{
1002
}
1000
Value
1070
     4
1000

1002
{
1002
}
1000
EditFlag
1070
     1
1070
     1
1002
{
1002
}
1000
PosInDDATTE
1070
     1
1070
     9
1002
{
1002
}
1000
FieldLen
1070
     1
1070
    -1
1002
{
1002
}
1002
}
1000
10
1070
     6
1002
{
1000
Prompt
1070
     4
1000
(genmsg gendwg 40)
1002
{
1002
}
1000
Value
1070
     4
1000

1002
{
1002
}
1000
EditFlag
1070
     1
1070
     1
1002
{
1002
}
1000
PosInDDATTE
1070
     1
1070
    10
1002
{
1002
}
1000
FieldLen
1070
     1
1070
    -1
1002
{
1002
}
1002
}
1000
11
1070
     6
1002
{
1000
Prompt
1070
     4
1000
(genmsg gendwg 41)
1002
{
1002
}
1000
Value
1070
     4
1000

1002
{
1002
}
1000
EditFlag
1070
     1
1070
     1
1002
{
1002
}
1000
PosInDDATTE
1070
     1
1070
    11
1002
{
1002
}
1000
FieldLen
1070
     1
1070
    -1
1002
{
1002
}
1002
}
1000
12
1070
     6
1002
{
1000
Prompt
1070
     4
1000
(genmsg gendwg 42)
1002
{
1002
}
1000
Value
1070
     4
1000

1002
{
1002
}
1000
EditFlag
1070
     1
1070
     1
1002
{
1002
}
1000
PosInDDATTE
1070
     1
1070
    12
1002
{
1002
}
1000
FieldLen
1070
     1
1070
    -1
1002
{
1002
}
1002
}
1000
13
1070
     6
1002
{
1000
Prompt
1070
     4
1000
(genmsg gendwg 43)
1002
{
1002
}
1000
Value
1070
     4
1000

1002
{
1002
}
1000
EditFlag
1070
     1
1070
     1
1002
{
1002
}
1000
PosInDDATTE
1070
     1
1070
    13
1002
{
1002
}
1000
FieldLen
1070
     1
1070
    -1
1002
{
1002
}
1002
}
1000
14
1070
     6
1002
{
1000
Prompt
1070
     4
1000
(genmsg gendwg 44)
1002
{
1002
}
1000
Value
1070
     4
1000

1002
{
1002
}
1000
EditFlag
1070
     1
1070
     1
1002
{
1002
}
1000
PosInDDATTE
1070
     1
1070
    14
1002
{
1002
}
1000
FieldLen
1070
     1
1070
    -1
1002
{
1002
}
1002
}
1000
15
1070
     6
1002
{
1000
Prompt
1070
     4
1000
(genmsg gendwg 45)
1002
{
1002
}
1000
Value
1070
     4
1000

1002
{
1002
}
1000
EditFlag
1070
     1
1070
     1
1002
{
1002
}
1000
PosInDDATTE
1070
     1
1070
    15
1002
{
1002
}
1000
FieldLen
1070
     1
1070
    -1
1002
{
1002
}
1002
}
1000
16
1070
     6
1002
{
1000
Prompt
1070
     4
1000
(genmsg gendwg 46)
1002
{
1002
}
1000
Value
1070
     4
1000

1002
{
1002
}
1000
EditFlag
1070
     1
1070
     1
1002
{
1002
}
1000
PosInDDATTE
1070
     1
1070
    16
1002
{
1002
}
1000
FieldLen
1070
     1
1070
    -1
1002
{
1002
}
1002
}
1000
17
1070
     6
1002
{
1000
Prompt
1070
     4
1000
(genmsg gendwg 47)
1002
{
1002
}
1000
Value
1070
     4
1000

1002
{
1002
}
1000
EditFlag
1070
     1
1070
     1
1002
{
1002
}
1000
PosInDDATTE
1070
     1
1070
    17
1002
{
1002
}
1000
FieldLen
1070
     1
1070
    -1
1002
{
1002
}
1002
}
1000
18
1070
     6
1002
{
1000
Prompt
1070
     4
1000
(genmsg gendwg 48)
1002
{
1002
}
1000
Value
1070
     4
1000

1002
{
1002
}
1000
EditFlag
1070
     1
1070
     1
1002
{
1002
}
1000
PosInDDATTE
1070
     1
1070
    18
1002
{
1002
}
1000
FieldLen
1070
     1
1070
    -1
1002
{
1002
}
1002
}
1000
19
1070
     6
1002
{
1000
Prompt
1070
     4
1000
(genmsg gendwg 99)
1002
{
1002
}
1000
Value
1070
     4
1000

1002
{
1002
}
1000
EditFlag
1070
     1
1070
     1
1002
{
1002
}
1000
PosInDDATTE
1070
     1
1070
    19
1002
{
1002
}
1000
FieldLen
1070
     1
1070
    -1
1002
{
1002
}
1002
}
1000
20
1070
     6
1002
{
1000
Prompt
1070
     4
1000
(genmsg gendwg 100)
1002
{
1002
}
1000
Value
1070
     4
1000

1002
{
1002
}
1000
EditFlag
1070
     1
1070
     1
1002
{
1002
}
1000
PosInDDATTE
1070
     1
1070
    20
1002
{
1002
}
1000
FieldLen
1070
     1
1070
    -1
1002
{
1002
}
1002
}
1000
21
1070
     6
1002
{
1000
Prompt
1070
     4
1000
(genmsg gendwg 101)
1002
{
1002
}
1000
Value
1070
     4
1000

1002
{
1002
}
1000
EditFlag
1070
     1
1070
     1
1002
{
1002
}
1000
PosInDDATTE
1070
     1
1070
    21
1002
{
1002
}
1000
FieldLen
1070
     1
1070
    -1
1002
{
1002
}
1002
}
1000
22
1070
     6
1002
{
1000
Prompt
1070
     4
1000
(genmsg gendwg 102)
1002
{
1002
}
1000
Value
1070
     4
1000

1002
{
1002
}
1000
EditFlag
1070
     1
1070
     1
1002
{
1002
}
1000
PosInDDATTE
1070
     1
1070
    22
1002
{
1002
}
1000
FieldLen
1070
     1
1070
    -1
1002
{
1002
}
1002
}
1000
23
1070
     6
1002
{
1000
Prompt
1070
     4
1000
(genmsg gendwg 30)
1002
{
1002
}
1000
Value
1070
     4
1000

1002
{
1002
}
1000
EditFlag
1070
     1
1070
     1
1002
{
1002
}
1000
PosInDDATTE
1070
     1
1070
    23
1002
{
1002
}
1000
FieldLen
1070
     1
1070
    -1
1002
{
1002
}
1002
}
1000
24
1070
     6
1002
{
1000
Prompt
1070
     4
1000
(genmsg gendwg 104)
1002
{
1002
}
1000
Value
1070
     4
1000

1002
{
1002
}
1000
EditFlag
1070
     1
1070
     1
1002
{
1002
}
1000
PosInDDATTE
1070
     1
1070
    24
1002
{
1002
}
1000
FieldLen
1070
     1
1070
    -1
1002
{
1002
}
1002
}
1000
25
1070
     6
1002
{
1000
Prompt
1070
     4
1000
(genmsg gendwg 105)
1002
{
1002
}
1000
Value
1070
     4
1000

1002
{
1002
}
1000
EditFlag
1070
     1
1070
     1
1002
{
1002
}
1000
PosInDDATTE
1070
     1
1070
    25
1002
{
1002
}
1000
FieldLen
1070
     1
1070
    -1
1002
{
1002
}
1002
}
1000
26
1070
     6
1002
{
1000
Prompt
1070
     4
1000
(genmsg gendwg 106)
1002
{
1002
}
1000
Value
1070
     4
1000

1002
{
1002
}
1000
EditFlag
1070
     1
1070
     1
1002
{
1002
}
1000
PosInDDATTE
1070
     1
1070
    26
1002
{
1002
}
1000
FieldLen
1070
     1
1070
    -1
1002
{
1002
}
1002
}
1000
27
1070
     6
1002
{
1000
Prompt
1070
     4
1000
(genmsg gendwg 109)
1002
{
1002
}
1000
Value
1070
     4
1000

1002
{
1002
}
1000
EditFlag
1070
     1
1070
     2
1002
{
1002
}
1000
PosInDDATTE
1070
     1
1070
    27
1002
{
1002
}
1000
FieldLen
1070
     1
1070
    -1
1002
{
1002
}
1002
}
1002
}
1000
Xlate
1070
     0
1002
{
1000
>
1002
}
  0
APPID
  5
16F9
330
16B4
100
AcDbSymbolTableRecord
100
AcDbRegAppTableRecord
  2
GENIUS_GENCFG2_13
 70
     0
1001
GENIUS_GENCFG_13
1071
1023341191
1000
16F9
1000
GEN@LAYER@DEFS
1070
     9
1000
GenCfgObject
1000
GenCfgShort
1000
GenCfgReal
1000
GenCfgBool
1000
GenCfgString
1000
GenCfgDim
1000
GenCfgAttrInf
1000
GenCfgLaySection
1000
GenCfgLayer
1000
Basic
1070
     0
1002
{
1000
0
1070
     8
1000
0
1002
{
1000
Color
1070
     1
1070
     7
1002
{
1002
}
1000
LType
1070
     4
1000
CONTINUOUS
1002
{
1002
}
1000
Base
1070
     3
1070
     0
1002
{
1002
}
1002
}
1000
1
1070
     8
1000
1
1002
{
1000
Color
1070
     1
1070
    14
1002
{
1002
}
1000
LType
1070
     4
1000
CONTINUOUS
1002
{
1002
}
1000
Base
1070
     3
1070
     0
1002
{
1002
}
1002
}
1000
2
1070
     8
1000
2
1002
{
1000
Color
1070
     1
1070
     5
1002
{
1002
}
1000
LType
1070
     4
1000
CONTINUOUS
1002
{
1002
}
1000
Base
1070
     3
1070
     0
1002
{
1002
}
1002
}
1000
3
1070
     8
1000
3
1002
{
1000
Color
1070
     1
1070
     6
1002
{
1002
}
1000
LType
1070
     4
1000
GEN3
1002
{
1002
}
1000
Base
1070
     3
1070
     0
1002
{
1002
}
1002
}
1000
4
1070
     8
1000
4
1002
{
1000
Color
1070
     1
1070
     3
1002
{
1002
}
1000
LType
1070
     4
1000
CONTINUOUS
1002
{
1002
}
1000
Base
1070
     3
1070
     0
1002
{
1002
}
1002
}
1000
5
1070
     8
1000
5
1002
{
1000
Color
1070
     1
1070
     3
1002
{
1002
}
1000
LType
1070
     4
1000
CONTINUOUS
1002
{
1002
}
1000
Base
1070
     3
1070
     0
1002
{
1002
}
1002
}
1000
6
1070
     8
1000
6
1002
{
1000
Color
1070
     1
1070
     2
1002
{
1002
}
1000
LType
1070
     4
1000
CONTINUOUS
1002
{
1002
}
1000
Base
1070
     3
1070
     0
1002
{
1002
}
1002
}
1000
7
1070
     8
1000
7
1002
{
1000
Color
1070
     1
1070
     4
1002
{
1002
}
1000
LType
1070
     4
1000
GEN7
1002
{
1002
}
1000
Base
1070
     3
1070
     0
1002
{
1002
}
1002
}
1000
8
1070
     8
1000
8
1002
{
1000
Color
1070
     1
1070
     1
1002
{
1002
}
1000
LType
1070
     4
1000
CONTINUOUS
1002
{
1002
}
1000
Base
1070
     3
1070
     0
1002
{
1002
}
1002
}
1000
3A
1070
     8
1000
3A
1002
{
1000
Color
1070
     1
1070
     6
1002
{
1002
}
1000
LType
1070
     4
1000
GEN3A
1002
{
1002
}
1000
Base
1070
     3
1070
     0
1002
{
1002
}
1002
}
1000
7A
1070
     8
1000
7A
1002
{
1000
Color
1070
     1
1070
     4
1002
{
1002
}
1000
LType
1070
     4
1000
GEN7A
1002
{
1002
}
1000
Base
1070
     3
1070
     0
1002
{
1002
}
1002
}
1000
2A
1070
     8
1000
2A
1002
{
1000
Color
1070
     1
1070
     7
1002
{
1002
}
1000
LType
1070
     4
1000
GEN7
1002
{
1002
}
1000
Base
1070
     3
1070
     0
1002
{
1002
}
1002
}
1000
4A
1070
     8
1000
4A
1002
{
1000
Color
1070
     1
1070
     3
1002
{
1002
}
1000
LType
1070
     4
1000
GEN4A
1002
{
1002
}
1000
Base
1070
     3
1070
     0
1002
{
1002
}
1002
}
1000
9
1070
     8
1000
9
1002
{
1000
Color
1070
     1
1070
   253
1002
{
1002
}
1000
LType
1070
     4
1000
CONTINUOUS
1002
{
1002
}
1000
Base
1070
     3
1070
     0
1002
{
1002
}
1002
}
1000
IP
1070
     8
1000
IP
1002
{
1000
Color
1070
     1
1070
     7
1002
{
1002
}
1000
LType
1070
     4
1000
CONTINUOUS
1002
{
1002
}
1000
Base
1070
     3
1070
     0
1002
{
1002
}
1002
}
1002
}
1000
Standard
1070
     0
1002
{
1000
0N
1070
     8
1000
0N
1002
{
1000
Color
1070
     1
1070
     7
1002
{
1002
}
1000
LType
1070
     4
1000
CONTINUOUS
1002
{
1002
}
1000
Base
1070
     3
1070
     0
1002
{
1002
}
1002
}
1000
1N
1070
     8
1000
1N
1002
{
1000
Color
1070
     1
1070
    14
1002
{
1002
}
1000
LType
1070
     4
1000
CONTINUOUS
1002
{
1002
}
1000
Base
1070
     3
1070
     0
1002
{
1002
}
1002
}
1000
2N
1070
     8
1000
2N
1002
{
1000
Color
1070
     1
1070
     5
1002
{
1002
}
1000
LType
1070
     4
1000
CONTINUOUS
1002
{
1002
}
1000
Base
1070
     3
1070
     0
1002
{
1002
}
1002
}
1000
3N
1070
     8
1000
3N
1002
{
1000
Color
1070
     1
1070
     6
1002
{
1002
}
1000
LType
1070
     4
1000
GEN3
1002
{
1002
}
1000
Base
1070
     3
1070
     0
1002
{
1002
}
1002
}
1000
4N
1070
     8
1000
4N
1002
{
1000
Color
1070
     1
1070
     3
1002
{
1002
}
1000
LType
1070
     4
1000
CONTINUOUS
1002
{
1002
}
1000
Base
1070
     3
1070
     0
1002
{
1002
}
1002
}
1000
5N
1070
     8
1000
5N
1002
{
1000
Color
1070
     1
1070
     3
1002
{
1002
}
1000
LType
1070
     4
1000
CONTINUOUS
1002
{
1002
}
1000
Base
1070
     3
1070
     0
1002
{
1002
}
1002
}
1000
6N
1070
     8
1000
6N
1002
{
1000
Color
1070
     1
1070
     2
1002
{
1002
}
1000
LType
1070
     4
1000
CONTINUOUS
1002
{
1002
}
1000
Base
1070
     3
1070
     0
1002
{
1002
}
1002
}
1000
7N
1070
     8
1000
7N
1002
{
1000
Color
1070
     1
1070
     4
1002
{
1002
}
1000
LType
1070
     4
1000
GEN7
1002
{
1002
}
1000
Base
1070
     3
1070
     0
1002
{
1002
}
1002
}
1000
8N
1070
     8
1000
8N
1002
{
1000
Color
1070
     1
1070
     1
1002
{
1002
}
1000
LType
1070
     4
1000
CONTINUOUS
1002
{
1002
}
1000
Base
1070
     3
1070
     0
1002
{
1002
}
1002
}
1000
3AN
1070
     8
1000
3AN
1002
{
1000
Color
1070
     1
1070
     6
1002
{
1002
}
1000
LType
1070
     4
1000
GEN3A
1002
{
1002
}
1000
Base
1070
     3
1070
     0
1002
{
1002
}
1002
}
1000
7AN
1070
     8
1000
7AN
1002
{
1000
Color
1070
     1
1070
     4
1002
{
1002
}
1000
LType
1070
     4
1000
GEN7A
1002
{
1002
}
1000
Base
1070
     3
1070
     0
1002
{
1002
}
1002
}
1000
2AN
1070
     8
1000
2AN
1002
{
1000
Color
1070
     1
1070
     7
1002
{
1002
}
1000
LType
1070
     4
1000
GEN7
1002
{
1002
}
1000
Base
1070
     3
1070
     0
1002
{
1002
}
1002
}
1000
4AN
1070
     8
1000
4AN
1002
{
1000
Color
1070
     1
1070
     3
1002
{
1002
}
1000
LType
1070
     4
1000
GEN4A
1002
{
1002
}
1000
Base
1070
     3
1070
     0
1002
{
1002
}
1002
}
1000
9N
1070
     8
1000
9N
1002
{
1000
Color
1070
     1
1070
   253
1002
{
1002
}
1000
LType
1070
     4
1000
CONTINUOUS
1002
{
1002
}
1000
Base
1070
     3
1070
     0
1002
{
1002
}
1002
}
1000
IPN
1070
     8
1000
IPN
1002
{
1000
Color
1070
     1
1070
     7
1002
{
1002
}
1000
LType
1070
     4
1000
CONTINUOUS
1002
{
1002
}
1000
Base
1070
     3
1070
     0
1002
{
1002
}
1002
}
1002
}
1000
Extra
1070
     0
1002
{
1000
Klin
1070
     8
1000
KLIN
1002
{
1000
Color
1070
     1
1070
     1
1002
{
1002
}
1000
LType
1070
     4
1000
CONTINUOUS
1002
{
1002
}
1000
Base
1070
     3
1070
     1
1002
{
1002
}
1002
}
1000
Info
1070
     8
1000
INFO
1002
{
1000
Color
1070
     1
1070
     4
1002
{
1002
}
1000
LType
1070
     4
1000
CONTINUOUS
1002
{
1002
}
1000
Base
1070
     3
1070
     1
1002
{
1002
}
1002
}
1000
Rahm2
1070
     8
1000
RAHM2
1002
{
1000
Color
1070
     1
1070
     1
1002
{
1002
}
1000
LType
1070
     4
1000
CONTINUOUS
1002
{
1002
}
1000
Base
1070
     3
1070
     1
1002
{
1002
}
1002
}
1000
Rahm3
1070
     8
1000
RAHM3
1002
{
1000
Color
1070
     1
1070
     2
1002
{
1002
}
1000
LType
1070
     4
1000
CONTINUOUS
1002
{
1002
}
1000
Base
1070
     3
1070
     1
1002
{
1002
}
1002
}
1000
Rahm5
1070
     8
1000
RAHM5
1002
{
1000
Color
1070
     1
1070
     7
1002
{
1002
}
1000
LType
1070
     4
1000
CONTINUOUS
1002
{
1002
}
1000
Base
1070
     3
1070
     1
1002
{
1002
}
1002
}
1000
View
1070
     8
1000
VIEW
1002
{
1000
Color
1070
     1
1070
     1
1002
{
1002
}
1000
LType
1070
     4
1000
CONTINUOUS
1002
{
1002
}
1000
Base
1070
     3
1070
     1
1002
{
1002
}
1002
}
1000
Behind
1070
     8
1000
BEHIND
1002
{
1000
Color
1070
     1
1070
   253
1002
{
1002
}
1000
LType
1070
     4
1000
CONTINUOUS
1002
{
1002
}
1000
Base
1070
     3
1070
     1
1002
{
1002
}
1002
}
1002
}
  0
APPID
  5
16FA
330
16B4
100
AcDbSymbolTableRecord
100
AcDbRegAppTableRecord
  2
GENIUS_GENCFG3_13
 70
     0
1001
GENIUS_GENCFG_13
1071
1023341191
1000
16FA
1000
GEN@LAYER@ENTSORT
1070
    10
1000
GenCfgObject
1000
GenCfgShort
1000
GenCfgReal
1000
GenCfgBool
1000
GenCfgString
1000
GenCfgDim
1000
GenCfgAttrInf
1000
GenCfgLaySection
1000
GenCfgLayer
1000
GenCfgEntSort
1000
ADDL
1070
     9
1000
5
1002
{
1000
Class
1070
     4
1000
SYM
1002
{
1002
}
1000
Color
1070
     1
1070
     1
1002
{
1002
}
1000
LType
1070
     4
1000
BYLAYER
1002
{
1002
}
1002
}
1000
ALTR
1070
     9
1000
4
1002
{
1000
Class
1070
     4
1000

1002
{
1002
}
1000
Color
1070
     1
1070
     7
1002
{
1002
}
1000
LType
1070
     4
1000
GEN3A
1002
{
1002
}
1002
}
1000
BELI
1070
     9
1000
4
1002
{
1000
Class
1070
     4
1000

1002
{
1002
}
1000
Color
1070
     1
1070
   256
1002
{
1002
}
1000
LType
1070
     4
1000
BYLAYER
1002
{
1002
}
1002
}
1000
BHNV
1070
     9
1000
9
1002
{
1000
Class
1070
     4
1000
INV
1002
{
1002
}
1000
Color
1070
     1
1070
   256
1002
{
1002
}
1000
LType
1070
     4
1000
BYLAYER
1002
{
1002
}
1002
}
1000
BHNVS
1070
     9
1000
BEHIND
1002
{
1000
Class
1070
     4
1000
INV
1002
{
1002
}
1000
Color
1070
     1
1070
   256
1002
{
1002
}
1000
LType
1070
     4
1000
BYLAYER
1002
{
1002
}
1002
}
1000
BLID
1070
     9
1000
4A
1002
{
1000
Class
1070
     4
1000

1002
{
1002
}
1000
Color
1070
     1
1070
   256
1002
{
1002
}
1000
LType
1070
     4
1000
BYLAYER
1002
{
1002
}
1002
}
1000
BOAP
1070
     9
1000
4A
1002
{
1000
Class
1070
     4
1000

1002
{
1002
}
1000
Color
1070
     1
1070
   256
1002
{
1002
}
1000
LType
1070
     4
1000
BYLAYER
1002
{
1002
}
1002
}
1000
BOR2
1070
     9
1000
RAHM2
1002
{
1000
Class
1070
     4
1000
SPZ,SYM
1002
{
1002
}
1000
Color
1070
     1
1070
   256
1002
{
1002
}
1000
LType
1070
     4
1000
BYLAYER
1002
{
1002
}
1002
}
1000
BOR3
1070
     9
1000
RAHM3
1002
{
1000
Class
1070
     4
1000
SPZ,SYM
1002
{
1002
}
1000
Color
1070
     1
1070
   256
1002
{
1002
}
1000
LType
1070
     4
1000
BYLAYER
1002
{
1002
}
1002
}
1000
BOR5
1070
     9
1000
RAHM5
1002
{
1000
Class
1070
     4
1000
SPZ,SYM
1002
{
1002
}
1000
Color
1070
     1
1070
   256
1002
{
1002
}
1000
LType
1070
     4
1000
BYLAYER
1002
{
1002
}
1002
}
1000
BOR7
1070
     9
1000
RAHM5
1002
{
1000
Class
1070
     4
1000
SPZ,SYM
1002
{
1002
}
1000
Color
1070
     1
1070
     7
1002
{
1002
}
1000
LType
1070
     4
1000
CONTINUOUS
1002
{
1002
}
1002
}
1000
BPAP
1070
     9
1000
4A
1002
{
1000
Class
1070
     4
1000

1002
{
1002
}
1000
Color
1070
     1
1070
   256
1002
{
1002
}
1000
LType
1070
     4
1000
BYLAYER
1002
{
1002
}
1002
}
1000
BPEX
1070
     9
1000
4A
1002
{
1000
Class
1070
     4
1000

1002
{
1002
}
1000
Color
1070
     1
1070
   256
1002
{
1002
}
1000
LType
1070
     4
1000
BYLAYER
1002
{
1002
}
1002
}
1000
BTDI
1070
     9
1000
5
1002
{
1000
Class
1070
     4
1000
DIM,SYM
1002
{
1002
}
1000
Color
1070
     1
1070
   256
1002
{
1002
}
1000
LType
1070
     4
1000
BYLAYER
1002
{
1002
}
1002
}
1000
CAL2
1070
     9
1000
4
1002
{
1000
Class
1070
     4
1000
SYM
1002
{
1002
}
1000
Color
1070
     1
1070
   256
1002
{
1002
}
1000
LType
1070
     4
1000
BYLAYER
1002
{
1002
}
1002
}
1000
CAL3
1070
     9
1000
4
1002
{
1000
Class
1070
     4
1000
SYM
1002
{
1002
}
1000
Color
1070
     1
1070
     2
1002
{
1002
}
1000
LType
1070
     4
1000
BYLAYER
1002
{
1002
}
1002
}
1000
CAL5
1070
     9
1000
4
1002
{
1000
Class
1070
     4
1000
SYM
1002
{
1002
}
1000
Color
1070
     1
1070
     7
1002
{
1002
}
1000
LType
1070
     4
1000
BYLAYER
1002
{
1002
}
1002
}
1000
CAL7
1070
     9
1000
4
1002
{
1000
Class
1070
     4
1000
SYM
1002
{
1002
}
1000
Color
1070
     1
1070
     5
1002
{
1002
}
1000
LType
1070
     4
1000
BYLAYER
1002
{
1002
}
1002
}
1000
CENN
1070
     9
1000
7A
1002
{
1000
Class
1070
     4
1000
CEN
1002
{
1002
}
1000
Color
1070
     1
1070
   256
1002
{
1002
}
1000
LType
1070
     4
1000
BYLAYER
1002
{
1002
}
1002
}
1000
CENW
1070
     9
1000
7
1002
{
1000
Class
1070
     4
1000
CEN
1002
{
1002
}
1000
Color
1070
     1
1070
   256
1002
{
1002
}
1000
LType
1070
     4
1000
BYLAYER
1002
{
1002
}
1002
}
1000
CLIN
1070
     9
1000
KLIN
1002
{
1000
Class
1070
     4
1000
SPZ
1002
{
1002
}
1000
Color
1070
     1
1070
   256
1002
{
1002
}
1000
LType
1070
     4
1000
BYLAYER
1002
{
1002
}
1002
}
1000
CON1
1070
     9
1000
0
1002
{
1000
Class
1070
     4
1000
CON,BGD
1002
{
1002
}
1000
Color
1070
     1
1070
   256
1002
{
1002
}
1000
LType
1070
     4
1000
BYLAYER
1002
{
1002
}
1002
}
1000
CON2
1070
     9
1000
1
1002
{
1000
Class
1070
     4
1000
CON,BGD
1002
{
1002
}
1000
Color
1070
     1
1070
   256
1002
{
1002
}
1000
LType
1070
     4
1000
BYLAYER
1002
{
1002
}
1002
}
1000
CON3
1070
     9
1000
2
1002
{
1000
Class
1070
     4
1000
CON,BGD
1002
{
1002
}
1000
Color
1070
     1
1070
   256
1002
{
1002
}
1000
LType
1070
     4
1000
BYLAYER
1002
{
1002
}
1002
}
1000
CON4
1070
     9
1000
2
1002
{
1000
Class
1070
     4
1000
CON,BGD
1002
{
1002
}
1000
Color
1070
     1
1070
   256
1002
{
1002
}
1000
LType
1070
     4
1000
BYLAYER
1002
{
1002
}
1002
}
1000
DERP
1070
     9
1000
4
1002
{
1000
Class
1070
     4
1000

1002
{
1002
}
1000
Color
1070
     1
1070
   256
1002
{
1002
}
1000
LType
1070
     4
1000
BYLAYER
1002
{
1002
}
1002
}
1000
DETA
1070
     9
1000
4
1002
{
1000
Class
1070
     4
1000

1002
{
1002
}
1000
Color
1070
     1
1070
   256
1002
{
1002
}
1000
LType
1070
     4
1000
BYLAYER
1002
{
1002
}
1002
}
1000
DIAG
1070
     9
1000
5
1002
{
1000
Class
1070
     4
1000
SYM
1002
{
1002
}
1000
Color
1070
     1
1070
   256
1002
{
1002
}
1000
LType
1070
     4
1000
BYLAYER
1002
{
1002
}
1002
}
1000
DILI
1070
     9
1000
5
1002
{
1000
Class
1070
     4
1000
DIM,SYM
1002
{
1002
}
1000
Color
1070
     1
1070
   256
1002
{
1002
}
1000
LType
1070
     4
1000
BYLAYER
1002
{
1002
}
1002
}
1000
DITO2
1070
     9
1000
5
1002
{
1000
Class
1070
     4
1000
DIM,SYM
1002
{
1002
}
1000
Color
1070
     1
1070
     3
1002
{
1002
}
1000
LType
1070
     4
1000
BYLAYER
1002
{
1002
}
1002
}
1000
DITO3
1070
     9
1000
5
1002
{
1000
Class
1070
     4
1000
DIM,SYM
1002
{
1002
}
1000
Color
1070
     1
1070
     2
1002
{
1002
}
1000
LType
1070
     4
1000
BYLAYER
1002
{
1002
}
1002
}
1000
DITX
1070
     9
1000
5
1002
{
1000
Class
1070
     4
1000
DIM,SYM
1002
{
1002
}
1000
Color
1070
     1
1070
     2
1002
{
1002
}
1000
LType
1070
     4
1000
CONTINUOUS
1002
{
1002
}
1002
}
1000
DIXL
1070
     9
1000
5
1002
{
1000
Class
1070
     4
1000
DIM,SYM
1002
{
1002
}
1000
Color
1070
     1
1070
   256
1002
{
1002
}
1000
LType
1070
     4
1000
BYLAYER
1002
{
1002
}
1002
}
1000
EXMP
1070
     9
1000
4A
1002
{
1000
Class
1070
     4
1000

1002
{
1002
}
1000
Color
1070
     1
1070
   256
1002
{
1002
}
1000
LType
1070
     4
1000
BYLAYER
1002
{
1002
}
1002
}
1000
FEMN
1070
     9
1000
8
1002
{
1000
Class
1070
     4
1000

1002
{
1002
}
1000
Color
1070
     1
1070
   256
1002
{
1002
}
1000
LType
1070
     4
1000
BYLAYER
1002
{
1002
}
1002
}
1000
FEMPN
1070
     9
1000
8
1002
{
1000
Class
1070
     4
1000
SYM
1002
{
1002
}
1000
Color
1070
     1
1070
     3
1002
{
1002
}
1000
LType
1070
     4
1000
BYLAYER
1002
{
1002
}
1002
}
1000
FEMSP
1070
     9
1000
4A
1002
{
1000
Class
1070
     4
1000

1002
{
1002
}
1000
Color
1070
     1
1070
   256
1002
{
1002
}
1000
LType
1070
     4
1000
CONTINUOUS
1002
{
1002
}
1002
}
1000
FEMST
1070
     9
1000
4A
1002
{
1000
Class
1070
     4
1000
SYM
1002
{
1002
}
1000
Color
1070
     1
1070
     3
1002
{
1002
}
1000
LType
1070
     4
1000
BYLAYER
1002
{
1002
}
1002
}
1000
FEMVN
1070
     9
1000
2
1002
{
1000
Class
1070
     4
1000
CON
1002
{
1002
}
1000
Color
1070
     1
1070
   256
1002
{
1002
}
1000
LType
1070
     4
1000
BYLAYER
1002
{
1002
}
1002
}
1000
FEMVT
1070
     9
1000
2
1002
{
1000
Class
1070
     4
1000
SYM
1002
{
1002
}
1000
Color
1070
     1
1070
     3
1002
{
1002
}
1000
LType
1070
     4
1000
BYLAYER
1002
{
1002
}
1002
}
1000
FLAT
1070
     9
1000
0
1002
{
1000
Class
1070
     4
1000

1002
{
1002
}
1000
Color
1070
     1
1070
   256
1002
{
1002
}
1000
LType
1070
     4
1000
BYLAYER
1002
{
1002
}
1002
}
1000
FRAR
1070
     9
1000
4A
1002
{
1000
Class
1070
     4
1000

1002
{
1002
}
1000
Color
1070
     1
1070
   256
1002
{
1002
}
1000
LType
1070
     4
1000
BYLAYER
1002
{
1002
}
1002
}
1000
GRLI
1070
     9
1000
5
1002
{
1000
Class
1070
     4
1000
SYM
1002
{
1002
}
1000
Color
1070
     1
1070
   256
1002
{
1002
}
1000
LType
1070
     4
1000
BYLAYER
1002
{
1002
}
1002
}
1000
GVLI
1070
     9
1000
4A
1002
{
1000
Class
1070
     4
1000

1002
{
1002
}
1000
Color
1070
     1
1070
   256
1002
{
1002
}
1000
LType
1070
     4
1000
BYLAYER
1002
{
1002
}
1002
}
1000
HATC
1070
     9
1000
8
1002
{
1000
Class
1070
     4
1000
HTC,BGD
1002
{
1002
}
1000
Color
1070
     1
1070
   256
1002
{
1002
}
1000
LType
1070
     4
1000
BYLAYER
1002
{
1002
}
1002
}
1000
HIDN
1070
     9
1000
3A
1002
{
1000
Class
1070
     4
1000
HID,BGD
1002
{
1002
}
1000
Color
1070
     1
1070
   256
1002
{
1002
}
1000
LType
1070
     4
1000
BYLAYER
1002
{
1002
}
1002
}
1000
HIDW
1070
     9
1000
3
1002
{
1000
Class
1070
     4
1000
HID,BGD
1002
{
1002
}
1000
Color
1070
     1
1070
   256
1002
{
1002
}
1000
LType
1070
     4
1000
BYLAYER
1002
{
1002
}
1002
}
1000
HLIN
1070
     9
1000
4
1002
{
1000
Class
1070
     4
1000
BGD
1002
{
1002
}
1000
Color
1070
     1
1070
   256
1002
{
1002
}
1000
LType
1070
     4
1000
BYLAYER
1002
{
1002
}
1002
}
1000
HOCN
1070
     9
1000
7A
1002
{
1000
Class
1070
     4
1000
CEN
1002
{
1002
}
1000
Color
1070
     1
1070
   256
1002
{
1002
}
1000
LType
1070
     4
1000
BYLAYER
1002
{
1002
}
1002
}
1000
HOCW
1070
     9
1000
7
1002
{
1000
Class
1070
     4
1000
CEN
1002
{
1002
}
1000
Color
1070
     1
1070
   256
1002
{
1002
}
1000
LType
1070
     4
1000
BYLAYER
1002
{
1002
}
1002
}
1000
INFO
1070
     9
1000
INFO
1002
{
1000
Class
1070
     4
1000
SPZ,SYM
1002
{
1002
}
1000
Color
1070
     1
1070
   256
1002
{
1002
}
1000
LType
1070
     4
1000
BYLAYER
1002
{
1002
}
1002
}
1000
LADI
1070
     9
1000
4
1002
{
1000
Class
1070
     4
1000
BGD
1002
{
1002
}
1000
Color
1070
     1
1070
   256
1002
{
1002
}
1000
LType
1070
     4
1000
BYLAYER
1002
{
1002
}
1002
}
1000
LEAD
1070
     9
1000
5
1002
{
1000
Class
1070
     4
1000
SYM
1002
{
1002
}
1000
Color
1070
     1
1070
   256
1002
{
1002
}
1000
LType
1070
     4
1000
BYLAYER
1002
{
1002
}
1002
}
1000
N_ADDL
1070
     9
1000
5N
1002
{
1000
Class
1070
     4
1000
SYM
1002
{
1002
}
1000
Color
1070
     1
1070
     1
1002
{
1002
}
1000
LType
1070
     4
1000
BYLAYER
1002
{
1002
}
1002
}
1000
N_BHNV
1070
     9
1000
9N
1002
{
1000
Class
1070
     4
1000
INV
1002
{
1002
}
1000
Color
1070
     1
1070
   256
1002
{
1002
}
1000
LType
1070
     4
1000
BYLAYER
1002
{
1002
}
1002
}
1000
N_CON1
1070
     9
1000
0N
1002
{
1000
Class
1070
     4
1000
CON,BGD
1002
{
1002
}
1000
Color
1070
     1
1070
   256
1002
{
1002
}
1000
LType
1070
     4
1000
BYLAYER
1002
{
1002
}
1002
}
1000
N_CON2
1070
     9
1000
1N
1002
{
1000
Class
1070
     4
1000
CON,BGD
1002
{
1002
}
1000
Color
1070
     1
1070
   256
1002
{
1002
}
1000
LType
1070
     4
1000
BYLAYER
1002
{
1002
}
1002
}
1000
N_CON3
1070
     9
1000
2N
1002
{
1000
Class
1070
     4
1000
CON,BGD
1002
{
1002
}
1000
Color
1070
     1
1070
   256
1002
{
1002
}
1000
LType
1070
     4
1000
BYLAYER
1002
{
1002
}
1002
}
1000
N_CON4
1070
     9
1000
2N
1002
{
1000
Class
1070
     4
1000
CON,BGD
1002
{
1002
}
1000
Color
1070
     1
1070
   256
1002
{
1002
}
1000
LType
1070
     4
1000
BYLAYER
1002
{
1002
}
1002
}
1000
N_CENN
1070
     9
1000
7AN
1002
{
1000
Class
1070
     4
1000
CEN
1002
{
1002
}
1000
Color
1070
     1
1070
   256
1002
{
1002
}
1000
LType
1070
     4
1000
BYLAYER
1002
{
1002
}
1002
}
1000
N_CENW
1070
     9
1000
7N
1002
{
1000
Class
1070
     4
1000
CEN
1002
{
1002
}
1000
Color
1070
     1
1070
   256
1002
{
1002
}
1000
LType
1070
     4
1000
BYLAYER
1002
{
1002
}
1002
}
1000
N_DILI
1070
     9
1000
5N
1002
{
1000
Class
1070
     4
1000
DIM,SYM
1002
{
1002
}
1000
Color
1070
     1
1070
   256
1002
{
1002
}
1000
LType
1070
     4
1000
BYLAYER
1002
{
1002
}
1002
}
1000
N_DITX
1070
     9
1000
5N
1002
{
1000
Class
1070
     4
1000
DIM,SYM
1002
{
1002
}
1000
Color
1070
     1
1070
     2
1002
{
1002
}
1000
LType
1070
     4
1000
CONTINUOUS
1002
{
1002
}
1002
}
1000
N_DIXL
1070
     9
1000
5N
1002
{
1000
Class
1070
     4
1000
DIM,SYM
1002
{
1002
}
1000
Color
1070
     1
1070
   256
1002
{
1002
}
1000
LType
1070
     4
1000
BYLAYER
1002
{
1002
}
1002
}
1000
N_HATC
1070
     9
1000
8N
1002
{
1000
Class
1070
     4
1000
HTC,BGD
1002
{
1002
}
1000
Color
1070
     1
1070
   256
1002
{
1002
}
1000
LType
1070
     4
1000
BYLAYER
1002
{
1002
}
1002
}
1000
N_HIDN
1070
     9
1000
3AN
1002
{
1000
Class
1070
     4
1000
HID,BGD
1002
{
1002
}
1000
Color
1070
     1
1070
   256
1002
{
1002
}
1000
LType
1070
     4
1000
BYLAYER
1002
{
1002
}
1002
}
1000
N_HIDW
1070
     9
1000
3N
1002
{
1000
Class
1070
     4
1000
HID,BGD
1002
{
1002
}
1000
Color
1070
     1
1070
   256
1002
{
1002
}
1000
LType
1070
     4
1000
BYLAYER
1002
{
1002
}
1002
}
1000
N_NGIP
1070
     9
1000
IPN
1002
{
1000
Class
1070
     4
1000

1002
{
1002
}
1000
Color
1070
     1
1070
   256
1002
{
1002
}
1000
LType
1070
     4
1000
BYLAYER
1002
{
1002
}
1002
}
1000
N_PHAN
1070
     9
1000
4AN
1002
{
1000
Class
1070
     4
1000

1002
{
1002
}
1000
Color
1070
     1
1070
   256
1002
{
1002
}
1000
LType
1070
     4
1000
BYLAYER
1002
{
1002
}
1002
}
1000
N_POSL
1070
     9
1000
5N
1002
{
1000
Class
1070
     4
1000
SYM
1002
{
1002
}
1000
Color
1070
     1
1070
   256
1002
{
1002
}
1000
LType
1070
     4
1000
BYLAYER
1002
{
1002
}
1002
}
1000
N_TCON
1070
     9
1000
0N
1002
{
1000
Class
1070
     4
1000
CON,BGD
1002
{
1002
}
1000
Color
1070
     1
1070
   256
1002
{
1002
}
1000
LType
1070
     4
1000
BYLAYER
1002
{
1002
}
1002
}
1000
N_THLI
1070
     9
1000
4N
1002
{
1000
Class
1070
     4
1000
BGD
1002
{
1002
}
1000
Color
1070
     1
1070
   256
1002
{
1002
}
1000
LType
1070
     4
1000
BYLAYER
1002
{
1002
}
1002
}
1000
N_TLEN
1070
     9
1000
0N
1002
{
1000
Class
1070
     4
1000
CON,BGD
1002
{
1002
}
1000
Color
1070
     1
1070
   256
1002
{
1002
}
1000
LType
1070
     4
1000
BYLAYER
1002
{
1002
}
1002
}
1000
N_TXT3
1070
     9
1000
6N
1002
{
1000
Class
1070
     4
1000
SYM
1002
{
1002
}
1000
Color
1070
     1
1070
   256
1002
{
1002
}
1000
LType
1070
     4
1000
BYLAYER
1002
{
1002
}
1002
}
1000
N_VPLI
1070
     9
1000
2AN
1002
{
1000
Class
1070
     4
1000

1002
{
1002
}
1000
Color
1070
     1
1070
   256
1002
{
1002
}
1000
LType
1070
     4
1000
BYLAYER
1002
{
1002
}
1002
}
1000
NGIP
1070
     9
1000
IP
1002
{
1000
Class
1070
     4
1000

1002
{
1002
}
1000
Color
1070
     1
1070
   256
1002
{
1002
}
1000
LType
1070
     4
1000
BYLAYER
1002
{
1002
}
1002
}
1000
PAL2
1070
     9
1000
RAHM2
1002
{
1000
Class
1070
     4
1000
SPZ,SYM
1002
{
1002
}
1000
Color
1070
     1
1070
   256
1002
{
1002
}
1000
LType
1070
     4
1000
BYLAYER
1002
{
1002
}
1002
}
1000
PAL3
1070
     9
1000
RAHM3
1002
{
1000
Class
1070
     4
1000
SPZ,SYM
1002
{
1002
}
1000
Color
1070
     1
1070
   256
1002
{
1002
}
1000
LType
1070
     4
1000
BYLAYER
1002
{
1002
}
1002
}
1000
PAL5
1070
     9
1000
RAHM5
1002
{
1000
Class
1070
     4
1000
SPZ,SYM
1002
{
1002
}
1000
Color
1070
     1
1070
   256
1002
{
1002
}
1000
LType
1070
     4
1000
BYLAYER
1002
{
1002
}
1002
}
1000
PAL7
1070
     9
1000
RAHM5
1002
{
1000
Class
1070
     4
1000
SPZ,SYM
1002
{
1002
}
1000
Color
1070
     1
1070
     7
1002
{
1002
}
1000
LType
1070
     4
1000
CONTINUOUS
1002
{
1002
}
1002
}
1000
PHAN
1070
     9
1000
4A
1002
{
1000
Class
1070
     4
1000

1002
{
1002
}
1000
Color
1070
     1
1070
   256
1002
{
1002
}
1000
LType
1070
     4
1000
BYLAYER
1002
{
1002
}
1002
}
1000
POSL
1070
     9
1000
5
1002
{
1000
Class
1070
     4
1000
SYM
1002
{
1002
}
1000
Color
1070
     1
1070
   256
1002
{
1002
}
1000
LType
1070
     4
1000
BYLAYER
1002
{
1002
}
1002
}
1000
POSN
1070
     9
1000
6
1002
{
1000
Class
1070
     4
1000
SYM
1002
{
1002
}
1000
Color
1070
     1
1070
     7
1002
{
1002
}
1000
LType
1070
     4
1000
BYLAYER
1002
{
1002
}
1002
}
1000
POSREF
1070
     9
1000
6
1002
{
1000
Class
1070
     4
1000
SYM
1002
{
1002
}
1000
Color
1070
     1
1070
     5
1002
{
1002
}
1000
LType
1070
     4
1000
BYLAYER
1002
{
1002
}
1002
}
1000
POSX
1070
     9
1000
5
1002
{
1000
Class
1070
     4
1000
SYM
1002
{
1002
}
1000
Color
1070
     1
1070
     2
1002
{
1002
}
1000
LType
1070
     4
1000
CONTINUOUS
1002
{
1002
}
1002
}
1000
PSEC
1070
     9
1000
4A
1002
{
1000
Class
1070
     4
1000

1002
{
1002
}
1000
Color
1070
     1
1070
   256
1002
{
1002
}
1000
LType
1070
     4
1000
BYLAYER
1002
{
1002
}
1002
}
1000
RCGN
1070
     9
1000
7A
1002
{
1000
Class
1070
     4
1000
CEN
1002
{
1002
}
1000
Color
1070
     1
1070
   256
1002
{
1002
}
1000
LType
1070
     4
1000
BYLAYER
1002
{
1002
}
1002
}
1000
RCGW
1070
     9
1000
7
1002
{
1000
Class
1070
     4
1000
CEN
1002
{
1002
}
1000
Color
1070
     1
1070
   256
1002
{
1002
}
1000
LType
1070
     4
1000
BYLAYER
1002
{
1002
}
1002
}
1000
RFDI
1070
     9
1000
4
1002
{
1000
Class
1070
     4
1000
BGD
1002
{
1002
}
1000
Color
1070
     1
1070
   256
1002
{
1002
}
1000
LType
1070
     4
1000
BYLAYER
1002
{
1002
}
1002
}
1000
RQTR
1070
     9
1000
4
1002
{
1000
Class
1070
     4
1000

1002
{
1002
}
1000
Color
1070
     1
1070
     7
1002
{
1002
}
1000
LType
1070
     4
1000
GEN7A
1002
{
1002
}
1002
}
1000
RSBO
1070
     9
1000
4
1002
{
1000
Class
1070
     4
1000
BGD
1002
{
1002
}
1000
Color
1070
     1
1070
   256
1002
{
1002
}
1000
LType
1070
     4
1000
BYLAYER
1002
{
1002
}
1002
}
1000
SBRK
1070
     9
1000
4
1002
{
1000
Class
1070
     4
1000
BGD
1002
{
1002
}
1000
Color
1070
     1
1070
   256
1002
{
1002
}
1000
LType
1070
     4
1000
BYLAYER
1002
{
1002
}
1002
}
1000
SCEN
1070
     9
1000
7
1002
{
1000
Class
1070
     4
1000

1002
{
1002
}
1000
Color
1070
     1
1070
   256
1002
{
1002
}
1000
LType
1070
     4
1000
CONTINUOUS
1002
{
1002
}
1002
}
1000
SECT
1070
     9
1000
4
1002
{
1000
Class
1070
     4
1000
BGD
1002
{
1002
}
1000
Color
1070
     1
1070
   256
1002
{
1002
}
1000
LType
1070
     4
1000
BYLAYER
1002
{
1002
}
1002
}
1000
SELN
1070
     9
1000
7A
1002
{
1000
Class
1070
     4
1000

1002
{
1002
}
1000
Color
1070
     1
1070
   256
1002
{
1002
}
1000
LType
1070
     4
1000
BYLAYER
1002
{
1002
}
1002
}
1000
SELW
1070
     9
1000
7
1002
{
1000
Class
1070
     4
1000

1002
{
1002
}
1000
Color
1070
     1
1070
   256
1002
{
1002
}
1000
LType
1070
     4
1000
BYLAYER
1002
{
1002
}
1002
}
1000
SSYS
1070
     9
1000
0
1002
{
1000
Class
1070
     4
1000

1002
{
1002
}
1000
Color
1070
     1
1070
   256
1002
{
1002
}
1000
LType
1070
     4
1000
BYLAYER
1002
{
1002
}
1002
}
1000
STLI
1070
     9
1000
4
1002
{
1000
Class
1070
     4
1000

1002
{
1002
}
1000
Color
1070
     1
1070
     7
1002
{
1002
}
1000
LType
1070
     4
1000
GEN3A
1002
{
1002
}
1002
}
1000
SYB1
1070
     9
1000
5
1002
{
1000
Class
1070
     4
1000
SYM
1002
{
1002
}
1000
Color
1070
     1
1070
   256
1002
{
1002
}
1000
LType
1070
     4
1000
BYLAYER
1002
{
1002
}
1002
}
1000
SYB2
1070
     9
1000
5
1002
{
1000
Class
1070
     4
1000
SYM
1002
{
1002
}
1000
Color
1070
     1
1070
   256
1002
{
1002
}
1000
LType
1070
     4
1000
BYLAYER
1002
{
1002
}
1002
}
1000
SYB3
1070
     9
1000
6
1002
{
1000
Class
1070
     4
1000
SYM
1002
{
1002
}
1000
Color
1070
     1
1070
   256
1002
{
1002
}
1000
LType
1070
     4
1000
CONTINUOUS
1002
{
1002
}
1002
}
1000
SYB5
1070
     9
1000
5
1002
{
1000
Class
1070
     4
1000
SYM
1002
{
1002
}
1000
Color
1070
     1
1070
     7
1002
{
1002
}
1000
LType
1070
     4
1000
BYLAYER
1002
{
1002
}
1002
}
1000
SYMN
1070
     9
1000
7A
1002
{
1000
Class
1070
     4
1000
CEN
1002
{
1002
}
1000
Color
1070
     1
1070
   256
1002
{
1002
}
1000
LType
1070
     4
1000
BYLAYER
1002
{
1002
}
1002
}
1000
SYMW
1070
     9
1000
7
1002
{
1000
Class
1070
     4
1000
CEN
1002
{
1002
}
1000
Color
1070
     1
1070
   256
1002
{
1002
}
1000
LType
1070
     4
1000
BYLAYER
1002
{
1002
}
1002
}
1000
TCON
1070
     9
1000
0
1002
{
1000
Class
1070
     4
1000
CON,BGD
1002
{
1002
}
1000
Color
1070
     1
1070
   256
1002
{
1002
}
1000
LType
1070
     4
1000
BYLAYER
1002
{
1002
}
1002
}
1000
THLI
1070
     9
1000
4
1002
{
1000
Class
1070
     4
1000
BGD
1002
{
1002
}
1000
Color
1070
     1
1070
   256
1002
{
1002
}
1000
LType
1070
     4
1000
BYLAYER
1002
{
1002
}
1002
}
1000
TIT2
1070
     9
1000
RAHM2
1002
{
1000
Class
1070
     4
1000
SPZ,SYM
1002
{
1002
}
1000
Color
1070
     1
1070
   256
1002
{
1002
}
1000
LType
1070
     4
1000
BYLAYER
1002
{
1002
}
1002
}
1000
TIT3
1070
     9
1000
RAHM3
1002
{
1000
Class
1070
     4
1000
SPZ,SYM
1002
{
1002
}
1000
Color
1070
     1
1070
   256
1002
{
1002
}
1000
LType
1070
     4
1000
BYLAYER
1002
{
1002
}
1002
}
1000
TIT5
1070
     9
1000
RAHM5
1002
{
1000
Class
1070
     4
1000
SPZ,SYM
1002
{
1002
}
1000
Color
1070
     1
1070
   256
1002
{
1002
}
1000
LType
1070
     4
1000
BYLAYER
1002
{
1002
}
1002
}
1000
TIT7
1070
     9
1000
RAHM5
1002
{
1000
Class
1070
     4
1000
SPZ,SYM
1002
{
1002
}
1000
Color
1070
     1
1070
     7
1002
{
1002
}
1000
LType
1070
     4
1000
CONTINUOUS
1002
{
1002
}
1002
}
1000
TLEN
1070
     9
1000
0
1002
{
1000
Class
1070
     4
1000
CON,BGD
1002
{
1002
}
1000
Color
1070
     1
1070
   256
1002
{
1002
}
1000
LType
1070
     4
1000
BYLAYER
1002
{
1002
}
1002
}
1000
TRKN
1070
     9
1000
7A
1002
{
1000
Class
1070
     4
1000

1002
{
1002
}
1000
Color
1070
     1
1070
   256
1002
{
1002
}
1000
LType
1070
     4
1000
BYLAYER
1002
{
1002
}
1002
}
1000
TRKW
1070
     9
1000
7
1002
{
1000
Class
1070
     4
1000

1002
{
1002
}
1000
Color
1070
     1
1070
   256
1002
{
1002
}
1000
LType
1070
     4
1000
BYLAYER
1002
{
1002
}
1002
}
1000
TRLI
1070
     9
1000
4
1002
{
1000
Class
1070
     4
1000
BGD
1002
{
1002
}
1000
Color
1070
     1
1070
   256
1002
{
1002
}
1000
LType
1070
     4
1000
BYLAYER
1002
{
1002
}
1002
}
1000
TXT1
1070
     9
1000
6
1002
{
1000
Class
1070
     4
1000
SYM
1002
{
1002
}
1000
Color
1070
     1
1070
     2
1002
{
1002
}
1000
LType
1070
     4
1000
BYLAYER
1002
{
1002
}
1002
}
1000
TXT2
1070
     9
1000
6
1002
{
1000
Class
1070
     4
1000
SYM
1002
{
1002
}
1000
Color
1070
     1
1070
     2
1002
{
1002
}
1000
LType
1070
     4
1000
BYLAYER
1002
{
1002
}
1002
}
1000
TXT3
1070
     9
1000
6
1002
{
1000
Class
1070
     4
1000
SYM
1002
{
1002
}
1000
Color
1070
     1
1070
   256
1002
{
1002
}
1000
LType
1070
     4
1000
BYLAYER
1002
{
1002
}
1002
}
1000
TXT5
1070
     9
1000
6
1002
{
1000
Class
1070
     4
1000
SYM
1002
{
1002
}
1000
Color
1070
     1
1070
     7
1002
{
1002
}
1000
LType
1070
     4
1000
BYLAYER
1002
{
1002
}
1002
}
1000
TXT7
1070
     9
1000
6
1002
{
1000
Class
1070
     4
1000
SYM
1002
{
1002
}
1000
Color
1070
     1
1070
     7
1002
{
1002
}
1000
LType
1070
     4
1000
BYLAYER
1002
{
1002
}
1002
}
1000
VIEW
1070
     9
1000
VIEW
1002
{
1000
Class
1070
     4
1000
SPZ
1002
{
1002
}
1000
Color
1070
     1
1070
   256
1002
{
1002
}
1000
LType
1070
     4
1000
BYLAYER
1002
{
1002
}
1002
}
1000
VPLI
1070
     9
1000
2A
1002
{
1000
Class
1070
     4
1000

1002
{
1002
}
1000
Color
1070
     1
1070
   256
1002
{
1002
}
1000
LType
1070
     4
1000
BYLAYER
1002
{
1002
}
1002
}
1000
ZIZA
1070
     9
1000
4
1002
{
1000
Class
1070
     4
1000
BGD
1002
{
1002
}
1000
Color
1070
     1
1070
   256
1002
{
1002
}
1000
LType
1070
     4
1000
GENZIGZAG
1002
{
1002
}
1002
}
  0
APPID
  5
16FB
330
16B4
100
AcDbSymbolTableRecord
100
AcDbRegAppTableRecord
  2
GENIUS_GENCFG4_13
 70
     0
1001
GENIUS_GENCFG_13
1071
1023341201
1000
16FB
1000
GEN
1070
     9
1000
GenCfgObject
1000
GenCfgShort
1000
GenCfgReal
1000
GenCfgBool
1000
GenCfgString
1000
GenCfgDim
1000
GenCfgLaySection
1000
GenCfgLType
1000
GenCfgFilter
1000
Balloon
1070
     0
1002
{
1000
GenIF
1070
     1
1070
     0
1002
{
1002
}
1000
GenPosInc
1070
     1
1070
     1
1002
{
1002
}
1000
GenPosBlk
1070
     1
1070
     8
1002
{
1002
}
1000
GenPosVar
1070
     1
1070
     0
1002
{
1002
}
1000
GenZiCir
1070
     2
1040
1.5
1002
{
1002
}
1000
MaxCharForCenteredText
1070
     1
1070
    30
1002
{
1002
}
1000
Snap
1070
     0
1002
{
1000
ActivationRadius
1070
     2
1040
1.0
1002
{
1002
}
1000
M
1070
     0
1002
{
1000
SnapStepX
1070
     2
1040
20.0
1002
{
1002
}
1000
SnapStepY
1070
     2
1040
10.0
1002
{
1002
}
1002
}
1000
I
1070
     0
1002
{
1000
SnapStepX
1070
     2
1040
1.0
1002
{
1002
}
1000
SnapStepY
1070
     2
1040
0.5
1002
{
1002
}
1002
}
1002
}
1002
}
1000
Centerline
1070
     0
1002
{
1000
ScaleNot
1070
     3
1070
     0
1002
{
1002
}
1000
M
1070
     0
1002
{
1000
GenCenAng
1070
     4
1000
45|90|135
1002
{
1002
}
1000
GenCenDia
1070
     2
1040
10.0
1002
{
1002
}
1000
GenCenDias
1070
     4
1000
10|20|30
1002
{
1002
}
1000
GenCenDist
1070
     2
1040
3.0
1002
{
1002
}
1000
GenCenLen
1070
     2
1040
10.0
1002
{
1002
}
1000
GenCenOff
1070
     2
1040
10.0
1002
{
1002
}
1000
GENCENOFF1
1070
     2
1040
10.0
1002
{
1002
}
1000
GENCENOFF2
1070
     2
1040
10.0
1002
{
1002
}
1002
}
1000
I
1070
     0
1002
{
1000
GenCenAng
1070
     4
1000
45|90|135
1002
{
1002
}
1000
GenCenDia
1070
     2
1040
0.5
1002
{
1002
}
1000
GenCenDias
1070
     4
1000
0.5|1.0|1.5
1002
{
1002
}
1000
GenCenDist
1070
     2
1040
0.125
1002
{
1002
}
1000
GenCenLen
1070
     2
1040
0.5
1002
{
1002
}
1000
GenCenOff
1070
     2
1040
0.5
1002
{
1002
}
1002
}
1002
}
1000
CLine
1070
     0
1002
{
1000
CAngArray
1070
     4
1000
30|45|60
1002
{
1002
}
1000
Typ
1070
     4
1000
XLINE
1002
{
1002
}
1000
M
1070
     0
1002
{
1000
CLinArray
1070
     4
1000
10|20|30
1002
{
1002
}
1002
}
1000
I
1070
     0
1002
{
1000
CLinArray
1070
     4
1000
0.125|0.25|0.5
1002
{
1002
}
1002
}
1002
}
1000
Detail
1070
     0
1002
{
1002
}
1000
Dimension
1070
     5
1002
{
1000
DIMALT
1070
     1
1070
     0
1002
{
1002
}
1000
DIMALTD
1070
     1
1070
     2
1002
{
1002
}
1000
DIMALTTD
1070
     1
1070
     4
1002
{
1002
}
1000
DIMALTTZ
1070
     1
1070
     0
1002
{
1002
}
1000
DIMALTU
1070
     1
1070
     2
1002
{
1002
}
1000
DIMALTZ
1070
     1
1070
     0
1002
{
1002
}
1000
DIMAUNIT
1070
     1
1070
     0
1002
{
1002
}
1000
DIMBLK
1070
     4
1000

1002
{
1002
}
1000
DIMBLK1
1070
     4
1000

1002
{
1002
}
1000
DIMBLK2
1070
     4
1000

1002
{
1002
}
1000
DIMCLRD
1070
     1
1070
   256
1002
{
1002
}
1000
DIMCLRE
1070
     1
1070
   256
1002
{
1002
}
1000
DIMCLRT
1070
     1
1070
     2
1002
{
1002
}
1000
DIMDLE
1070
     2
1040
0.0
1002
{
1002
}
1000
DIMFIT
1070
     1
1070
     3
1002
{
1002
}
1000
DIMJUST
1070
     1
1070
     0
1002
{
1002
}
1000
DIMLFAC
1070
     2
1040
1.0
1002
{
1002
}
1000
DIMLIM
1070
     1
1070
     0
1002
{
1002
}
1000
DIMPOST
1070
     4
1000

1002
{
1002
}
1000
DIMRND
1070
     2
1040
0.0
1002
{
1002
}
1000
DIMSAH
1070
     1
1070
     0
1002
{
1002
}
1000
DIMSCALE
1070
     2
1040
1.0
1002
{
1002
}
1000
DIMSD1
1070
     1
1070
     0
1002
{
1002
}
1000
DIMSD2
1070
     1
1070
     0
1002
{
1002
}
1000
DIMSE1
1070
     1
1070
     0
1002
{
1002
}
1000
DIMSE2
1070
     1
1070
     0
1002
{
1002
}
1000
DIMSOXD
1070
     1
1070
     0
1002
{
1002
}
1000
DIMTAD
1070
     1
1070
     0
1002
{
1002
}
1000
DIMTFAC
1070
     2
1040
0.71
1002
{
1002
}
1000
DIMTIH
1070
     1
1070
     0
1002
{
1002
}
1000
DIMTIX
1070
     1
1070
     0
1002
{
1002
}
1000
DIMTM
1070
     2
1040
0.1
1002
{
1002
}
1000
DIMTOFL
1070
     1
1070
     0
1002
{
1002
}
1000
DIMTOH
1070
     1
1070
     0
1002
{
1002
}
1000
DIMTOL
1070
     1
1070
     0
1002
{
1002
}
1000
DIMTOLJ
1070
     1
1070
     1
1002
{
1002
}
1000
DIMTP
1070
     2
1040
0.1
1002
{
1002
}
1000
DIMTSZ
1070
     2
1040
0.0
1002
{
1002
}
1000
DIMTVP
1070
     2
1040
0.0
1002
{
1002
}
1000
DIMTXSTY
1070
     4
1000
STANDARD
1002
{
1002
}
1000
DIMTZIN
1070
     1
1070
     0
1002
{
1002
}
1000
DIMUNIT
1070
     1
1070
     2
1002
{
1002
}
1000
DIMUPT
1070
     1
1070
     0
1002
{
1002
}
1000
M
1070
     0
1002
{
1000
DIMALTF
1070
     2
1040
0.03937
1002
{
1002
}
1000
DIMAPOST
1070
     4
1000
"
1002
{
1002
}
1000
DIMASZ
1070
     2
1040
2.5
1002
{
1002
}
1000
DIMCEN
1070
     2
1040
0.0
1002
{
1002
}
1000
DIMDEC
1070
     1
1070
     2
1002
{
1002
}
1000
DIMDLI
1070
     2
1040
7.0
1002
{
1002
}
1000
DIMEXE
1070
     2
1040
1.0
1002
{
1002
}
1000
DIMEXO
1070
     2
1040
1.0
1002
{
1002
}
1000
DIMGAP
1070
     2
1040
0.6
1002
{
1002
}
1000
DIMTDEC
1070
     1
1070
     3
1002
{
1002
}
1000
DIMTXT
1070
     2
1040
3.5
1002
{
1002
}
1000
DIMZIN
1070
     1
1070
     8
1002
{
1002
}
1002
}
1000
I
1070
     0
1002
{
1000
DIMALTF
1070
     2
1040
25.4
1002
{
1002
}
1000
DIMAPOST
1070
     4
1000
mm
1002
{
1002
}
1000
DIMASZ
1070
     2
1040
0.1
1002
{
1002
}
1000
DIMCEN
1070
     2
1040
0.0
1002
{
1002
}
1000
DIMDEC
1070
     1
1070
     4
1002
{
1002
}
1000
DIMDLI
1070
     2
1040
0.5
1002
{
1002
}
1000
DIMEXE
1070
     2
1040
0.1
1002
{
1002
}
1000
DIMEXO
1070
     2
1040
0.05
1002
{
1002
}
1000
DIMGAP
1070
     2
1040
0.06
1002
{
1002
}
1000
DIMTDEC
1070
     1
1070
     4
1002
{
1002
}
1000
DIMTXT
1070
     2
1040
0.12
1002
{
1002
}
1000
DIMZIN
1070
     1
1070
     7
1002
{
1002
}
1002
}
1000
GEN-ISO
1070
     5
1002
{
1000
NAME
1070
     4
1000
GEN-ISO
1002
{
1002
}
1000
DIMTAD
1070
     1
1070
     1
1002
{
1002
}
1000
DIMTOLJ
1070
     1
1070
     0
1002
{
1002
}
1000
DIMTOFL
1070
     1
1070
     1
1002
{
1002
}
1000
M
1070
     0
1002
{
1002
}
1000
I
1070
     0
1002
{
1002
}
1002
}
1000
GEN-ISO-POS
1070
     5
1002
{
1000
NAME
1070
     4
1000
GEN-ISO-POS
1002
{
1002
}
1000
DIMTOLJ
1070
     1
1070
     0
1002
{
1002
}
1000
DIMTXSTY
1070
     4
1000
STANDARD
1002
{
1002
}
1000
M
1070
     0
1002
{
1000
DIMASZ
1070
     2
1040
2.5
1002
{
1002
}
1000
DIMGAP
1070
     2
1040
1.5
1002
{
1002
}
1000
DIMTXT
1070
     2
1040
5.0
1002
{
1002
}
1002
}
1000
I
1070
     0
1002
{
1000
DIMASZ
1070
     2
1040
0.1
1002
{
1002
}
1000
DIMGAP
1070
     2
1040
0.06
1002
{
1002
}
1000
DIMTXT
1070
     2
1040
0.2
1002
{
1002
}
1002
}
1002
}
1000
GEN-ISO-CIR
1070
     5
1002
{
1000
NAME
1070
     4
1000
GEN-ISO$3
1002
{
1002
}
1000
DIMFIT
1070
     1
1070
     0
1002
{
1002
}
1000
DIMTAD
1070
     1
1070
     1
1002
{
1002
}
1000
DIMTOH
1070
     1
1070
     1
1002
{
1002
}
1000
DIMTOLJ
1070
     1
1070
     0
1002
{
1002
}
1000
DIMUPT
1070
     1
1070
     1
1002
{
1002
}
1000
M
1070
     0
1002
{
1002
}
1000
I
1070
     0
1002
{
1002
}
1002
}
1000
GEN-ISO-RAD
1070
     5
1002
{
1000
NAME
1070
     4
1000
GEN-ISO$4
1002
{
1002
}
1000
DIMFIT
1070
     1
1070
     0
1002
{
1002
}
1000
DIMTAD
1070
     1
1070
     1
1002
{
1002
}
1000
DIMTIH
1070
     1
1070
     0
1002
{
1002
}
1000
DIMTIX
1070
     1
1070
     0
1002
{
1002
}
1000
DIMTOH
1070
     1
1070
     1
1002
{
1002
}
1000
DIMTOLJ
1070
     1
1070
     0
1002
{
1002
}
1000
DIMTOFL
1070
     1
1070
     0
1002
{
1002
}
1000
DIMUPT
1070
     1
1070
     1
1002
{
1002
}
1000
M
1070
     0
1002
{
1002
}
1000
I
1070
     0
1002
{
1002
}
1002
}
1000
GEN-ISO-ORD
1070
     5
1002
{
1000
NAME
1070
     4
1000
GEN-ISO$6
1002
{
1002
}
1000
DIMTOLJ
1070
     1
1070
     0
1002
{
1002
}
1000
M
1070
     0
1002
{
1002
}
1000
I
1070
     0
1002
{
1002
}
1002
}
1000
GEN-ISO-AXE-F
1070
     5
1002
{
1000
NAME
1070
     4
1000
GEN-ISO-AXE-F
1002
{
1002
}
1000
DIMSE1
1070
     1
1070
     1
1002
{
1002
}
1000
DIMSE2
1070
     1
1070
     1
1002
{
1002
}
1000
DIMTAD
1070
     1
1070
     1
1002
{
1002
}
1000
DIMTOLJ
1070
     1
1070
     0
1002
{
1002
}
1000
DIMTOFL
1070
     1
1070
     1
1002
{
1002
}
1000
M
1070
     0
1002
{
1002
}
1000
I
1070
     0
1002
{
1002
}
1002
}
1000
GEN-ISO-AXE-H
1070
     5
1002
{
1000
NAME
1070
     4
1000
GEN-ISO-AXE-H
1002
{
1002
}
1000
DIMBLK1
1070
     4
1000
GENAXEH
1002
{
1002
}
1000
DIMLFAC
1070
     2
1040
2.0
1002
{
1002
}
1000
DIMSAH
1070
     1
1070
     1
1002
{
1002
}
1000
DIMSE1
1070
     1
1070
     1
1002
{
1002
}
1000
DIMSE2
1070
     1
1070
     1
1002
{
1002
}
1000
DIMTAD
1070
     1
1070
     1
1002
{
1002
}
1000
DIMTOLJ
1070
     1
1070
     0
1002
{
1002
}
1000
DIMTOFL
1070
     1
1070
     1
1002
{
1002
}
1000
M
1070
     0
1002
{
1002
}
1000
I
1070
     0
1002
{
1002
}
1002
}
1000
GEN-ANSI
1070
     5
1002
{
1000
NAME
1070
     4
1000
GEN-ANSI
1002
{
1002
}
1000
DIMTIH
1070
     1
1070
     1
1002
{
1002
}
1000
DIMTOH
1070
     1
1070
     1
1002
{
1002
}
1000
DIMTAD
1070
     1
1070
     0
1002
{
1002
}
1000
DIMTOLJ
1070
     1
1070
     1
1002
{
1002
}
1000
M
1070
     0
1002
{
1002
}
1000
I
1070
     0
1002
{
1002
}
1002
}
1000
GEN-ANSI-POS
1070
     5
1002
{
1000
NAME
1070
     4
1000
GEN-ANSI-POS
1002
{
1002
}
1000
DIMTOLJ
1070
     1
1070
     1
1002
{
1002
}
1000
DIMTXSTY
1070
     4
1000
STANDARD
1002
{
1002
}
1000
M
1070
     0
1002
{
1000
DIMASZ
1070
     2
1040
2.5
1002
{
1002
}
1000
DIMGAP
1070
     2
1040
1.5
1002
{
1002
}
1000
DIMTXT
1070
     2
1040
5.0
1002
{
1002
}
1002
}
1000
I
1070
     0
1002
{
1000
DIMASZ
1070
     2
1040
0.1
1002
{
1002
}
1000
DIMGAP
1070
     2
1040
0.06
1002
{
1002
}
1000
DIMTXT
1070
     2
1040
0.2
1002
{
1002
}
1002
}
1002
}
1000
GEN-ANSI-CIR
1070
     5
1002
{
1000
NAME
1070
     4
1000
GEN-ANSI$3
1002
{
1002
}
1000
DIMFIT
1070
     1
1070
     0
1002
{
1002
}
1000
DIMTAD
1070
     1
1070
     0
1002
{
1002
}
1000
DIMTIH
1070
     1
1070
     1
1002
{
1002
}
1000
DIMTIX
1070
     1
1070
     0
1002
{
1002
}
1000
DIMTOFL
1070
     1
1070
     0
1002
{
1002
}
1000
DIMTOH
1070
     1
1070
     1
1002
{
1002
}
1000
DIMTOLJ
1070
     1
1070
     1
1002
{
1002
}
1000
DIMUPT
1070
     1
1070
     1
1002
{
1002
}
1000
M
1070
     0
1002
{
1002
}
1000
I
1070
     0
1002
{
1002
}
1002
}
1000
GEN-ANSI-RAD
1070
     5
1002
{
1000
NAME
1070
     4
1000
GEN-ANSI$4
1002
{
1002
}
1000
DIMFIT
1070
     1
1070
     0
1002
{
1002
}
1000
DIMTAD
1070
     1
1070
     0
1002
{
1002
}
1000
DIMTIH
1070
     1
1070
     1
1002
{
1002
}
1000
DIMTIX
1070
     1
1070
     0
1002
{
1002
}
1000
DIMTOFL
1070
     1
1070
     0
1002
{
1002
}
1000
DIMTOH
1070
     1
1070
     1
1002
{
1002
}
1000
DIMTOLJ
1070
     1
1070
     1
1002
{
1002
}
1000
DIMUPT
1070
     1
1070
     1
1002
{
1002
}
1000
M
1070
     0
1002
{
1002
}
1000
I
1070
     0
1002
{
1002
}
1002
}
1000
GEN-ANSI-ORD
1070
     5
1002
{
1000
NAME
1070
     4
1000
GEN-ANSI$6
1002
{
1002
}
1000
DIMTAD
1070
     1
1070
     0
1002
{
1002
}
1000
DIMTIH
1070
     1
1070
     1
1002
{
1002
}
1000
DIMTOH
1070
     1
1070
     1
1002
{
1002
}
1000
DIMTOLJ
1070
     1
1070
     1
1002
{
1002
}
1000
M
1070
     0
1002
{
1002
}
1000
I
1070
     0
1002
{
1002
}
1002
}
1000
GEN-ANSI-AXE-F
1070
     5
1002
{
1000
NAME
1070
     4
1000
GEN-ANSI-AXE-F
1002
{
1002
}
1000
DIMBLK1
1070
     4
1000
GENAXEH
1002
{
1002
}
1000
DIMSAH
1070
     1
1070
     1
1002
{
1002
}
1000
DIMSE1
1070
     1
1070
     1
1002
{
1002
}
1000
DIMSE2
1070
     1
1070
     1
1002
{
1002
}
1000
DIMTAD
1070
     1
1070
     0
1002
{
1002
}
1000
DIMTIH
1070
     1
1070
     1
1002
{
1002
}
1000
DIMTOH
1070
     1
1070
     1
1002
{
1002
}
1000
DIMTOLJ
1070
     1
1070
     1
1002
{
1002
}
1000
M
1070
     0
1002
{
1002
}
1000
I
1070
     0
1002
{
1002
}
1002
}
1000
GEN-ANSI-AXE-H
1070
     5
1002
{
1000
NAME
1070
     4
1000
GEN-ANSI-AXE-H
1002
{
1002
}
1000
DIMBLK1
1070
     4
1000
GENAXEH
1002
{
1002
}
1000
DIMLFAC
1070
     2
1040
2.0
1002
{
1002
}
1000
DIMSAH
1070
     1
1070
     1
1002
{
1002
}
1000
DIMSE1
1070
     1
1070
     1
1002
{
1002
}
1000
DIMSE2
1070
     1
1070
     1
1002
{
1002
}
1000
DIMTAD
1070
     1
1070
     0
1002
{
1002
}
1000
DIMTOFL
1070
     1
1070
     1
1002
{
1002
}
1000
DIMTOLJ
1070
     1
1070
     1
1002
{
1002
}
1000
M
1070
     0
1002
{
1002
}
1000
I
1070
     0
1002
{
1002
}
1002
}
1002
}
1000
DimSet
1070
     0
1002
{
1000
ChainSum
1070
     3
1070
     0
1002
{
1002
}
1000
DimDclTyp0
1070
     4
1000
dim23
1002
{
1002
}
1000
HorBra
1070
     3
1070
     0
1002
{
1002
}
1000
StrDia
1070
     4
1000
%%c<>
1002
{
1002
}
1000
StrRad
1070
     4
1000
R<>
1002
{
1002
}
1000
TextMinus
1070
     4
1000
<>
1002
{
1002
}
1000
TextPlus
1070
     4
1000
<>
1002
{
1002
}
1000
M
1070
     0
1002
{
1000
DimdliFirst
1070
     2
1040
10.0
1002
{
1002
}
1000
PointMakeDist
1070
     2
1040
10.0
1002
{
1002
}
1002
}
1000
I
1070
     0
1002
{
1000
DimdliFirst
1070
     2
1040
0.5
1002
{
1002
}
1000
PointMakeDist
1070
     2
1040
0.5
1002
{
1002
}
1002
}
1000
FitGrade
1070
     4
1000
h7
1002
{
1002
}
1002
}
1000
Drawing
1070
     0
1002
{
1000
ChamferDimMode
1070
     1
1070
     2
1002
{
1002
}
1000
Gen_Fiso
1070
    -3
1040
1.0
1002
{
1002
}
1000
GenDimStil
1070
     4
1000
ISO
1002
{
1002
}
1000
GenDwgUScale
1070
     2
1040
1.0
1002
{
1002
}
1000
GenInch
1070
     4
1000
M
1002
{
1002
}
1000
GenPlotScale
1070
     4
1000
1:5
1002
{
1002
}
1000
Revisi
1070
     4
1000
0
1002
{
1002
}
1000
Version
1070
    -5
1000
14.01/Apr  1 1998
1002
{
1002
}
1000
Platform
1070
    -5
1000
WINNT
1002
{
1002
}
1002
}
1000
DwgVar
1070
     0
1002
{
1000
M
1070
     0
1002
{
1002
}
1000
I
1070
     0
1002
{
1002
}
1002
}
1000
Hatch
1070
     0
1002
{
1000
GenHtcFlag
1070
     3
1070
     0
1002
{
1002
}
1002
}
1000
Info_Pos
1070
     0
1002
{
1000
>
1002
}
1000
Layer
1070
     6
1002
{
1000
Defs
1070
     0
1002
{
1000
>
1002
}
1000
EntSort
1070
     0
1002
{
1000
>
1002
}
1000
Match
1070
     0
1002
{
1002
}
1000
Settings
1070
     0
1002
{
1000
FocGrNC
1070
     3
1070
     0
1002
{
1002
}
1000
FocGrLo
1070
     3
1070
     0
1002
{
1002
}
1000
FocLoNC
1070
     3
1070
     0
1002
{
1002
}
1000
FocusCol
1070
     1
1070
   253
1002
{
1002
}
1000
GenStdLG
1070
     4
1000

1002
{
1002
}
1000
LayMatch
1070
     3
1070
     0
1002
{
1002
}
1000
LgOff
1070
     3
1070
     0
1002
{
1002
}
1000
CurLG
1070
    -5
1000

1002
{
1002
}
1002
}
1002
}
1000
LType
1070
     0
1002
{
1000
GEN3
1070
     7
1000
genius.lin
1002
{
1002
}
1000
GEN7
1070
     7
1000
genius.lin
1002
{
1002
}
1000
GEN4A
1070
     7
1000
genius.lin
1002
{
1002
}
1000
GEN3A
1070
     7
1000
genius.lin
1002
{
1002
}
1000
GEN7A
1070
     7
1000
genius.lin
1002
{
1002
}
1000
GENZIGZAG
1070
     7
1000
genius.lin
1002
{
1002
}
1002
}
1000
Objecter
1070
     0
1002
{
1000
CreateGroups
1070
     3
1070
     0
1002
{
1002
}
1000
LaySwitch
1070
     3
1070
     1
1002
{
1002
}
1000
LastObj
1070
    -5
1000
1D38
1002
{
1002
}
1000
TimeStamp
1070
    -5
1000
20020606.07262667
1002
{
1002
}
1002
}
1000
OSWiz
1070
     0
1002
{
1000
Filter
1070
     0
1002
{
1000
HATCH
1070
     8
1002
{
1000
EntityType
1070
     4
1000
LINE
1002
{
1002
}
1000
Layer
1070
     4
1000
8,8N,*-8,*-8N
1002
{
1002
}
1000
Linetype
1070
     4
1000
*
1002
{
1002
}
1000
Color
1070
     4
1000
*
1002
{
1002
}
1000
ApplyInDims
1070
     3
1070
     1
1002
{
1002
}
1002
}
1000
SYMBOLS
1070
     8
1002
{
1000
EntityType
1070
     4
1000
*
1002
{
1002
}
1000
Layer
1070
     4
1000
[5-6],[5-6]N,*-[5-6],*-[5-6]N
1002
{
1002
}
1000
Linetype
1070
     4
1000
*
1002
{
1002
}
1000
Color
1070
     4
1000
*
1002
{
1002
}
1000
ApplyInDims
1070
     3
1070
     1
1002
{
1002
}
1002
}
1000
FEM
1070
     8
1002
{
1000
EntityType
1070
     4
1000
*
1002
{
1002
}
1000
Layer
1070
     4
1000
4A,4AN,*-4A,*-4AN
1002
{
1002
}
1000
Linetype
1070
     4
1000
*
1002
{
1002
}
1000
Color
1070
     4
1000
*
1002
{
1002
}
1000
ApplyInDims
1070
     3
1070
     1
1002
{
1002
}
1002
}
1002
}
1002
}
1000
PaList
1070
     0
1002
{
1000
AutoUpdatePartList
1070
     1
1070
     0
1002
{
1002
}
1000
ReadInfoPoint
1070
     3
1070
     0
1002
{
1002
}
1000
ReadPosNr
1070
     3
1070
     1
1002
{
1002
}
1000
RevStr
1070
     4
1000
0
1002
{
1002
}
1002
}
1000
Paper
1070
     0
1002
{
1000
Layer
1070
    -5
1000
KLIN,7
1002
{
1002
}
1002
}
1000
PartDB
1070
     0
1002
{
1000
GenDbOwner
1070
     4
1000

1002
{
1002
}
1002
}
1000
System
1070
     0
1002
{
1000
Menu
1070
     4
1000
GEV
1002
{
1002
}
1002
}
1000
Title
1070
     0
1002
{
1000
MakeView
1070
     1
1070
     2
1002
{
1002
}
1002
}
1000
Tools
1070
     0
1002
{
1000
Trans
1070
     0
1002
{
1000
Drawingtranslation
1070
    -4
1070
     1
1002
{
1002
}
1000
upreserve
1070
     3
1070
     0
1002
{
1002
}
1000
originally_on
1070
    -4
1070
     0
1002
{
1002
}
1000
sourcelang
1070
    -5
1000
D
1002
{
1002
}
1002
}
1002
}
  0
APPID
  5
16FC
330
16B4
100
AcDbSymbolTableRecord
100
AcDbRegAppTableRecord
  2
GENIUS_GEVCFG0_13
 70
     0
1001
GENIUS_GENCFG_13
1071
1023341191
1000
16FC
1000
GEV
1070
     1
1000
GenCfgObject
1000
VED
1070
     0
1002
{
1002
}
  0
APPID
  5
173E
330
16B4
100
AcDbSymbolTableRecord
100
AcDbRegAppTableRecord
  2
GEV_VCCNULL_SWITCH_OFF
 70
     0
  0
APPID
  5
173F
330
16B4
100
AcDbSymbolTableRecord
100
AcDbRegAppTableRecord
  2
GENIUS_GENDTOL_13
 70
     0
  0
APPID
  5
1740
330
16B4
100
AcDbSymbolTableRecord
100
AcDbRegAppTableRecord
  2
GENIUS_GENOENT_13
 70
     0
  0
APPID
  5
1741
330
16B4
100
AcDbSymbolTableRecord
100
AcDbRegAppTableRecord
  2
GENIUS_GENBLLY_14
 70
     0
  0
APPID
  5
1742
330
16B4
100
AcDbSymbolTableRecord
100
AcDbRegAppTableRecord
  2
GENIUS_GENODEF_13
 70
     0
  0
APPID
  5
1743
330
16B4
100
AcDbSymbolTableRecord
100
AcDbRegAppTableRecord
  2
GENIUS_GENOBJ-N-CRS_13
 70
     0
  0
APPID
  5
1744
330
16B4
100
AcDbSymbolTableRecord
100
AcDbRegAppTableRecord
  2
GENIUS_GENOREF_13
 70
     0
  0
APPID
  5
1745
330
16B4
100
AcDbSymbolTableRecord
100
AcDbRegAppTableRecord
  2
GENIUS_GENOLIS_13
 70
     0
  0
APPID
  5
1746
330
16B4
100
AcDbSymbolTableRecord
100
AcDbRegAppTableRecord
  2
GENIUS_GEFCFG0_13
 70
     0
  0
APPID
  5
1747
330
16B4
100
AcDbSymbolTableRecord
100
AcDbRegAppTableRecord
  2
GENIUS_VERSION2
 70
     0
  0
APPID
  5
1748
330
16B4
100
AcDbSymbolTableRecord
100
AcDbRegAppTableRecord
  2
GENIUS_GENREC_14
 70
     0
  0
APPID
  5
1749
330
16B4
100
AcDbSymbolTableRecord
100
AcDbRegAppTableRecord
  2
GENIUS_GENOBJ-N-REC_13
 70
     0
  0
APPID
  5
174A
330
16B4
100
AcDbSymbolTableRecord
100
AcDbRegAppTableRecord
  2
GENIUS_GENOBJ-N-TIT_13
 70
     0
  0
APPID
  5
174B
330
16B4
100
AcDbSymbolTableRecord
100
AcDbRegAppTableRecord
  2
GENIUS_GENTITLE_13
 70
     0
  0
APPID
  5
174C
330
16B4
100
AcDbSymbolTableRecord
100
AcDbRegAppTableRecord
  2
GENIUS_GENZVEED_13
 70
     0
  0
APPID
  5
174D
330
16B4
100
AcDbSymbolTableRecord
100
AcDbRegAppTableRecord
  2
GENIUS_GENOBJ-N-SDF_13
 70
     0
  0
APPID
  5
174E
330
16B4
100
AcDbSymbolTableRecord
100
AcDbRegAppTableRecord
  2
GENIUS_GENSCREG_13
 70
     0
  0
APPID
  5
174F
330
16B4
100
AcDbSymbolTableRecord
100
AcDbRegAppTableRecord
  2
GENIUS_GENBLKED_14
 70
     0
  0
APPID
  5
18A8
330
16B4
100
AcDbSymbolTableRecord
100
AcDbRegAppTableRecord
  2
GENIUS_GENOBJ-N-HTC_13
 70
     0
  0
APPID
  5
18A9
330
16B4
100
AcDbSymbolTableRecord
100
AcDbRegAppTableRecord
  2
GENIUS_GENHATCH_13
 70
     0
  0
APPID
  5
1EDC
330
16B4
100
AcDbSymbolTableRecord
100
AcDbRegAppTableRecord
  2
GENIUS_GENOBJ-N-CEN_13
 70
     0
  0
APPID
  5
1F07
330
16B4
100
AcDbSymbolTableRecord
100
AcDbRegAppTableRecord
  2
MCAD_NO_VIS
 70
     0
  0
APPID
  5
1F08
330
16B4
100
AcDbSymbolTableRecord
100
AcDbRegAppTableRecord
  2
ACAD_TEMP_GRAPHIC
 70
     0
  0
APPID
  5
1F38
330
16B4
100
AcDbSymbolTableRecord
100
AcDbRegAppTableRecord
  2
AD_DRAW
 70
     0
  0
APPID
  5
1F3B
330
16B4
100
AcDbSymbolTableRecord
100
AcDbRegAppTableRecord
  2
ACATTRIBSERVICES
 70
     0
  0
APPID
  5
1F5B
330
16B4
100
AcDbSymbolTableRecord
100
AcDbRegAppTableRecord
  2
DESIGNERASSEMBLIES
 70
     0
  0
APPID
  5
1F61
330
16B4
100
AcDbSymbolTableRecord
100
AcDbRegAppTableRecord
  2
ACADM_DIM_EDIT
 70
     0
  0
APPID
  5
1F62
330
16B4
100
AcDbSymbolTableRecord
100
AcDbRegAppTableRecord
  2
AMDT_DM_ADJ
 70
     0
  0
APPID
  5
1F94
330
16B4
100
AcDbSymbolTableRecord
100
AcDbRegAppTableRecord
  2
ACAD_DSTYLE_DIMARC_LENGTH_SYMBOL
 70
     0
  0
APPID
  5
1F95
330
16B4
100
AcDbSymbolTableRecord
100
AcDbRegAppTableRecord
  2
ACAD_DSTYLE_DIMJOGGED_JOGANGLE_SYMBOL
 70
     0
  0
ENDTAB
  0
TABLE
  2
DIMSTYLE
  5
16B5
330
0
100
AcDbSymbolTable
 70
     8
100
AcDbDimStyleTable
 71
     0
  0
DIMSTYLE
105
16DC
102
{ACAD_REACTORS
330
1652
330
165C
330
1D35
330
1D36
330
1D37
102
}
330
16B5
100
AcDbSymbolTableRecord
100
AcDbDimStyleTableRecord
  2
GEN-ISO
 70
     0
  4
"
 40
5.0
 41
2.5
 42
1.0
 43
7.0
 44
1.0
 47
0.1
 48
0.1
 73
     0
 74
     0
 77
     1
 78
     8
140
3.5
141
0.0
143
0.03937
146
0.71
147
0.6
172
     1
176
   256
177
   256
178
     2
271
     2
272
     3
274
     4
283
     0
340
16BA
  0
DIMSTYLE
105
1F93
330
16B5
100
AcDbSymbolTableRecord
100
AcDbDimStyleTableRecord
  2
AM_DIN
 70
     0
  4
"
 41
2.5
 42
1.0
 43
10.0
 44
1.0
 47
0.1
 48
0.1
 73
     0
 74
     0
 77
     1
 78
     8
 79
     2
140
3.5
141
0.0
143
0.0393701
146
0.71
147
1.5
172
     1
176
   256
177
   256
178
     2
271
     2
272
     3
274
     4
283
     0
284
     8
340
16BA
371
    -1
372
    -1
1001
ACAD_DSTYLE_DIMARC_LENGTH_SYMBOL
1070
   379
1070
     0
1001
ACAD_DSTYLE_DIMJOGGED_JOGANGLE_SYMBOL
1070
   384
1040
1.570796326794896
  0
DIMSTYLE
105
1FA4
330
16B5
100
AcDbSymbolTableRecord
100
AcDbDimStyleTableRecord
  2
AM_DIN$3
 70
     0
  4
"
 41
2.5
 42
1.0
 43
10.0
 44
1.0
 47
0.1
 48
0.1
 73
     0
 77
     1
 78
     8
 79
     2
140
3.5
141
0.0
143
0.0393701
146
0.71
147
1.5
176
   256
177
   256
178
     2
271
     2
272
     3
274
     4
283
     0
284
     8
288
     1
289
     0
340
16BA
371
    -1
372
    -1
1001
ACAD_DSTYLE_DIMARC_LENGTH_SYMBOL
1070
   379
1070
     0
1001
ACAD_DSTYLE_DIMJOGGED_JOGANGLE_SYMBOL
1070
   384
1040
1.570796326794896
  0
DIMSTYLE
105
1FA9
330
16B5
100
AcDbSymbolTableRecord
100
AcDbDimStyleTableRecord
  2
AM_DIN$4
 70
     0
  4
"
 41
2.5
 42
1.0
 43
10.0
 44
1.0
 47
0.1
 48
0.1
 73
     0
 77
     1
 78
     8
 79
     2
140
3.5
141
0.0
143
0.0393701
146
0.71
147
1.5
176
   256
177
   256
178
     2
271
     2
272
     3
274
     4
283
     0
284
     8
288
     1
289
     0
340
16BA
371
    -1
372
    -1
1001
ACAD_DSTYLE_DIMARC_LENGTH_SYMBOL
1070
   379
1070
     0
1001
ACAD_DSTYLE_DIMJOGGED_JOGANGLE_SYMBOL
1070
   384
1040
1.570796326794896
  0
DIMSTYLE
105
1FAE
330
16B5
100
AcDbSymbolTableRecord
100
AcDbDimStyleTableRecord
  2
AM_DIN$6
 70
     0
  4
"
 41
2.5
 42
1.0
 43
10.0
 44
1.0
 47
0.1
 48
0.1
 73
     0
 74
     0
 78
     8
 79
     2
140
3.5
141
0.0
143
0.0393701
146
0.71
147
1.5
172
     1
176
   256
177
   256
178
     2
271
     2
272
     3
274
     4
283
     0
284
     8
340
16BA
371
    -1
372
    -1
1001
ACAD_DSTYLE_DIMARC_LENGTH_SYMBOL
1070
   379
1070
     0
1001
ACAD_DSTYLE_DIMJOGGED_JOGANGLE_SYMBOL
1070
   384
1040
1.570796326794896
  0
DIMSTYLE
105
1FB3
330
16B5
100
AcDbSymbolTableRecord
100
AcDbDimStyleTableRecord
  2
AM_DIN$7
 70
     0
  4
"
 41
2.5
 42
1.0
 43
10.0
 44
1.0
 47
0.1
 48
0.1
 73
     0
 74
     0
 77
     1
 78
     8
 79
     2
140
5.0
141
0.0
143
0.0393701
146
0.71
147
1.5
172
     1
176
   256
177
   256
178
     2
271
     2
272
     3
274
     4
283
     0
284
     8
340
16BA
371
    -1
372
    -1
1001
ACAD_DSTYLE_DIMARC_LENGTH_SYMBOL
1070
   379
1070
     0
1001
ACAD_DSTYLE_DIMJOGGED_JOGANGLE_SYMBOL
1070
   384
1040
1.570796326794896
  0
DIMSTYLE
105
1FB8
330
16B5
100
AcDbSymbolTableRecord
100
AcDbDimStyleTableRecord
  2
AM_DIN$SF
 70
     0
  4
"
 41
2.5
 42
1.0
 43
10.0
 44
1.0
 47
0.1
 48
0.1
 73
     0
 74
     0
 75
     1
 76
     1
 77
     1
 78
     8
 79
     2
140
3.5
141
0.0
143
0.0393701
146
0.71
147
1.5
172
     1
176
   256
177
   256
178
     2
271
     2
272
     3
274
     4
283
     0
284
     8
340
16BA
371
    -1
372
    -1
1001
ACAD_DSTYLE_DIMARC_LENGTH_SYMBOL
1070
   379
1070
     0
1001
ACAD_DSTYLE_DIMJOGGED_JOGANGLE_SYMBOL
1070
   384
1040
1.570796326794896
  0
DIMSTYLE
105
1FC1
330
16B5
100
AcDbSymbolTableRecord
100
AcDbDimStyleTableRecord
  2
AM_DIN$SH
 70
     0
  4
"
 41
2.5
 42
1.0
 43
10.0
 44
1.0
 47
0.1
 48
0.1
 73
     0
 74
     0
 75
     1
 76
     1
 77
     1
 78
     8
 79
     2
140
3.5
141
0.0
143
0.0393701
144
2.0
146
0.71
147
1.5
172
     1
173
     1
176
   256
177
   256
178
     2
271
     2
272
     3
274
     4
283
     0
284
     8
340
16BA
343
1FB9
371
    -1
372
    -1
1001
ACAD_DSTYLE_DIMARC_LENGTH_SYMBOL
1070
   379
1070
     0
1001
ACAD_DSTYLE_DIMJOGGED_JOGANGLE_SYMBOL
1070
   384
1040
1.570796326794896
  0
ENDTAB
  0
TABLE
  2
BLOCK_RECORD
  5
16AC
330
0
100
AcDbSymbolTable
 70
    11
  0
BLOCK_RECORD
  5
16C3
330
16AC
100
AcDbSymbolTableRecord
100
AcDbBlockTableRecord
  2
*MODEL_SPACE
340
1EFE
  0
BLOCK_RECORD
  5
16C0
330
16AC
100
AcDbSymbolTableRecord
100
AcDbBlockTableRecord
  2
*PAPER_SPACE
340
1EFF
  0
BLOCK_RECORD
  5
16FE
330
16AC
100
AcDbSymbolTableRecord
100
AcDbBlockTableRecord
  2
*D0
340
0
  0
BLOCK_RECORD
  5
170C
330
16AC
100
AcDbSymbolTableRecord
100
AcDbBlockTableRecord
  2
KATALOG_LEER
340
0
102
{BLKREFS
331
176E
331
1D39
102
}
  0
BLOCK_RECORD
  5
17DE
330
16AC
100
AcDbSymbolTableRecord
100
AcDbBlockTableRecord
  2
*D2
340
0
  0
BLOCK_RECORD
  5
19AE
330
16AC
100
AcDbSymbolTableRecord
100
AcDbBlockTableRecord
  2
*X3
340
0
102
{BLKREFS
331
1C4C
102
}
  0
BLOCK_RECORD
  5
19B4
330
16AC
100
AcDbSymbolTableRecord
100
AcDbBlockTableRecord
  2
*X4
340
0
102
{BLKREFS
331
1C6F
102
}
  0
BLOCK_RECORD
  5
19BA
330
16AC
100
AcDbSymbolTableRecord
100
AcDbBlockTableRecord
  2
*X5
340
0
102
{BLKREFS
331
1CCA
102
}
  0
BLOCK_RECORD
  5
1D57
330
16AC
100
AcDbSymbolTableRecord
100
AcDbBlockTableRecord
  2
*D6
340
0
  0
BLOCK_RECORD
  5
1D63
330
16AC
100
AcDbSymbolTableRecord
100
AcDbBlockTableRecord
  2
*D7
340
0
  0
BLOCK_RECORD
  5
1D6F
330
16AC
100
AcDbSymbolTableRecord
100
AcDbBlockTableRecord
  2
*D8
340
0
  0
BLOCK_RECORD
  5
1FB9
330
16AC
100
AcDbSymbolTableRecord
100
AcDbBlockTableRecord
  2
GENAXEH
340
0
  0
ENDTAB
  0
ENDSEC
  0
SECTION
  2
BLOCKS
  0
BLOCK
  5
16C4
330
16C3
100
AcDbEntity
  8
0
100
AcDbBlockBegin
  2
*MODEL_SPACE
 70
     0
 10
0.0
 20
0.0
 30
0.0
  3
*MODEL_SPACE
  1

  0
ENDBLK
  5
16C5
330
16C3
100
AcDbEntity
  8
0
100
AcDbBlockEnd
  0
BLOCK
  5
16C1
330
16C0
100
AcDbEntity
 67
     1
  8
0
100
AcDbBlockBegin
  2
*PAPER_SPACE
 70
     0
 10
0.0
 20
0.0
 30
0.0
  3
*PAPER_SPACE
  1

  0
ENDBLK
  5
16C2
330
16C0
100
AcDbEntity
 67
     1
  8
0
100
AcDbBlockEnd
  0
BLOCK
  5
199A
330
16FE
100
AcDbEntity
  8
0
100
AcDbBlockBegin
  2
*D0
 70
     1
 10
0.0
 20
0.0
 30
0.0
  3
*D0
  1

  0
LINE
  5
199B
330
16FE
100
AcDbEntity
  8
0
  6
ByBlock
100
AcDbLine
 10
256.949454
 20
565.511484
 30
0.0
 11
206.949454
 21
565.511484
 31
0.0
  0
LINE
  5
199C
330
16FE
100
AcDbEntity
  8
0
  6
ByBlock
100
AcDbLine
 10
237.619454
 20
615.511484
 30
0.0
 11
206.949454
 21
615.511484
 31
0.0
  0
LINE
  5
199D
330
16FE
100
AcDbEntity
  8
0
  6
ByBlock
100
AcDbLine
 10
211.949454
 20
578.011484
 30
0.0
 11
211.949454
 21
603.011484
 31
0.0
  0
SOLID
  5
199E
330
16FE
100
AcDbEntity
  8
0
  6
ByBlock
100
AcDbTrace
 10
209.86612
 20
578.011484
 30
0.0
 11
214.032787
 21
578.011484
 31
0.0
 12
211.949454
 22
565.511484
 32
0.0
 13
211.949454
 23
565.511484
 33
0.0
  0
SOLID
  5
199F
330
16FE
100
AcDbEntity
  8
0
  6
ByBlock
100
AcDbTrace
 10
209.86612
 20
603.011484
 30
0.0
 11
214.032787
 21
603.011484
 31
0.0
 12
211.949454
 22
615.511484
 32
0.0
 13
211.949454
 23
615.511484
 33
0.0
  0
MTEXT
  5
19A0
330
16FE
100
AcDbEntity
  8
0
  6
ByBlock
 62
     2
100
AcDbMText
 10
200.199454
 20
590.511484
 30
0.0
 40
17.5
 41
0.0
 71
     5
 72
     1
  1
50
 11
0.0
 21
1.0
 31
0.0
 73
     1
 44
1.0
1001
ACAD
1000
MTEXTBEGIN
1070
    73
1070
     1
1070
    44
1040
1.0
1070
    74
1070
     0
1000
MTEXTEND
  0
POINT
  5
19A1
330
16FE
100
AcDbEntity
  8
DEFPOINTS
  6
ByBlock
 62
     0
100
AcDbPoint
 10
261.949454
 20
565.511484
 30
0.0
  0
POINT
  5
19A2
330
16FE
100
AcDbEntity
  8
DEFPOINTS
  6
ByBlock
 62
     0
100
AcDbPoint
 10
242.619454
 20
615.511484
 30
0.0
  0
POINT
  5
19A3
330
16FE
100
AcDbEntity
  8
DEFPOINTS
  6
ByBlock
 62
     0
100
AcDbPoint
 10
211.949454
 20
615.511484
 30
0.0
  0
ENDBLK
  5
19A4
330
16FE
100
AcDbEntity
  8
0
100
AcDbBlockEnd
  0
BLOCK
  5
170D
330
170C
100
AcDbEntity
  8
0
100
AcDbBlockBegin
  2
KATALOG_LEER
 70
     0
 10
0.0
 20
0.0
 30
0.0
  3
KATALOG_LEER
  1

  0
ENDBLK
  5
170E
330
170C
100
AcDbEntity
  8
0
100
AcDbBlockEnd
  0
BLOCK
  5
1839
330
17DE
100
AcDbEntity
  8
0
100
AcDbBlockBegin
  2
*D2
 70
     1
 10
0.0
 20
0.0
 30
0.0
  3
*D2
  1

  0
LINE
  5
183A
330
17DE
100
AcDbEntity
  8
0
  6
ByBlock
100
AcDbLine
 10
288.450454
 20
615.511484
 30
0.0
 11
171.949454
 21
615.511484
 31
0.0
  0
LINE
  5
183B
330
17DE
100
AcDbEntity
  8
0
  6
ByBlock
100
AcDbLine
 10
308.173454
 20
440.511484
 30
0.0
 11
171.949454
 21
440.511484
 31
0.0
  0
LINE
  5
183C
330
17DE
100
AcDbEntity
  8
0
  6
ByBlock
100
AcDbLine
 10
176.949454
 20
603.011484
 30
0.0
 11
176.949454
 21
453.011484
 31
0.0
  0
SOLID
  5
183D
330
17DE
100
AcDbEntity
  8
0
  6
ByBlock
100
AcDbTrace
 10
174.86612
 20
603.011484
 30
0.0
 11
179.032787
 21
603.011484
 31
0.0
 12
176.949454
 22
615.511484
 32
0.0
 13
176.949454
 23
615.511484
 33
0.0
  0
SOLID
  5
183E
330
17DE
100
AcDbEntity
  8
0
  6
ByBlock
100
AcDbTrace
 10
174.86612
 20
453.011484
 30
0.0
 11
179.032787
 21
453.011484
 31
0.0
 12
176.949454
 22
440.511484
 32
0.0
 13
176.949454
 23
440.511484
 33
0.0
  0
MTEXT
  5
183F
330
17DE
100
AcDbEntity
  8
0
  6
ByBlock
 62
     2
100
AcDbMText
 10
165.199454
 20
528.011484
 30
0.0
 40
17.5
 41
0.0
 71
     5
 72
     1
  1
175
 11
0.0
 21
1.0
 31
0.0
 73
     1
 44
1.0
1001
ACAD
1000
MTEXTBEGIN
1070
    73
1070
     1
1070
    44
1040
1.0
1070
    74
1070
     0
1000
MTEXTEND
  0
POINT
  5
1840
330
17DE
100
AcDbEntity
  8
DEFPOINTS
  6
ByBlock
 62
     0
100
AcDbPoint
 10
293.450454
 20
615.511484
 30
0.0
  0
POINT
  5
1841
330
17DE
100
AcDbEntity
  8
DEFPOINTS
  6
ByBlock
 62
     0
100
AcDbPoint
 10
313.173454
 20
440.511484
 30
0.0
  0
POINT
  5
1842
330
17DE
100
AcDbEntity
  8
DEFPOINTS
  6
ByBlock
 62
     0
100
AcDbPoint
 10
176.949454
 20
440.511484
 30
0.0
  0
ENDBLK
  5
1843
330
17DE
100
AcDbEntity
  8
0
100
AcDbBlockEnd
  0
BLOCK
  5
19B2
330
19AE
100
AcDbEntity
  8
0
100
AcDbBlockBegin
  2
*X3
 70
     1
 10
0.0
 20
0.0
 30
0.0
  3
*X3
  1

  0
LINE
  5
19AF
330
19AE
100
AcDbEntity
  8
8
100
AcDbLine
 10
180.5059999999999
 20
514.6599999999999
 30
0.0
 11
188.139
 21
522.2919999999999
 31
0.0
  0
LINE
  5
19B0
330
19AE
100
AcDbEntity
  8
8
100
AcDbLine
 10
178.452
 20
517.096
 30
0.0
 11
185.684
 21
524.3269999999999
 31
0.0
  0
LINE
  5
19B1
330
19AE
100
AcDbEntity
  8
8
100
AcDbLine
 10
178.627
 20
521.7609999999999
 30
0.0
 11
181.013
 21
524.146
 31
0.0
  0
ENDBLK
  5
19B3
330
19AE
100
AcDbEntity
  8
0
100
AcDbBlockEnd
  0
BLOCK
  5
19B8
330
19B4
100
AcDbEntity
  8
0
100
AcDbBlockBegin
  2
*X4
 70
     1
 10
0.0
 20
0.0
 30
0.0
  3
*X4
  1

  0
LINE
  5
19B5
330
19B4
100
AcDbEntity
  8
8
100
AcDbLine
 10
178.041
 20
519.62
 30
0.0
 11
183.855
 21
513.806
 31
0.0
  0
LINE
  5
19B6
330
19B4
100
AcDbEntity
  8
8
100
AcDbLine
 10
179.313
 20
522.838
 30
0.0
 11
187.072
 21
515.079
 31
0.0
  0
LINE
  5
19B7
330
19B4
100
AcDbEntity
  8
8
100
AcDbLine
 10
182.062
 20
524.579
 30
0.0
 11
188.852
 21
517.7889999999999
 31
0.0
  0
ENDBLK
  5
19B9
330
19B4
100
AcDbEntity
  8
0
100
AcDbBlockEnd
  0
BLOCK
  5
19C1
330
19BA
100
AcDbEntity
  8
0
100
AcDbBlockBegin
  2
*X5
 70
     1
 10
0.0
 20
0.0
 30
0.0
  3
*X5
  1

  0
LINE
  5
19BB
330
19BA
100
AcDbEntity
  8
8
100
AcDbLine
 10
344.186
 20
514.1449999999999
 30
0.0
 11
351.249
 21
521.2080000000001
 31
0.0
  0
LINE
  5
19BC
330
19BA
100
AcDbEntity
  8
8
100
AcDbLine
 10
341.6409999999999
 20
516.091
 30
0.0
 11
349.303
 21
523.753
 31
0.0
  0
LINE
  5
19BD
330
19BA
100
AcDbEntity
  8
8
100
AcDbLine
 10
340.627
 20
519.5669999999999
 30
0.0
 11
345.828
 21
524.7669999999999
 31
0.0
  0
LINE
  5
19BE
330
19BA
100
AcDbEntity
  8
8
100
AcDbLine
 10
351.562
 20
518.6649999999999
 30
0.0
 11
345.4969999999999
 21
524.73
 31
0.0
  0
LINE
  5
19BF
330
19BA
100
AcDbEntity
  8
8
100
AcDbLine
 10
350.176
 20
515.5599999999999
 30
0.0
 11
342.407
 21
523.33
 31
0.0
  0
LINE
  5
19C0
330
19BA
100
AcDbEntity
  8
8
100
AcDbLine
 10
347.345
 20
513.9019999999999
 30
0.0
 11
340.734
 21
520.5119999999999
 31
0.0
  0
ENDBLK
  5
19C2
330
19BA
100
AcDbEntity
  8
0
100
AcDbBlockEnd
  0
BLOCK
  5
1D93
330
1D57
100
AcDbEntity
  8
0
100
AcDbBlockBegin
  2
*D6
 70
     1
 10
0.0
 20
0.0
 30
0.0
  3
*D6
  1

  0
LINE
  5
1D94
330
1D57
100
AcDbEntity
  8
0
  6
ByBlock
100
AcDbLine
 10
-354.756771
 20
112.204838
 30
0.0
 11
-469.163771
 21
112.204838
 31
0.0
  0
LINE
  5
1D95
330
1D57
100
AcDbEntity
  8
0
  6
ByBlock
100
AcDbLine
 10
-354.756771
 20
309.204838
 30
0.0
 11
-469.163771
 21
309.204838
 31
0.0
  0
LINE
  5
1D96
330
1D57
100
AcDbEntity
  8
0
  6
ByBlock
100
AcDbLine
 10
-464.163771
 20
124.704838
 30
0.0
 11
-464.163771
 21
296.704838
 31
0.0
  0
SOLID
  5
1D97
330
1D57
100
AcDbEntity
  8
0
  6
ByBlock
100
AcDbTrace
 10
-466.2471049999999
 20
124.704838
 30
0.0
 11
-462.080438
 21
124.704838
 31
0.0
 12
-464.163771
 22
112.204838
 32
0.0
 13
-464.163771
 23
112.204838
 33
0.0
  0
SOLID
  5
1D98
330
1D57
100
AcDbEntity
  8
0
  6
ByBlock
100
AcDbTrace
 10
-466.2471049999999
 20
296.704838
 30
0.0
 11
-462.080438
 21
296.704838
 31
0.0
 12
-464.163771
 22
309.204838
 32
0.0
 13
-464.163771
 23
309.204838
 33
0.0
  0
MTEXT
  5
1D99
330
1D57
100
AcDbEntity
  8
0
  6
ByBlock
 62
     2
100
AcDbMText
 10
-475.913771
 20
210.704838
 30
0.0
 40
17.5
 41
0.0
 71
     5
 72
     1
  1
{\Fgeniso.shx|c0;\U+25A1}197
 11
0.0
 21
1.0
 31
0.0
 73
     1
 44
1.0
1001
ACAD
1000
MTEXTBEGIN
1070
    73
1070
     1
1070
    44
1040
1.0
1070
    74
1070
     0
1000
MTEXTEND
  0
POINT
  5
1D9A
330
1D57
100
AcDbEntity
  8
DEFPOINTS
  6
ByBlock
 62
     0
100
AcDbPoint
 10
-349.756771
 20
112.204838
 30
0.0
  0
POINT
  5
1D9B
330
1D57
100
AcDbEntity
  8
DEFPOINTS
  6
ByBlock
 62
     0
100
AcDbPoint
 10
-349.756771
 20
309.204838
 30
0.0
  0
POINT
  5
1D9C
330
1D57
100
AcDbEntity
  8
DEFPOINTS
  6
ByBlock
 62
     0
100
AcDbPoint
 10
-464.163771
 20
309.204838
 30
0.0
  0
ENDBLK
  5
1D9D
330
1D57
100
AcDbEntity
  8
0
100
AcDbBlockEnd
  0
BLOCK
  5
1D9E
330
1D63
100
AcDbEntity
  8
0
100
AcDbBlockBegin
  2
*D7
 70
     1
 10
0.0
 20
0.0
 30
0.0
  3
*D7
  1

  0
LINE
  5
1D9F
330
1D63
100
AcDbEntity
  8
0
  6
ByBlock
100
AcDbLine
 10
-379.163771
 20
178.187838
 30
0.0
 11
-379.163771
 21
57.204838
 31
0.0
  0
LINE
  5
1DA0
330
1D63
100
AcDbEntity
  8
0
  6
ByBlock
100
AcDbLine
 10
-119.163771
 20
178.187838
 30
0.0
 11
-119.163771
 21
57.204838
 31
0.0
  0
LINE
  5
1DA1
330
1D63
100
AcDbEntity
  8
0
  6
ByBlock
100
AcDbLine
 10
-366.663771
 20
62.204838
 30
0.0
 11
-131.663771
 21
62.204838
 31
0.0
  0
SOLID
  5
1DA2
330
1D63
100
AcDbEntity
  8
0
  6
ByBlock
100
AcDbTrace
 10
-366.663771
 20
64.28817099999999
 30
0.0
 11
-366.663771
 21
60.121504
 31
0.0
 12
-379.163771
 22
62.204838
 32
0.0
 13
-379.163771
 23
62.204838
 33
0.0
  0
SOLID
  5
1DA3
330
1D63
100
AcDbEntity
  8
0
  6
ByBlock
100
AcDbTrace
 10
-131.663771
 20
64.28817099999999
 30
0.0
 11
-131.663771
 21
60.121504
 31
0.0
 12
-119.163771
 22
62.204838
 32
0.0
 13
-119.163771
 23
62.204838
 33
0.0
  0
MTEXT
  5
1DA4
330
1D63
100
AcDbEntity
  8
0
  6
ByBlock
 62
     2
100
AcDbMText
 10
-249.163771
 20
73.95655999999999
 30
0.0
 40
17.5
 41
0.0
 71
     5
 72
     1
  1
260
 73
     1
 44
1.0
1001
ACAD
1000
MTEXTBEGIN
1070
    73
1070
     1
1070
    44
1040
1.0
1070
    74
1070
     0
1000
MTEXTEND
  0
POINT
  5
1DA5
330
1D63
100
AcDbEntity
  8
DEFPOINTS
  6
ByBlock
 62
     0
100
AcDbPoint
 10
-379.163771
 20
183.187838
 30
0.0
  0
POINT
  5
1DA6
330
1D63
100
AcDbEntity
  8
DEFPOINTS
  6
ByBlock
 62
     0
100
AcDbPoint
 10
-119.163771
 20
183.187838
 30
0.0
  0
POINT
  5
1DA7
330
1D63
100
AcDbEntity
  8
DEFPOINTS
  6
ByBlock
 62
     0
100
AcDbPoint
 10
-119.163771
 20
62.204838
 30
0.0
  0
ENDBLK
  5
1DA8
330
1D63
100
AcDbEntity
  8
0
100
AcDbBlockEnd
  0
BLOCK
  5
1DA9
330
1D6F
100
AcDbEntity
  8
0
100
AcDbBlockBegin
  2
*D8
 70
     1
 10
0.0
 20
0.0
 30
0.0
  3
*D8
  1

  0
LINE
  5
1DAA
330
1D6F
100
AcDbEntity
  8
0
  6
ByBlock
100
AcDbLine
 10
-368.636771
 20
206.204838
 30
0.0
 11
-434.1637709999999
 21
206.204838
 31
0.0
  0
LINE
  5
1DAB
330
1D6F
100
AcDbEntity
  8
0
  6
ByBlock
100
AcDbLine
 10
-368.636771
 20
215.204838
 30
0.0
 11
-434.1637709999999
 21
215.204838
 31
0.0
  0
LINE
  5
1DAC
330
1D6F
100
AcDbEntity
  8
0
  6
ByBlock
100
AcDbLine
 10
-429.1637709999999
 20
193.704838
 30
0.0
 11
-429.1637709999999
 21
181.204838
 31
0.0
  0
LINE
  5
1DAD
330
1D6F
100
AcDbEntity
  8
0
  6
ByBlock
100
AcDbLine
 10
-429.1637709999999
 20
227.704838
 30
0.0
 11
-429.1637709999999
 21
255.121447
 31
0.0
  0
LINE
  5
1DAE
330
1D6F
100
AcDbEntity
  8
0
  6
ByBlock
100
AcDbLine
 10
-429.1637709999999
 20
206.204838
 30
0.0
 11
-429.1637709999999
 21
215.204838
 31
0.0
  0
SOLID
  5
1DAF
330
1D6F
100
AcDbEntity
  8
0
  6
ByBlock
100
AcDbTrace
 10
-431.247105
 20
193.704838
 30
0.0
 11
-427.080438
 21
193.704838
 31
0.0
 12
-429.1637709999999
 22
206.204838
 32
0.0
 13
-429.1637709999999
 23
206.204838
 33
0.0
  0
SOLID
  5
1DB0
330
1D6F
100
AcDbEntity
  8
0
  6
ByBlock
100
AcDbTrace
 10
-431.247105
 20
227.704838
 30
0.0
 11
-427.080438
 21
227.704838
 31
0.0
 12
-429.1637709999999
 22
215.204838
 32
0.0
 13
-429.1637709999999
 23
215.204838
 33
0.0
  0
MTEXT
  5
1DB1
330
1D6F
100
AcDbEntity
  8
0
  6
ByBlock
 62
     2
100
AcDbMText
 10
-440.913771
 20
247.663142
 30
0.0
 40
17.5
 41
0.0
 71
     5
 72
     1
  1
9
 11
0.0
 21
1.0
 31
0.0
 73
     1
 44
1.0
1001
ACAD
1000
MTEXTBEGIN
1070
    73
1070
     1
1070
    44
1040
1.0
1070
    74
1070
     0
1000
MTEXTEND
  0
POINT
  5
1DB2
330
1D6F
100
AcDbEntity
  8
DEFPOINTS
  6
ByBlock
 62
     0
100
AcDbPoint
 10
-363.636771
 20
206.204838
 30
0.0
  0
POINT
  5
1DB3
330
1D6F
100
AcDbEntity
  8
DEFPOINTS
  6
ByBlock
 62
     0
100
AcDbPoint
 10
-363.636771
 20
215.204838
 30
0.0
  0
POINT
  5
1DB4
330
1D6F
100
AcDbEntity
  8
DEFPOINTS
  6
ByBlock
 62
     0
100
AcDbPoint
 10
-429.1637709999999
 20
215.204838
 30
0.0
  0
ENDBLK
  5
1DB5
330
1D6F
100
AcDbEntity
  8
0
100
AcDbBlockEnd
  0
BLOCK
  5
1FBB
330
1FB9
100
AcDbEntity
  8
0
100
AcDbBlockBegin
  2
GENAXEH
 70
     0
 10
0.0
 20
0.0
 30
0.0
  3
GENAXEH
  1

  0
LINE
  5
1FBA
330
1FB9
100
AcDbEntity
  8
0
100
AcDbLine
 10
-1.0
 20
0.0
 30
0.0
 11
1.0
 21
0.0
 31
0.0
  0
ENDBLK
  5
1FBC
330
1FB9
100
AcDbEntity
  8
0
100
AcDbBlockEnd
  0
ENDSEC
  0
SECTION
  2
ENTITIES
  0
LINE
  5
1004
330
16C3
100
AcDbEntity
  8
0
100
AcDbLine
 10
293.450454
 20
615.511484
 30
0.0
 11
391.950454
 21
615.511484
 31
0.0
  0
LINE
  5
1005
330
16C3
100
AcDbEntity
  8
0
100
AcDbLine
 10
291.356454
 20
575.5664839999999
 30
0.0
 11
293.449454
 21
615.512484
 31
0.0
  0
LINE
  5
1006
330
16C3
100
AcDbEntity
  8
0
100
AcDbLine
 10
261.949454
 20
565.511484
 30
0.0
 11
262.472454
 21
575.4984839999999
 31
0.0
  0
LINE
  5
1007
330
16C3
100
AcDbEntity
  8
0
100
AcDbLine
 10
291.356454
 20
575.5664839999999
 30
0.0
 11
262.477454
 21
575.5664839999999
 31
0.0
  0
LINE
  5
1008
330
16C3
100
AcDbEntity
  8
0
100
AcDbLine
 10
305.158454
 20
574.9164839999999
 30
0.0
 11
304.601454
 21
606.8544839999999
 31
0.0
  0
LINE
  5
1009
330
16C3
100
AcDbEntity
  8
0
100
AcDbLine
 10
301.450454
 20
615.511484
 30
0.0
 11
304.601454
 21
606.8544839999999
 31
0.0
  0
ARC
  5
100A
330
16C3
100
AcDbEntity
  8
0
100
AcDbCircle
 10
310.657454
 20
575.011484
 30
0.0
 40
5.5
100
AcDbArc
 50
181.0
 51
270.0
  0
LINE
  5
100B
330
16C3
100
AcDbEntity
  8
0
100
AcDbLine
 10
470.7264539999999
 20
440.511484
 30
0.0
 11
313.173454
 21
440.511484
 31
0.0
  0
LINE
  5
100C
330
16C3
100
AcDbEntity
  8
0
100
AcDbLine
 10
261.949454
 20
565.511484
 30
0.0
 11
297.132454
 21
565.511484
 31
0.0
  0
LINE
  5
100D
330
16C3
100
AcDbEntity
  8
0
100
AcDbLine
 10
316.449454
 20
569.511484
 30
0.0
 11
318.269454
 21
465.282484
 31
0.0
  0
LINE
  5
100E
330
16C3
100
AcDbEntity
  8
0
100
AcDbLine
 10
313.173454
 20
440.511484
 30
0.0
 11
307.118454
 21
556.035484
 31
0.0
  0
ARC
  5
100F
330
16C3
100
AcDbEntity
  8
0
100
AcDbCircle
 10
297.132454
 20
555.5114839999999
 30
0.0
 40
10.0
100
AcDbArc
 50
3.0
 51
90.0
  0
LINE
  5
1010
330
16C3
100
AcDbEntity
  8
0
100
AcDbLine
 10
270.727454
 20
575.5664839999999
 30
0.0
 11
272.977454
 21
565.511484
 31
0.0
  0
LINE
  5
1011
330
16C3
100
AcDbEntity
  8
0
100
AcDbLine
 10
281.977454
 20
565.511484
 30
0.0
 11
284.227454
 21
575.5664839999999
 31
0.0
  0
LINE
  5
1012
330
16C3
100
AcDbEntity
  8
0
100
AcDbLine
 10
490.4504539999999
 20
615.511484
 30
0.0
 11
391.950454
 21
615.511484
 31
0.0
  0
LINE
  5
1013
330
16C3
100
AcDbEntity
  8
0
100
AcDbLine
 10
492.543454
 20
575.5664839999999
 30
0.0
 11
490.4504539999999
 21
615.511484
 31
0.0
  0
LINE
  5
1014
330
16C3
100
AcDbEntity
  8
0
100
AcDbLine
 10
521.950454
 20
565.511484
 30
0.0
 11
521.426454
 21
575.4984839999999
 31
0.0
  0
LINE
  5
1015
330
16C3
100
AcDbEntity
  8
0
100
AcDbLine
 10
492.543454
 20
575.5664839999999
 30
0.0
 11
521.4234539999999
 21
575.5664839999999
 31
0.0
  0
LINE
  5
1016
330
16C3
100
AcDbEntity
  8
0
100
AcDbLine
 10
478.7414539999999
 20
574.9164839999999
 30
0.0
 11
479.2984539999999
 21
606.8544839999999
 31
0.0
  0
LINE
  5
1017
330
16C3
100
AcDbEntity
  8
0
100
AcDbLine
 10
482.4504539999999
 20
615.511484
 30
0.0
 11
479.2984539999999
 21
606.8544839999999
 31
0.0
  0
ARC
  5
1018
330
16C3
100
AcDbEntity
  8
0
100
AcDbCircle
 10
473.242454
 20
575.011484
 30
0.0
 40
5.5
100
AcDbArc
 50
270.0
 51
359.0
  0
LINE
  5
1019
330
16C3
100
AcDbEntity
  8
0
100
AcDbLine
 10
521.950454
 20
565.511484
 30
0.0
 11
486.767454
 21
565.511484
 31
0.0
  0
LINE
  5
101A
330
16C3
100
AcDbEntity
  8
0
100
AcDbLine
 10
467.449454
 20
569.511484
 30
0.0
 11
465.6304539999999
 21
465.2814839999999
 31
0.0
  0
LINE
  5
101B
330
16C3
100
AcDbEntity
  8
0
100
AcDbLine
 10
470.7264539999999
 20
440.511484
 30
0.0
 11
476.7814539999999
 21
556.035484
 31
0.0
  0
ARC
  5
101C
330
16C3
100
AcDbEntity
  8
0
100
AcDbCircle
 10
486.767454
 20
555.5114839999999
 30
0.0
 40
10.0
100
AcDbArc
 50
90.0
 51
177.0
  0
LINE
  5
101D
330
16C3
100
AcDbEntity
  8
0
100
AcDbLine
 10
513.173454
 20
575.5664839999999
 30
0.0
 11
510.923454
 21
565.511484
 31
0.0
  0
LINE
  5
101E
330
16C3
100
AcDbEntity
  8
0
100
AcDbLine
 10
501.923454
 20
565.511484
 30
0.0
 11
499.673454
 21
575.5664839999999
 31
0.0
  0
LINE
  5
101F
330
16C3
100
AcDbEntity
  8
0
100
AcDbLine
 10
473.242454
 20
569.511484
 30
0.0
 11
310.657454
 21
569.511484
 31
0.0
  0
LINE
  5
1020
330
16C3
100
AcDbEntity
  8
0
100
AcDbLine
 10
318.949454
 20
460.282484
 30
0.0
 11
318.949454
 21
440.2814839999999
 31
0.0
  0
LINE
  5
1021
330
16C3
100
AcDbEntity
  8
0
100
AcDbLine
 10
318.269454
 20
465.282484
 30
0.0
 11
318.949454
 21
460.2814839999999
 31
0.0
  0
LINE
  5
1022
330
16C3
100
AcDbEntity
  8
0
100
AcDbLine
 10
464.9504539999999
 20
460.282484
 30
0.0
 11
464.9504539999999
 21
440.2814839999999
 31
0.0
  0
LINE
  5
1023
330
16C3
100
AcDbEntity
  8
0
100
AcDbLine
 10
465.6304539999999
 20
465.2814839999999
 30
0.0
 11
464.9504539999999
 21
460.2814839999999
 31
0.0
  0
POLYLINE
  5
1090
330
16C3
100
AcDbEntity
  8
SCHRAFFUR_RAND
100
AcDb2dPolyline
 66
     1
 10
0.0
 20
0.0
 30
0.0
 70
     1
  0
VERTEX
  5
1091
330
1090
100
AcDbEntity
  8
SCHRAFFUR_RAND
100
AcDbVertex
100
AcDb2dVertex
 10
510.923454
 20
565.511484
 30
0.0
  0
VERTEX
  5
1092
330
1090
100
AcDbEntity
  8
SCHRAFFUR_RAND
100
AcDbVertex
100
AcDb2dVertex
 10
521.950454
 20
565.511484
 30
0.0
  0
VERTEX
  5
1093
330
1090
100
AcDbEntity
  8
SCHRAFFUR_RAND
100
AcDbVertex
100
AcDb2dVertex
 10
521.426454
 20
575.4984839999999
 30
0.0
  0
VERTEX
  5
1094
330
1090
100
AcDbEntity
  8
SCHRAFFUR_RAND
100
AcDbVertex
100
AcDb2dVertex
 10
513.173454
 20
575.5664839999999
 30
0.0
  0
VERTEX
  5
1095
330
1090
100
AcDbEntity
  8
SCHRAFFUR_RAND
100
AcDbVertex
100
AcDb2dVertex
 10
510.923454
 20
565.511484
 30
0.0
  0
SEQEND
  5
1096
330
1090
100
AcDbEntity
  8
SCHRAFFUR_RAND
  0
POLYLINE
  5
10B0
330
16C3
100
AcDbEntity
  8
SCHRAFFUR_RAND
100
AcDb2dPolyline
 66
     1
 10
0.0
 20
0.0
 30
0.0
 70
     1
  0
VERTEX
  5
10B1
330
10B0
100
AcDbEntity
  8
SCHRAFFUR_RAND
100
AcDbVertex
100
AcDb2dVertex
 10
270.727454
 20
575.5664839999999
 30
0.0
  0
VERTEX
  5
10B2
330
10B0
100
AcDbEntity
  8
SCHRAFFUR_RAND
100
AcDbVertex
100
AcDb2dVertex
 10
262.473454
 20
575.4984839999999
 30
0.0
  0
VERTEX
  5
10B3
330
10B0
100
AcDbEntity
  8
SCHRAFFUR_RAND
100
AcDbVertex
100
AcDb2dVertex
 10
261.949454
 20
565.511484
 30
0.0
  0
VERTEX
  5
10B4
330
10B0
100
AcDbEntity
  8
SCHRAFFUR_RAND
100
AcDbVertex
100
AcDb2dVertex
 10
272.977454
 20
565.511484
 30
0.0
  0
VERTEX
  5
10B5
330
10B0
100
AcDbEntity
  8
SCHRAFFUR_RAND
100
AcDbVertex
100
AcDb2dVertex
 10
270.727454
 20
575.5664839999999
 30
0.0
  0
SEQEND
  5
10B6
330
10B0
100
AcDbEntity
  8
SCHRAFFUR_RAND
  0
POLYLINE
  5
1306
330
16C3
100
AcDbEntity
  8
SCHRAFFUR_RAND
100
AcDb2dPolyline
 66
     1
 10
0.0
 20
0.0
 30
0.0
 70
     1
  0
VERTEX
  5
1307
330
1306
100
AcDbEntity
  8
SCHRAFFUR_RAND
100
AcDbVertex
100
AcDb2dVertex
 10
464.9504539999999
 20
440.511484
 30
0.0
  0
VERTEX
  5
1308
330
1306
100
AcDbEntity
  8
SCHRAFFUR_RAND
100
AcDbVertex
100
AcDb2dVertex
 10
470.7264539999999
 20
440.511484
 30
0.0
  0
VERTEX
  5
1309
330
1306
100
AcDbEntity
  8
SCHRAFFUR_RAND
100
AcDbVertex
100
AcDb2dVertex
 10
476.7814539999999
 20
556.035484
 30
0.0
  0
VERTEX
  5
130A
330
1306
100
AcDbEntity
  8
SCHRAFFUR_RAND
100
AcDbVertex
100
AcDb2dVertex
 10
477.317454
 20
559.0264839999999
 30
0.0
  0
VERTEX
  5
130B
330
1306
100
AcDbEntity
  8
SCHRAFFUR_RAND
100
AcDbVertex
100
AcDb2dVertex
 10
478.800454
 20
561.6914839999999
 30
0.0
  0
VERTEX
  5
130C
330
1306
100
AcDbEntity
  8
SCHRAFFUR_RAND
100
AcDbVertex
100
AcDb2dVertex
 10
481.012454
 20
563.790484
 30
0.0
  0
VERTEX
  5
130D
330
1306
100
AcDbEntity
  8
SCHRAFFUR_RAND
100
AcDbVertex
100
AcDb2dVertex
 10
483.752454
 20
565.132484
 30
0.0
  0
VERTEX
  5
130E
330
1306
100
AcDbEntity
  8
SCHRAFFUR_RAND
100
AcDbVertex
100
AcDb2dVertex
 10
486.767454
 20
565.511484
 30
0.0
  0
VERTEX
  5
130F
330
1306
100
AcDbEntity
  8
SCHRAFFUR_RAND
100
AcDbVertex
100
AcDb2dVertex
 10
501.923454
 20
565.511484
 30
0.0
  0
VERTEX
  5
1310
330
1306
100
AcDbEntity
  8
SCHRAFFUR_RAND
100
AcDbVertex
100
AcDb2dVertex
 10
499.673454
 20
575.5664839999999
 30
0.0
  0
VERTEX
  5
1311
330
1306
100
AcDbEntity
  8
SCHRAFFUR_RAND
100
AcDbVertex
100
AcDb2dVertex
 10
492.543454
 20
575.5664839999999
 30
0.0
  0
VERTEX
  5
1312
330
1306
100
AcDbEntity
  8
SCHRAFFUR_RAND
100
AcDbVertex
100
AcDb2dVertex
 10
490.4504539999999
 20
615.511484
 30
0.0
  0
VERTEX
  5
1313
330
1306
100
AcDbEntity
  8
SCHRAFFUR_RAND
100
AcDbVertex
100
AcDb2dVertex
 10
482.4504539999999
 20
615.511484
 30
0.0
  0
VERTEX
  5
1314
330
1306
100
AcDbEntity
  8
SCHRAFFUR_RAND
100
AcDbVertex
100
AcDb2dVertex
 10
479.2984539999999
 20
606.8544839999999
 30
0.0
  0
VERTEX
  5
1315
330
1306
100
AcDbEntity
  8
SCHRAFFUR_RAND
100
AcDbVertex
100
AcDb2dVertex
 10
478.821454
 20
579.511484
 30
0.0
  0
VERTEX
  5
1316
330
1306
100
AcDbEntity
  8
SCHRAFFUR_RAND
100
AcDbVertex
100
AcDb2dVertex
 10
478.777454
 20
577.0114839999999
 30
0.0
  0
VERTEX
  5
1317
330
1306
100
AcDbEntity
  8
SCHRAFFUR_RAND
100
AcDbVertex
100
AcDb2dVertex
 10
478.7414539999999
 20
574.9164839999999
 30
0.0
  0
VERTEX
  5
1318
330
1306
100
AcDbEntity
  8
SCHRAFFUR_RAND
100
AcDbVertex
100
AcDb2dVertex
 10
478.371454
 20
572.8074839999999
 30
0.0
  0
VERTEX
  5
1319
330
1306
100
AcDbEntity
  8
SCHRAFFUR_RAND
100
AcDbVertex
100
AcDb2dVertex
 10
477.155454
 20
571.029484
 30
0.0
  0
VERTEX
  5
131A
330
1306
100
AcDbEntity
  8
SCHRAFFUR_RAND
100
AcDbVertex
100
AcDb2dVertex
 10
475.356454
 20
569.8444839999999
 30
0.0
  0
VERTEX
  5
131B
330
1306
100
AcDbEntity
  8
SCHRAFFUR_RAND
100
AcDbVertex
100
AcDb2dVertex
 10
473.242454
 20
569.511484
 30
0.0
  0
VERTEX
  5
131C
330
1306
100
AcDbEntity
  8
SCHRAFFUR_RAND
100
AcDbVertex
100
AcDb2dVertex
 10
467.449454
 20
569.511484
 30
0.0
  0
VERTEX
  5
131D
330
1306
100
AcDbEntity
  8
SCHRAFFUR_RAND
100
AcDbVertex
100
AcDb2dVertex
 10
465.6304539999999
 20
465.2814839999999
 30
0.0
  0
VERTEX
  5
131E
330
1306
100
AcDbEntity
  8
SCHRAFFUR_RAND
100
AcDbVertex
100
AcDb2dVertex
 10
464.9504539999999
 20
460.282484
 30
0.0
  0
VERTEX
  5
131F
330
1306
100
AcDbEntity
  8
SCHRAFFUR_RAND
100
AcDbVertex
100
AcDb2dVertex
 10
464.9504539999999
 20
440.511484
 30
0.0
  0
SEQEND
  5
1320
330
1306
100
AcDbEntity
  8
SCHRAFFUR_RAND
  0
POLYLINE
  5
14A8
330
16C3
100
AcDbEntity
  8
SCHRAFFUR_RAND
100
AcDb2dPolyline
 66
     1
 10
0.0
 20
0.0
 30
0.0
 70
     1
  0
VERTEX
  5
14A9
330
14A8
100
AcDbEntity
  8
SCHRAFFUR_RAND
100
AcDbVertex
100
AcDb2dVertex
 10
301.450454
 20
615.511484
 30
0.0
  0
VERTEX
  5
14AA
330
14A8
100
AcDbEntity
  8
SCHRAFFUR_RAND
100
AcDbVertex
100
AcDb2dVertex
 10
293.450454
 20
615.511484
 30
0.0
  0
VERTEX
  5
14AB
330
14A8
100
AcDbEntity
  8
SCHRAFFUR_RAND
100
AcDbVertex
100
AcDb2dVertex
 10
291.356454
 20
575.5664839999999
 30
0.0
  0
VERTEX
  5
14AC
330
14A8
100
AcDbEntity
  8
SCHRAFFUR_RAND
100
AcDbVertex
100
AcDb2dVertex
 10
284.227454
 20
575.5664839999999
 30
0.0
  0
VERTEX
  5
14AD
330
14A8
100
AcDbEntity
  8
SCHRAFFUR_RAND
100
AcDbVertex
100
AcDb2dVertex
 10
281.977454
 20
565.511484
 30
0.0
  0
VERTEX
  5
14AE
330
14A8
100
AcDbEntity
  8
SCHRAFFUR_RAND
100
AcDbVertex
100
AcDb2dVertex
 10
297.132454
 20
565.511484
 30
0.0
  0
VERTEX
  5
14AF
330
14A8
100
AcDbEntity
  8
SCHRAFFUR_RAND
100
AcDbVertex
100
AcDb2dVertex
 10
300.148454
 20
565.132484
 30
0.0
  0
VERTEX
  5
14B0
330
14A8
100
AcDbEntity
  8
SCHRAFFUR_RAND
100
AcDbVertex
100
AcDb2dVertex
 10
302.887454
 20
563.790484
 30
0.0
  0
VERTEX
  5
14B1
330
14A8
100
AcDbEntity
  8
SCHRAFFUR_RAND
100
AcDbVertex
100
AcDb2dVertex
 10
305.099454
 20
561.6914839999999
 30
0.0
  0
VERTEX
  5
14B2
330
14A8
100
AcDbEntity
  8
SCHRAFFUR_RAND
100
AcDbVertex
100
AcDb2dVertex
 10
306.583454
 20
559.0264839999999
 30
0.0
  0
VERTEX
  5
14B3
330
14A8
100
AcDbEntity
  8
SCHRAFFUR_RAND
100
AcDbVertex
100
AcDb2dVertex
 10
307.118454
 20
556.035484
 30
0.0
  0
VERTEX
  5
14B4
330
14A8
100
AcDbEntity
  8
SCHRAFFUR_RAND
100
AcDbVertex
100
AcDb2dVertex
 10
313.173454
 20
440.511484
 30
0.0
  0
VERTEX
  5
14B5
330
14A8
100
AcDbEntity
  8
SCHRAFFUR_RAND
100
AcDbVertex
100
AcDb2dVertex
 10
318.949454
 20
440.511484
 30
0.0
  0
VERTEX
  5
14B6
330
14A8
100
AcDbEntity
  8
SCHRAFFUR_RAND
100
AcDbVertex
100
AcDb2dVertex
 10
318.949454
 20
460.282484
 30
0.0
  0
VERTEX
  5
14B7
330
14A8
100
AcDbEntity
  8
SCHRAFFUR_RAND
100
AcDbVertex
100
AcDb2dVertex
 10
318.269454
 20
465.282484
 30
0.0
  0
VERTEX
  5
14B8
330
14A8
100
AcDbEntity
  8
SCHRAFFUR_RAND
100
AcDbVertex
100
AcDb2dVertex
 10
316.450454
 20
569.511484
 30
0.0
  0
VERTEX
  5
14B9
330
14A8
100
AcDbEntity
  8
SCHRAFFUR_RAND
100
AcDbVertex
100
AcDb2dVertex
 10
310.657454
 20
569.511484
 30
0.0
  0
VERTEX
  5
14BA
330
14A8
100
AcDbEntity
  8
SCHRAFFUR_RAND
100
AcDbVertex
100
AcDb2dVertex
 10
308.543454
 20
569.8444839999999
 30
0.0
  0
VERTEX
  5
14BB
330
14A8
100
AcDbEntity
  8
SCHRAFFUR_RAND
100
AcDbVertex
100
AcDb2dVertex
 10
306.744454
 20
571.029484
 30
0.0
  0
VERTEX
  5
14BC
330
14A8
100
AcDbEntity
  8
SCHRAFFUR_RAND
100
AcDbVertex
100
AcDb2dVertex
 10
305.528454
 20
572.8074839999999
 30
0.0
  0
VERTEX
  5
14BD
330
14A8
100
AcDbEntity
  8
SCHRAFFUR_RAND
100
AcDbVertex
100
AcDb2dVertex
 10
305.158454
 20
574.9164839999999
 30
0.0
  0
VERTEX
  5
14BE
330
14A8
100
AcDbEntity
  8
SCHRAFFUR_RAND
100
AcDbVertex
100
AcDb2dVertex
 10
305.122454
 20
577.0114839999999
 30
0.0
  0
VERTEX
  5
14BF
330
14A8
100
AcDbEntity
  8
SCHRAFFUR_RAND
100
AcDbVertex
100
AcDb2dVertex
 10
305.078454
 20
579.511484
 30
0.0
  0
VERTEX
  5
14C0
330
14A8
100
AcDbEntity
  8
SCHRAFFUR_RAND
100
AcDbVertex
100
AcDb2dVertex
 10
304.601454
 20
606.8544839999999
 30
0.0
  0
VERTEX
  5
14C1
330
14A8
100
AcDbEntity
  8
SCHRAFFUR_RAND
100
AcDbVertex
100
AcDb2dVertex
 10
301.450454
 20
615.511484
 30
0.0
  0
SEQEND
  5
14C2
330
14A8
100
AcDbEntity
  8
SCHRAFFUR_RAND
  0
DIMENSION
  5
1652
330
16C3
100
AcDbEntity
  8
5
100
AcDbDimension
  2
*D0
 10
211.949454
 20
615.511484
 30
0.0
 11
200.199454
 21
590.511484
 31
0.0
 70
    32
  1
50
 71
     5
 42
-1.0
  3
GEN-ISO
100
AcDbAlignedDimension
 13
261.949454
 23
565.511484
 33
0.0
 14
242.619454
 24
615.511484
 34
0.0
 50
90.0
100
AcDbRotatedDimension
  0
DIMENSION
  5
165C
330
16C3
100
AcDbEntity
  8
5
100
AcDbDimension
  2
*D2
 10
176.949454
 20
440.511484
 30
0.0
 11
165.199454
 21
528.011484
 31
0.0
 70
    32
  1
175
 71
     5
 42
-1.0
  3
GEN-ISO
100
AcDbAlignedDimension
 13
293.450454
 23
615.511484
 33
0.0
 14
313.173454
 24
440.511484
 34
0.0
 50
270.0
100
AcDbRotatedDimension
  0
INSERT
  5
176E
330
16C3
100
AcDbEntity
  8
0
100
AcDbBlockReference
  2
KATALOG_LEER
 10
251.839706
 20
11.304483
 30
0.0
 41
5.0
 42
5.0
 43
5.0
1001
GENIUS_GENOREF_13
1005
176F
  0
POINT
  5
176F
330
16C3
100
AcDbEntity
  8
0
 60
     1
100
AcDbPoint
 10
0.0
 20
0.0
 30
0.0
1001
GENIUS_GENOBJ-N-TIT_13
1002
{
1000
OWNER
1000
GEN
1002
}
1001
GENIUS_GENOENT_13
1002
{
1000
MYREF
1005
176F
1002
}
1002
{
1000
GRP
1005
0
1002
}
1001
GENIUS_GENOLIS_13
1002
{
1000
ENT
1005
176E
1002
}
1001
GENIUS_GENTITLE_13
1002
{
1000
SCALE
1000
1:5
1002
}
1002
{
1000
BORDER
1000
KATALOG
1002
}
1002
{
1000
TITLE
1000
KATALOG_LEER
1002
}
1002
{
1000
UNCHG
1002
{
1000
GEN-TITLE-SCA
1000
GEN-TITLE-SIZ
1002
}
1002
}
1002
{
1000
HRA
1005
1767
1002
}
1002
{
1000
HTIT
1005
176E
1002
}
1002
{
1000
GENIUSID
1005
176F
1002
}
1001
GENIUS_GENODEF_13
1002
{
1000
HIER
1070
     1
1002
}
1002
{
1000
MANEDIT
1070
     1
1002
}
1002
{
1000
NOSEL
1070
     0
1002
}
1002
{
1000
BEHIND
1070
     0
1002
}
1002
{
1000
REACTOR
1002
}
  0
POINT
  5
1BA5
330
16C3
100
AcDbEntity
  8
PUNKTE
100
AcDbPoint
 10
277.476954
 20
215.910484
 30
0.0
  0
POINT
  5
1BA6
330
16C3
100
AcDbEntity
  8
PUNKTE
100
AcDbPoint
 10
277.476954
 20
206.910484
 30
0.0
  0
LINE
  5
1BA7
330
16C3
100
AcDbEntity
  8
0
100
AcDbLine
 10
293.450454
 20
615.512484
 30
0.0
 11
391.950454
 21
615.512484
 31
0.0
  0
CIRCLE
  5
1BB5
330
16C3
100
AcDbEntity
  8
0
100
AcDbCircle
 10
310.658454
 20
575.0124839999999
 30
0.0
 40
5.5
  0
LINE
  5
1BB6
330
16C3
100
AcDbEntity
  8
0
100
AcDbLine
 10
462.450454
 20
575.5124839999999
 30
0.0
 11
316.135454
 21
575.5124839999999
 31
0.0
  0
LINE
  5
1BB7
330
16C3
100
AcDbEntity
  8
0
100
AcDbLine
 10
328.821454
 20
607.5124839999999
 30
0.0
 11
391.950454
 21
607.5124839999999
 31
0.0
  0
LINE
  5
1BB8
330
16C3
100
AcDbEntity
  8
0
100
AcDbLine
 10
321.450454
 20
575.5124839999999
 30
0.0
 11
322.829454
 21
601.8264839999999
 31
0.0
  0
ARC
  5
1BB9
330
16C3
100
AcDbEntity
  8
0
100
AcDbCircle
 10
328.821454
 20
601.5124839999999
 30
0.0
 40
6.0
100
AcDbArc
 50
90.0
 51
177.0
  0
LINE
  5
1BBA
330
16C3
100
AcDbEntity
  8
0
100
AcDbLine
 10
306.451454
 20
615.512484
 30
0.0
 11
306.625454
 21
610.512484
 31
0.0
  0
LINE
  5
1BBB
330
16C3
100
AcDbEntity
  8
0
100
AcDbLine
 10
308.680454
 20
608.967484
 30
0.0
 11
309.677454
 21
580.423484
 31
0.0
  0
LINE
  5
1BBC
330
16C3
100
AcDbEntity
  8
0
100
AcDbLine
 10
306.625454
 20
610.512484
 30
0.0
 11
307.081454
 21
610.512484
 31
0.0
  0
ARC
  5
1BBD
330
16C3
100
AcDbEntity
  8
0
100
AcDbCircle
 10
307.081454
 20
608.9124839999999
 30
0.0
 40
1.6
100
AcDbArc
 50
2.0
 51
90.0
  0
LINE
  5
1BBE
330
16C3
100
AcDbEntity
  8
0
100
AcDbLine
 10
490.4504539999999
 20
615.512484
 30
0.0
 11
391.950454
 21
615.512484
 31
0.0
  0
CIRCLE
  5
1BCB
330
16C3
100
AcDbEntity
  8
0
100
AcDbCircle
 10
473.242454
 20
575.0124839999999
 30
0.0
 40
5.5
  0
LINE
  5
1BCC
330
16C3
100
AcDbEntity
  8
0
100
AcDbLine
 10
455.079454
 20
607.5124839999999
 30
0.0
 11
391.950454
 21
607.5124839999999
 31
0.0
  0
LINE
  5
1BCD
330
16C3
100
AcDbEntity
  8
0
100
AcDbLine
 10
462.450454
 20
575.5124839999999
 30
0.0
 11
461.071454
 21
601.8264839999999
 31
0.0
  0
ARC
  5
1BCE
330
16C3
100
AcDbEntity
  8
0
100
AcDbCircle
 10
455.079454
 20
601.5124839999999
 30
0.0
 40
6.0
100
AcDbArc
 50
3.0
 51
90.0
  0
LINE
  5
1BCF
330
16C3
100
AcDbEntity
  8
0
100
AcDbLine
 10
477.4504539999999
 20
615.512484
 30
0.0
 11
477.275454
 21
610.512484
 31
0.0
  0
LINE
  5
1BD0
330
16C3
100
AcDbEntity
  8
0
100
AcDbLine
 10
475.220454
 20
608.967484
 30
0.0
 11
474.2244539999999
 21
580.423484
 31
0.0
  0
LINE
  5
1BD1
330
16C3
100
AcDbEntity
  8
0
100
AcDbLine
 10
477.275454
 20
610.512484
 30
0.0
 11
476.819454
 21
610.512484
 31
0.0
  0
ARC
  5
1BD2
330
16C3
100
AcDbEntity
  8
0
100
AcDbCircle
 10
476.819454
 20
608.9124839999999
 30
0.0
 40
1.6
100
AcDbArc
 50
90.0
 51
178.0
  0
LINE
  5
1BE8
330
16C3
100
AcDbEntity
  8
0
100
AcDbLine
 10
261.949954
 20
183.893484
 30
0.0
 11
261.949954
 21
238.926484
 31
0.0
  0
LINE
  5
1BE9
330
16C3
100
AcDbEntity
  8
0
100
AcDbLine
 10
293.449954
 20
114.910484
 30
0.0
 11
293.449954
 21
307.910484
 31
0.0
  0
LINE
  5
1BEA
330
16C3
100
AcDbEntity
  8
0
100
AcDbLine
 10
306.449954
 20
125.910484
 30
0.0
 11
306.449954
 21
296.910484
 31
0.0
  0
LINE
  5
1BEB
330
16C3
100
AcDbEntity
  8
0
100
AcDbLine
 10
291.3569540000001
 20
112.910484
 30
0.0
 11
291.3569540000001
 21
309.910484
 31
0.0
  0
LINE
  5
1BEC
330
16C3
100
AcDbEntity
  8
0
100
AcDbLine
 10
306.449954
 20
125.910484
 30
0.0
 11
477.4499539999999
 21
125.910484
 31
0.0
  0
LINE
  5
1BED
330
16C3
100
AcDbEntity
  8
0
100
AcDbLine
 10
492.543954
 20
112.910484
 30
0.0
 11
291.3569540000001
 21
112.910484
 31
0.0
  0
LINE
  5
1BEE
330
16C3
100
AcDbEntity
  8
0
100
AcDbLine
 10
490.4499539999999
 20
114.910484
 30
0.0
 11
293.449954
 21
114.910484
 31
0.0
  0
LINE
  5
1BF0
330
16C3
100
AcDbEntity
  8
0
100
AcDbLine
 10
263.949954
 20
183.893484
 30
0.0
 11
263.949954
 21
238.926484
 31
0.0
  0
LINE
  5
1BF1
330
16C3
100
AcDbEntity
  8
0
100
AcDbLine
 10
291.355954
 20
251.410484
 30
0.0
 11
266.396954
 21
244.722484
 31
0.0
  0
LINE
  5
1BF2
330
16C3
100
AcDbEntity
  8
0
100
AcDbLine
 10
291.3569540000001
 20
171.410484
 30
0.0
 11
266.396954
 21
178.098484
 31
0.0
  0
LINE
  5
1BF3
330
16C3
100
AcDbEntity
  8
0
100
AcDbLine
 10
291.355954
 20
249.339484
 30
0.0
 11
266.913954
 21
242.790484
 31
0.0
  0
LINE
  5
1BF4
330
16C3
100
AcDbEntity
  8
0
100
AcDbLine
 10
291.3569540000001
 20
173.480484
 30
0.0
 11
266.914954
 21
180.029484
 31
0.0
  0
ARC
  5
1BF5
330
16C3
100
AcDbEntity
  8
0
100
AcDbCircle
 10
267.949954
 20
238.926484
 30
0.0
 40
6.0
100
AcDbArc
 50
105.0
 51
180.0
  0
ARC
  5
1BF6
330
16C3
100
AcDbEntity
  8
0
100
AcDbCircle
 10
267.949954
 20
183.893484
 30
0.0
 40
6.0
100
AcDbArc
 50
180.0
 51
255.0
  0
ARC
  5
1BF7
330
16C3
100
AcDbEntity
  8
0
100
AcDbCircle
 10
267.949954
 20
238.926484
 30
0.0
 40
4.0
100
AcDbArc
 50
105.0
 51
180.0
  0
ARC
  5
1BF8
330
16C3
100
AcDbEntity
  8
0
100
AcDbCircle
 10
267.949954
 20
183.893484
 30
0.0
 40
4.0
100
AcDbArc
 50
180.0
 51
255.0
  0
LINE
  5
1BF9
330
16C3
100
AcDbEntity
  8
0
100
AcDbLine
 10
304.449954
 20
298.910484
 30
0.0
 11
479.449954
 21
298.910484
 31
0.0
  0
LINE
  5
1BFA
330
16C3
100
AcDbEntity
  8
0
100
AcDbLine
 10
304.449954
 20
123.910484
 30
0.0
 11
304.449954
 21
197.910484
 31
0.0
  0
LINE
  5
1BFB
330
16C3
100
AcDbEntity
  8
0
100
AcDbLine
 10
304.449954
 20
123.910484
 30
0.0
 11
479.449954
 21
123.910484
 31
0.0
  0
CIRCLE
  5
1BFC
330
16C3
100
AcDbEntity
  8
0
100
AcDbCircle
 10
277.476954
 20
211.410484
 30
0.0
 40
6.75
  0
LINE
  5
1BFD
330
16C3
100
AcDbEntity
  8
0
100
AcDbLine
 10
318.274954
 20
140.482484
 30
0.0
 11
324.774954
 21
136.730484
 31
0.0
  0
LINE
  5
1BFE
330
16C3
100
AcDbEntity
  8
0
100
AcDbLine
 10
324.776954
 20
136.730484
 30
0.0
 11
331.274954
 21
140.482484
 31
0.0
  0
LINE
  5
1BFF
330
16C3
100
AcDbEntity
  8
0
100
AcDbLine
 10
331.274954
 20
140.483484
 30
0.0
 11
331.274954
 21
147.986484
 31
0.0
  0
LINE
  5
1C00
330
16C3
100
AcDbEntity
  8
0
100
AcDbLine
 10
331.274954
 20
147.987484
 30
0.0
 11
324.773954
 21
151.741484
 31
0.0
  0
LINE
  5
1C01
330
16C3
100
AcDbEntity
  8
0
100
AcDbLine
 10
318.274954
 20
147.989484
 30
0.0
 11
318.274954
 21
140.482484
 31
0.0
  0
LINE
  5
1C02
330
16C3
100
AcDbEntity
  8
0
100
AcDbLine
 10
324.772954
 20
151.741484
 30
0.0
 11
318.275954
 21
147.991484
 31
0.0
  0
LINE
  5
1C03
330
16C3
100
AcDbEntity
  8
0
100
AcDbLine
 10
452.6259539999999
 20
274.831484
 30
0.0
 11
459.1249539999999
 21
271.079484
 31
0.0
  0
LINE
  5
1C04
330
16C3
100
AcDbEntity
  8
0
100
AcDbLine
 10
459.125954
 20
271.079484
 30
0.0
 11
465.6259539999999
 21
274.831484
 31
0.0
  0
LINE
  5
1C05
330
16C3
100
AcDbEntity
  8
0
100
AcDbLine
 10
465.6259539999999
 20
274.8324839999999
 30
0.0
 11
465.6259539999999
 21
282.338484
 31
0.0
  0
LINE
  5
1C06
330
16C3
100
AcDbEntity
  8
0
100
AcDbLine
 10
465.624954
 20
282.339484
 30
0.0
 11
459.125954
 21
286.091484
 31
0.0
  0
LINE
  5
1C07
330
16C3
100
AcDbEntity
  8
0
100
AcDbLine
 10
452.624954
 20
282.338484
 30
0.0
 11
452.624954
 21
274.8324839999999
 31
0.0
  0
LINE
  5
1C08
330
16C3
100
AcDbEntity
  8
0
100
AcDbLine
 10
459.1249539999999
 20
286.091484
 30
0.0
 11
452.6259539999999
 21
282.339484
 31
0.0
  0
LINE
  5
1C09
330
16C3
100
AcDbEntity
  8
0
100
AcDbLine
 10
521.949954
 20
183.893484
 30
0.0
 11
521.949954
 21
238.926484
 31
0.0
  0
LINE
  5
1C0A
330
16C3
100
AcDbEntity
  8
0
100
AcDbLine
 10
490.4499539999999
 20
114.910484
 30
0.0
 11
490.4499539999999
 21
307.910484
 31
0.0
  0
LINE
  5
1C0B
330
16C3
100
AcDbEntity
  8
0
100
AcDbLine
 10
477.4499539999999
 20
125.910484
 30
0.0
 11
477.4499539999999
 21
296.910484
 31
0.0
  0
LINE
  5
1C0C
330
16C3
100
AcDbEntity
  8
0
100
AcDbLine
 10
492.543954
 20
112.910484
 30
0.0
 11
492.543954
 21
309.910484
 31
0.0
  0
LINE
  5
1C0D
330
16C3
100
AcDbEntity
  8
0
100
AcDbLine
 10
477.4499539999999
 20
296.910484
 30
0.0
 11
306.449954
 21
296.910484
 31
0.0
  0
LINE
  5
1C0E
330
16C3
100
AcDbEntity
  8
0
100
AcDbLine
 10
293.449954
 20
307.910484
 30
0.0
 11
490.4499539999999
 21
307.910484
 31
0.0
  0
LINE
  5
1C0F
330
16C3
100
AcDbEntity
  8
0
100
AcDbLine
 10
291.3569540000001
 20
309.910484
 30
0.0
 11
492.543954
 21
309.910484
 31
0.0
  0
LINE
  5
1C10
330
16C3
100
AcDbEntity
  8
0
100
AcDbLine
 10
519.949954
 20
183.893484
 30
0.0
 11
519.949954
 21
238.926484
 31
0.0
  0
LINE
  5
1C11
330
16C3
100
AcDbEntity
  8
0
100
AcDbLine
 10
492.542954
 20
251.410484
 30
0.0
 11
517.502954
 21
244.722484
 31
0.0
  0
LINE
  5
1C12
330
16C3
100
AcDbEntity
  8
0
100
AcDbLine
 10
492.543954
 20
171.410484
 30
0.0
 11
517.502954
 21
178.098484
 31
0.0
  0
LINE
  5
1C13
330
16C3
100
AcDbEntity
  8
0
100
AcDbLine
 10
492.542954
 20
249.339484
 30
0.0
 11
516.984954
 21
242.790484
 31
0.0
  0
LINE
  5
1C14
330
16C3
100
AcDbEntity
  8
0
100
AcDbLine
 10
492.543954
 20
173.480484
 30
0.0
 11
516.984954
 21
180.030484
 31
0.0
  0
ARC
  5
1C15
330
16C3
100
AcDbEntity
  8
0
100
AcDbCircle
 10
515.949954
 20
238.926484
 30
0.0
 40
6.0
100
AcDbArc
 50
0.0
 51
75.0
  0
ARC
  5
1C16
330
16C3
100
AcDbEntity
  8
0
100
AcDbCircle
 10
515.949954
 20
183.893484
 30
0.0
 40
6.0
100
AcDbArc
 50
285.0
 51
0.0
  0
ARC
  5
1C17
330
16C3
100
AcDbEntity
  8
0
100
AcDbCircle
 10
515.949954
 20
238.926484
 30
0.0
 40
4.0
100
AcDbArc
 50
0.0
 51
75.0
  0
ARC
  5
1C18
330
16C3
100
AcDbEntity
  8
0
100
AcDbCircle
 10
515.949954
 20
183.893484
 30
0.0
 40
4.0
100
AcDbArc
 50
285.0
 51
0.0
  0
LINE
  5
1C19
330
16C3
100
AcDbEntity
  8
0
100
AcDbLine
 10
479.449954
 20
123.910484
 30
0.0
 11
479.449954
 21
197.910484
 31
0.0
  0
CIRCLE
  5
1C1A
330
16C3
100
AcDbEntity
  8
0
100
AcDbCircle
 10
506.422954
 20
211.410484
 30
0.0
 40
6.75
  0
CIRCLE
  5
1C1B
330
16C3
100
AcDbEntity
  8
0
100
AcDbCircle
 10
324.774954
 20
144.235484
 30
0.0
 40
11.0
  0
CIRCLE
  5
1C1C
330
16C3
100
AcDbEntity
  8
0
100
AcDbCircle
 10
459.1249539999999
 20
278.585484
 30
0.0
 40
11.0
  0
LINE
  5
1C1D
330
16C3
100
AcDbEntity
  8
0
100
AcDbLine
 10
299.449954
 20
197.910484
 30
0.0
 11
304.449954
 21
197.910484
 31
0.0
  0
LINE
  5
1C1E
330
16C3
100
AcDbEntity
  8
0
100
AcDbLine
 10
299.449954
 20
227.910484
 30
0.0
 11
304.449954
 21
227.910484
 31
0.0
  0
LINE
  5
1C1F
330
16C3
100
AcDbEntity
  8
0
100
AcDbLine
 10
299.449954
 20
197.910484
 30
0.0
 11
299.449954
 21
227.910484
 31
0.0
  0
LINE
  5
1C20
330
16C3
100
AcDbEntity
  8
0
100
AcDbLine
 10
484.449954
 20
197.910484
 30
0.0
 11
479.449954
 21
197.910484
 31
0.0
  0
LINE
  5
1C21
330
16C3
100
AcDbEntity
  8
0
100
AcDbLine
 10
484.449954
 20
227.910484
 30
0.0
 11
479.449954
 21
227.910484
 31
0.0
  0
LINE
  5
1C22
330
16C3
100
AcDbEntity
  8
0
100
AcDbLine
 10
484.449954
 20
197.910484
 30
0.0
 11
484.449954
 21
227.910484
 31
0.0
  0
LINE
  5
1C23
330
16C3
100
AcDbEntity
  8
0
100
AcDbLine
 10
304.449954
 20
227.910484
 30
0.0
 11
304.449954
 21
298.910484
 31
0.0
  0
LINE
  5
1C24
330
16C3
100
AcDbEntity
  8
0
100
AcDbLine
 10
479.449954
 20
227.910484
 30
0.0
 11
479.449954
 21
298.910484
 31
0.0
  0
CIRCLE
  5
1C27
330
16C3
100
AcDbEntity
  8
0
100
AcDbCircle
 10
506.422954
 20
211.410484
 30
0.0
 40
4.5
  0
CIRCLE
  5
1C28
330
16C3
100
AcDbEntity
  8
0
100
AcDbCircle
 10
277.476954
 20
211.410484
 30
0.0
 40
4.5
  0
POLYLINE
  5
1C2A
330
16C3
100
AcDbEntity
  8
SCHRAFFUR_RAND
100
AcDb2dPolyline
 66
     1
 10
0.0
 20
0.0
 30
0.0
 70
     1
  0
VERTEX
  5
1C2B
330
1C2A
100
AcDbEntity
  8
SCHRAFFUR_RAND
100
AcDbVertex
100
AcDb2dVertex
 10
307.702454
 20
579.6504839999999
 30
0.0
  0
VERTEX
  5
1C2C
330
1C2A
100
AcDbEntity
  8
SCHRAFFUR_RAND
100
AcDbVertex
100
AcDb2dVertex
 10
307.470454
 20
579.5284839999999
 30
0.0
  0
VERTEX
  5
1C2D
330
1C2A
100
AcDbEntity
  8
SCHRAFFUR_RAND
100
AcDbVertex
100
AcDb2dVertex
 10
306.369454
 20
578.500484
 30
0.0
  0
VERTEX
  5
1C2E
330
1C2A
100
AcDbEntity
  8
SCHRAFFUR_RAND
100
AcDbVertex
100
AcDb2dVertex
 10
305.588454
 20
577.214484
 30
0.0
  0
VERTEX
  5
1C2F
330
1C2A
100
AcDbEntity
  8
SCHRAFFUR_RAND
100
AcDbVertex
100
AcDb2dVertex
 10
305.181454
 20
575.764484
 30
0.0
  0
VERTEX
  5
1C30
330
1C2A
100
AcDbEntity
  8
SCHRAFFUR_RAND
100
AcDbVertex
100
AcDb2dVertex
 10
305.158454
 20
574.9164839999999
 30
0.0
  0
VERTEX
  5
1C31
330
1C2A
100
AcDbEntity
  8
SCHRAFFUR_RAND
100
AcDbVertex
100
AcDb2dVertex
 10
305.339454
 20
573.5044839999999
 30
0.0
  0
VERTEX
  5
1C32
330
1C2A
100
AcDbEntity
  8
SCHRAFFUR_RAND
100
AcDbVertex
100
AcDb2dVertex
 10
305.588454
 20
572.8104839999999
 30
0.0
  0
VERTEX
  5
1C33
330
1C2A
100
AcDbEntity
  8
SCHRAFFUR_RAND
100
AcDbVertex
100
AcDb2dVertex
 10
305.903454
 20
572.192484
 30
0.0
  0
VERTEX
  5
1C34
330
1C2A
100
AcDbEntity
  8
SCHRAFFUR_RAND
100
AcDbVertex
100
AcDb2dVertex
 10
306.369454
 20
571.5234839999999
 30
0.0
  0
VERTEX
  5
1C35
330
1C2A
100
AcDbEntity
  8
SCHRAFFUR_RAND
100
AcDbVertex
100
AcDb2dVertex
 10
306.783454
 20
571.069484
 30
0.0
  0
VERTEX
  5
1C36
330
1C2A
100
AcDbEntity
  8
SCHRAFFUR_RAND
100
AcDbVertex
100
AcDb2dVertex
 10
307.470454
 20
570.496484
 30
0.0
  0
VERTEX
  5
1C37
330
1C2A
100
AcDbEntity
  8
SCHRAFFUR_RAND
100
AcDbVertex
100
AcDb2dVertex
 10
307.922454
 20
570.208484
 30
0.0
  0
VERTEX
  5
1C38
330
1C2A
100
AcDbEntity
  8
SCHRAFFUR_RAND
100
AcDbVertex
100
AcDb2dVertex
 10
308.807454
 20
569.803484
 30
0.0
  0
VERTEX
  5
1C39
330
1C2A
100
AcDbEntity
  8
SCHRAFFUR_RAND
100
AcDbVertex
100
AcDb2dVertex
 10
309.242454
 20
569.668484
 30
0.0
  0
VERTEX
  5
1C3A
330
1C2A
100
AcDbEntity
  8
SCHRAFFUR_RAND
100
AcDbVertex
100
AcDb2dVertex
 10
310.658454
 20
569.512484
 30
0.0
  0
VERTEX
  5
1C3B
330
1C2A
100
AcDbEntity
  8
SCHRAFFUR_RAND
100
AcDbVertex
100
AcDb2dVertex
 10
311.783454
 20
569.599484
 30
0.0
  0
VERTEX
  5
1C3C
330
1C2A
100
AcDbEntity
  8
SCHRAFFUR_RAND
100
AcDbVertex
100
AcDb2dVertex
 10
313.201454
 20
570.103484
 30
0.0
  0
VERTEX
  5
1C3D
330
1C2A
100
AcDbEntity
  8
SCHRAFFUR_RAND
100
AcDbVertex
100
AcDb2dVertex
 10
314.431454
 20
570.9724839999999
 30
0.0
  0
VERTEX
  5
1C3E
330
1C2A
100
AcDbEntity
  8
SCHRAFFUR_RAND
100
AcDbVertex
100
AcDb2dVertex
 10
315.381454
 20
572.139484
 30
0.0
  0
VERTEX
  5
1C3F
330
1C2A
100
AcDbEntity
  8
SCHRAFFUR_RAND
100
AcDbVertex
100
AcDb2dVertex
 10
315.981454
 20
573.521484
 30
0.0
  0
VERTEX
  5
1C40
330
1C2A
100
AcDbEntity
  8
SCHRAFFUR_RAND
100
AcDbVertex
100
AcDb2dVertex
 10
316.158454
 20
575.0124839999999
 30
0.0
  0
VERTEX
  5
1C41
330
1C2A
100
AcDbEntity
  8
SCHRAFFUR_RAND
100
AcDbVertex
100
AcDb2dVertex
 10
316.135454
 20
575.5124839999999
 30
0.0
  0
VERTEX
  5
1C42
330
1C2A
100
AcDbEntity
  8
SCHRAFFUR_RAND
100
AcDbVertex
100
AcDb2dVertex
 10
315.981454
 20
576.5034839999999
 30
0.0
  0
VERTEX
  5
1C43
330
1C2A
100
AcDbEntity
  8
SCHRAFFUR_RAND
100
AcDbVertex
100
AcDb2dVertex
 10
315.381454
 20
577.8844839999999
 30
0.0
  0
VERTEX
  5
1C44
330
1C2A
100
AcDbEntity
  8
SCHRAFFUR_RAND
100
AcDbVertex
100
AcDb2dVertex
 10
314.431454
 20
579.0524839999999
 30
0.0
  0
VERTEX
  5
1C45
330
1C2A
100
AcDbEntity
  8
SCHRAFFUR_RAND
100
AcDbVertex
100
AcDb2dVertex
 10
313.201454
 20
579.9204839999999
 30
0.0
  0
VERTEX
  5
1C46
330
1C2A
100
AcDbEntity
  8
SCHRAFFUR_RAND
100
AcDbVertex
100
AcDb2dVertex
 10
311.783454
 20
580.4244839999999
 30
0.0
  0
VERTEX
  5
1C47
330
1C2A
100
AcDbEntity
  8
SCHRAFFUR_RAND
100
AcDbVertex
100
AcDb2dVertex
 10
310.281454
 20
580.527484
 30
0.0
  0
VERTEX
  5
1C48
330
1C2A
100
AcDbEntity
  8
SCHRAFFUR_RAND
100
AcDbVertex
100
AcDb2dVertex
 10
309.677454
 20
580.4244839999999
 30
0.0
  0
VERTEX
  5
1C49
330
1C2A
100
AcDbEntity
  8
SCHRAFFUR_RAND
100
AcDbVertex
100
AcDb2dVertex
 10
308.807454
 20
580.221484
 30
0.0
  0
VERTEX
  5
1C4A
330
1C2A
100
AcDbEntity
  8
SCHRAFFUR_RAND
100
AcDbVertex
100
AcDb2dVertex
 10
307.702454
 20
579.6504839999999
 30
0.0
  0
SEQEND
  5
1C4B
330
1C2A
100
AcDbEntity
  8
SCHRAFFUR_RAND
  0
INSERT
  5
1C4C
330
16C3
100
AcDbEntity
  8
8
100
AcDbBlockReference
  2
*X3
 10
127.129454
 20
55.731484
 30
0.0
1001
ACAD
1000
HATCH
1002
{
1070
    19
1000
ANSI31,_I
1040
3.174999999999999
1040
5.497999999999999
1002
}
  0
POLYLINE
  5
1C4D
330
16C3
100
AcDbEntity
  8
SCHRAFFUR_RAND
100
AcDb2dPolyline
 66
     1
 10
0.0
 20
0.0
 30
0.0
 70
     1
  0
VERTEX
  5
1C4E
330
1C4D
100
AcDbEntity
  8
SCHRAFFUR_RAND
100
AcDbVertex
100
AcDb2dVertex
 10
307.702454
 20
579.6504839999999
 30
0.0
  0
VERTEX
  5
1C4F
330
1C4D
100
AcDbEntity
  8
SCHRAFFUR_RAND
100
AcDbVertex
100
AcDb2dVertex
 10
307.470454
 20
579.5284839999999
 30
0.0
  0
VERTEX
  5
1C50
330
1C4D
100
AcDbEntity
  8
SCHRAFFUR_RAND
100
AcDbVertex
100
AcDb2dVertex
 10
306.369454
 20
578.500484
 30
0.0
  0
VERTEX
  5
1C51
330
1C4D
100
AcDbEntity
  8
SCHRAFFUR_RAND
100
AcDbVertex
100
AcDb2dVertex
 10
305.588454
 20
577.214484
 30
0.0
  0
VERTEX
  5
1C52
330
1C4D
100
AcDbEntity
  8
SCHRAFFUR_RAND
100
AcDbVertex
100
AcDb2dVertex
 10
305.181454
 20
575.764484
 30
0.0
  0
VERTEX
  5
1C53
330
1C4D
100
AcDbEntity
  8
SCHRAFFUR_RAND
100
AcDbVertex
100
AcDb2dVertex
 10
305.158454
 20
574.9164839999999
 30
0.0
  0
VERTEX
  5
1C54
330
1C4D
100
AcDbEntity
  8
SCHRAFFUR_RAND
100
AcDbVertex
100
AcDb2dVertex
 10
305.339454
 20
573.5044839999999
 30
0.0
  0
VERTEX
  5
1C55
330
1C4D
100
AcDbEntity
  8
SCHRAFFUR_RAND
100
AcDbVertex
100
AcDb2dVertex
 10
305.588454
 20
572.8104839999999
 30
0.0
  0
VERTEX
  5
1C56
330
1C4D
100
AcDbEntity
  8
SCHRAFFUR_RAND
100
AcDbVertex
100
AcDb2dVertex
 10
305.903454
 20
572.192484
 30
0.0
  0
VERTEX
  5
1C57
330
1C4D
100
AcDbEntity
  8
SCHRAFFUR_RAND
100
AcDbVertex
100
AcDb2dVertex
 10
306.369454
 20
571.5234839999999
 30
0.0
  0
VERTEX
  5
1C58
330
1C4D
100
AcDbEntity
  8
SCHRAFFUR_RAND
100
AcDbVertex
100
AcDb2dVertex
 10
306.783454
 20
571.069484
 30
0.0
  0
VERTEX
  5
1C59
330
1C4D
100
AcDbEntity
  8
SCHRAFFUR_RAND
100
AcDbVertex
100
AcDb2dVertex
 10
307.470454
 20
570.496484
 30
0.0
  0
VERTEX
  5
1C5A
330
1C4D
100
AcDbEntity
  8
SCHRAFFUR_RAND
100
AcDbVertex
100
AcDb2dVertex
 10
307.922454
 20
570.208484
 30
0.0
  0
VERTEX
  5
1C5B
330
1C4D
100
AcDbEntity
  8
SCHRAFFUR_RAND
100
AcDbVertex
100
AcDb2dVertex
 10
308.807454
 20
569.803484
 30
0.0
  0
VERTEX
  5
1C5C
330
1C4D
100
AcDbEntity
  8
SCHRAFFUR_RAND
100
AcDbVertex
100
AcDb2dVertex
 10
309.242454
 20
569.668484
 30
0.0
  0
VERTEX
  5
1C5D
330
1C4D
100
AcDbEntity
  8
SCHRAFFUR_RAND
100
AcDbVertex
100
AcDb2dVertex
 10
310.658454
 20
569.512484
 30
0.0
  0
VERTEX
  5
1C5E
330
1C4D
100
AcDbEntity
  8
SCHRAFFUR_RAND
100
AcDbVertex
100
AcDb2dVertex
 10
311.783454
 20
569.599484
 30
0.0
  0
VERTEX
  5
1C5F
330
1C4D
100
AcDbEntity
  8
SCHRAFFUR_RAND
100
AcDbVertex
100
AcDb2dVertex
 10
313.201454
 20
570.103484
 30
0.0
  0
VERTEX
  5
1C60
330
1C4D
100
AcDbEntity
  8
SCHRAFFUR_RAND
100
AcDbVertex
100
AcDb2dVertex
 10
314.431454
 20
570.9724839999999
 30
0.0
  0
VERTEX
  5
1C61
330
1C4D
100
AcDbEntity
  8
SCHRAFFUR_RAND
100
AcDbVertex
100
AcDb2dVertex
 10
315.381454
 20
572.139484
 30
0.0
  0
VERTEX
  5
1C62
330
1C4D
100
AcDbEntity
  8
SCHRAFFUR_RAND
100
AcDbVertex
100
AcDb2dVertex
 10
315.981454
 20
573.521484
 30
0.0
  0
VERTEX
  5
1C63
330
1C4D
100
AcDbEntity
  8
SCHRAFFUR_RAND
100
AcDbVertex
100
AcDb2dVertex
 10
316.158454
 20
575.0124839999999
 30
0.0
  0
VERTEX
  5
1C64
330
1C4D
100
AcDbEntity
  8
SCHRAFFUR_RAND
100
AcDbVertex
100
AcDb2dVertex
 10
316.135454
 20
575.5124839999999
 30
0.0
  0
VERTEX
  5
1C65
330
1C4D
100
AcDbEntity
  8
SCHRAFFUR_RAND
100
AcDbVertex
100
AcDb2dVertex
 10
315.981454
 20
576.5034839999999
 30
0.0
  0
VERTEX
  5
1C66
330
1C4D
100
AcDbEntity
  8
SCHRAFFUR_RAND
100
AcDbVertex
100
AcDb2dVertex
 10
315.381454
 20
577.8844839999999
 30
0.0
  0
VERTEX
  5
1C67
330
1C4D
100
AcDbEntity
  8
SCHRAFFUR_RAND
100
AcDbVertex
100
AcDb2dVertex
 10
314.431454
 20
579.0524839999999
 30
0.0
  0
VERTEX
  5
1C68
330
1C4D
100
AcDbEntity
  8
SCHRAFFUR_RAND
100
AcDbVertex
100
AcDb2dVertex
 10
313.201454
 20
579.9204839999999
 30
0.0
  0
VERTEX
  5
1C69
330
1C4D
100
AcDbEntity
  8
SCHRAFFUR_RAND
100
AcDbVertex
100
AcDb2dVertex
 10
311.783454
 20
580.4244839999999
 30
0.0
  0
VERTEX
  5
1C6A
330
1C4D
100
AcDbEntity
  8
SCHRAFFUR_RAND
100
AcDbVertex
100
AcDb2dVertex
 10
310.281454
 20
580.527484
 30
0.0
  0
VERTEX
  5
1C6B
330
1C4D
100
AcDbEntity
  8
SCHRAFFUR_RAND
100
AcDbVertex
100
AcDb2dVertex
 10
309.677454
 20
580.4244839999999
 30
0.0
  0
VERTEX
  5
1C6C
330
1C4D
100
AcDbEntity
  8
SCHRAFFUR_RAND
100
AcDbVertex
100
AcDb2dVertex
 10
308.807454
 20
580.221484
 30
0.0
  0
VERTEX
  5
1C6D
330
1C4D
100
AcDbEntity
  8
SCHRAFFUR_RAND
100
AcDbVertex
100
AcDb2dVertex
 10
307.702454
 20
579.6504839999999
 30
0.0
  0
SEQEND
  5
1C6E
330
1C4D
100
AcDbEntity
  8
SCHRAFFUR_RAND
  0
INSERT
  5
1C6F
330
16C3
100
AcDbEntity
  8
8
100
AcDbBlockReference
  2
*X4
 10
127.129454
 20
55.731484
 30
0.0
1001
ACAD
1000
HATCH
1002
{
1070
    19
1000
ANSI31,_I
1040
3.174999999999999
1040
3.926999999999999
1002
}
  0
POLYLINE
  5
1C70
330
16C3
100
AcDbEntity
  8
SCHRAFFUR_RAND
100
AcDb2dPolyline
 66
     1
 10
0.0
 20
0.0
 30
0.0
 70
     1
  0
VERTEX
  5
1C71
330
1C70
100
AcDbEntity
  8
SCHRAFFUR_RAND
100
AcDbVertex
100
AcDb2dVertex
 10
477.4504539999999
 20
615.512484
 30
0.0
  0
VERTEX
  5
1C72
330
1C70
100
AcDbEntity
  8
SCHRAFFUR_RAND
100
AcDbVertex
100
AcDb2dVertex
 10
391.950454
 20
615.512484
 30
0.0
  0
VERTEX
  5
1C73
330
1C70
100
AcDbEntity
  8
SCHRAFFUR_RAND
100
AcDbVertex
100
AcDb2dVertex
 10
306.450454
 20
615.512484
 30
0.0
  0
VERTEX
  5
1C74
330
1C70
100
AcDbEntity
  8
SCHRAFFUR_RAND
100
AcDbVertex
100
AcDb2dVertex
 10
306.625454
 20
610.512484
 30
0.0
  0
VERTEX
  5
1C75
330
1C70
100
AcDbEntity
  8
SCHRAFFUR_RAND
100
AcDbVertex
100
AcDb2dVertex
 10
307.081454
 20
610.512484
 30
0.0
  0
VERTEX
  5
1C76
330
1C70
100
AcDbEntity
  8
SCHRAFFUR_RAND
100
AcDbVertex
100
AcDb2dVertex
 10
307.693454
 20
610.4274839999999
 30
0.0
  0
VERTEX
  5
1C77
330
1C70
100
AcDbEntity
  8
SCHRAFFUR_RAND
100
AcDbVertex
100
AcDb2dVertex
 10
308.216454
 20
610.0884839999999
 30
0.0
  0
VERTEX
  5
1C78
330
1C70
100
AcDbEntity
  8
SCHRAFFUR_RAND
100
AcDbVertex
100
AcDb2dVertex
 10
308.574454
 20
609.577484
 30
0.0
  0
VERTEX
  5
1C79
330
1C70
100
AcDbEntity
  8
SCHRAFFUR_RAND
100
AcDbVertex
100
AcDb2dVertex
 10
308.680454
 20
608.967484
 30
0.0
  0
VERTEX
  5
1C7A
330
1C70
100
AcDbEntity
  8
SCHRAFFUR_RAND
100
AcDbVertex
100
AcDb2dVertex
 10
309.677454
 20
580.4244839999999
 30
0.0
  0
VERTEX
  5
1C7B
330
1C70
100
AcDbEntity
  8
SCHRAFFUR_RAND
100
AcDbVertex
100
AcDb2dVertex
 10
311.072454
 20
580.531484
 30
0.0
  0
VERTEX
  5
1C7C
330
1C70
100
AcDbEntity
  8
SCHRAFFUR_RAND
100
AcDbVertex
100
AcDb2dVertex
 10
312.680454
 20
580.164484
 30
0.0
  0
VERTEX
  5
1C7D
330
1C70
100
AcDbEntity
  8
SCHRAFFUR_RAND
100
AcDbVertex
100
AcDb2dVertex
 10
314.109454
 20
579.3394839999999
 30
0.0
  0
VERTEX
  5
1C7E
330
1C70
100
AcDbEntity
  8
SCHRAFFUR_RAND
100
AcDbVertex
100
AcDb2dVertex
 10
315.231454
 20
578.1294839999999
 30
0.0
  0
VERTEX
  5
1C7F
330
1C70
100
AcDbEntity
  8
SCHRAFFUR_RAND
100
AcDbVertex
100
AcDb2dVertex
 10
315.946454
 20
576.6434839999999
 30
0.0
  0
VERTEX
  5
1C80
330
1C70
100
AcDbEntity
  8
SCHRAFFUR_RAND
100
AcDbVertex
100
AcDb2dVertex
 10
316.135454
 20
575.5124839999999
 30
0.0
  0
VERTEX
  5
1C81
330
1C70
100
AcDbEntity
  8
SCHRAFFUR_RAND
100
AcDbVertex
100
AcDb2dVertex
 10
321.450454
 20
575.5124839999999
 30
0.0
  0
VERTEX
  5
1C82
330
1C70
100
AcDbEntity
  8
SCHRAFFUR_RAND
100
AcDbVertex
100
AcDb2dVertex
 10
322.829454
 20
601.8264839999999
 30
0.0
  0
VERTEX
  5
1C83
330
1C70
100
AcDbEntity
  8
SCHRAFFUR_RAND
100
AcDbVertex
100
AcDb2dVertex
 10
323.066454
 20
603.327484
 30
0.0
  0
VERTEX
  5
1C84
330
1C70
100
AcDbEntity
  8
SCHRAFFUR_RAND
100
AcDbVertex
100
AcDb2dVertex
 10
323.703454
 20
604.7104839999999
 30
0.0
  0
VERTEX
  5
1C85
330
1C70
100
AcDbEntity
  8
SCHRAFFUR_RAND
100
AcDbVertex
100
AcDb2dVertex
 10
324.667454
 20
605.889484
 30
0.0
  0
VERTEX
  5
1C86
330
1C70
100
AcDbEntity
  8
SCHRAFFUR_RAND
100
AcDbVertex
100
AcDb2dVertex
 10
325.895454
 20
606.7904839999999
 30
0.0
  0
VERTEX
  5
1C87
330
1C70
100
AcDbEntity
  8
SCHRAFFUR_RAND
100
AcDbVertex
100
AcDb2dVertex
 10
327.310454
 20
607.3544839999999
 30
0.0
  0
VERTEX
  5
1C88
330
1C70
100
AcDbEntity
  8
SCHRAFFUR_RAND
100
AcDbVertex
100
AcDb2dVertex
 10
328.821454
 20
607.5124839999999
 30
0.0
  0
VERTEX
  5
1C89
330
1C70
100
AcDbEntity
  8
SCHRAFFUR_RAND
100
AcDbVertex
100
AcDb2dVertex
 10
391.950454
 20
607.5124839999999
 30
0.0
  0
VERTEX
  5
1C8A
330
1C70
100
AcDbEntity
  8
SCHRAFFUR_RAND
100
AcDbVertex
100
AcDb2dVertex
 10
455.079454
 20
607.5124839999999
 30
0.0
  0
VERTEX
  5
1C8B
330
1C70
100
AcDbEntity
  8
SCHRAFFUR_RAND
100
AcDbVertex
100
AcDb2dVertex
 10
456.590454
 20
607.3544839999999
 30
0.0
  0
VERTEX
  5
1C8C
330
1C70
100
AcDbEntity
  8
SCHRAFFUR_RAND
100
AcDbVertex
100
AcDb2dVertex
 10
458.0054539999999
 20
606.7904839999999
 30
0.0
  0
VERTEX
  5
1C8D
330
1C70
100
AcDbEntity
  8
SCHRAFFUR_RAND
100
AcDbVertex
100
AcDb2dVertex
 10
459.233454
 20
605.889484
 30
0.0
  0
VERTEX
  5
1C8E
330
1C70
100
AcDbEntity
  8
SCHRAFFUR_RAND
100
AcDbVertex
100
AcDb2dVertex
 10
460.1974539999999
 20
604.7104839999999
 30
0.0
  0
VERTEX
  5
1C8F
330
1C70
100
AcDbEntity
  8
SCHRAFFUR_RAND
100
AcDbVertex
100
AcDb2dVertex
 10
460.835454
 20
603.327484
 30
0.0
  0
VERTEX
  5
1C90
330
1C70
100
AcDbEntity
  8
SCHRAFFUR_RAND
100
AcDbVertex
100
AcDb2dVertex
 10
461.071454
 20
601.8264839999999
 30
0.0
  0
VERTEX
  5
1C91
330
1C70
100
AcDbEntity
  8
SCHRAFFUR_RAND
100
AcDbVertex
100
AcDb2dVertex
 10
462.450454
 20
575.5124839999999
 30
0.0
  0
VERTEX
  5
1C92
330
1C70
100
AcDbEntity
  8
SCHRAFFUR_RAND
100
AcDbVertex
100
AcDb2dVertex
 10
467.7654539999999
 20
575.5124839999999
 30
0.0
  0
VERTEX
  5
1C93
330
1C70
100
AcDbEntity
  8
SCHRAFFUR_RAND
100
AcDbVertex
100
AcDb2dVertex
 10
467.770454
 20
575.837484
 30
0.0
  0
VERTEX
  5
1C94
330
1C70
100
AcDbEntity
  8
SCHRAFFUR_RAND
100
AcDbVertex
100
AcDb2dVertex
 10
468.256454
 20
577.413484
 30
0.0
  0
VERTEX
  5
1C95
330
1C70
100
AcDbEntity
  8
SCHRAFFUR_RAND
100
AcDbVertex
100
AcDb2dVertex
 10
469.185454
 20
578.776484
 30
0.0
  0
VERTEX
  5
1C96
330
1C70
100
AcDbEntity
  8
SCHRAFFUR_RAND
100
AcDbVertex
100
AcDb2dVertex
 10
470.475454
 20
579.8054839999999
 30
0.0
  0
VERTEX
  5
1C97
330
1C70
100
AcDbEntity
  8
SCHRAFFUR_RAND
100
AcDbVertex
100
AcDb2dVertex
 10
472.0114539999999
 20
580.4084839999999
 30
0.0
  0
VERTEX
  5
1C98
330
1C70
100
AcDbEntity
  8
SCHRAFFUR_RAND
100
AcDbVertex
100
AcDb2dVertex
 10
473.6564539999999
 20
580.531484
 30
0.0
  0
VERTEX
  5
1C99
330
1C70
100
AcDbEntity
  8
SCHRAFFUR_RAND
100
AcDbVertex
100
AcDb2dVertex
 10
474.2244539999999
 20
580.4244839999999
 30
0.0
  0
VERTEX
  5
1C9A
330
1C70
100
AcDbEntity
  8
SCHRAFFUR_RAND
100
AcDbVertex
100
AcDb2dVertex
 10
475.220454
 20
608.967484
 30
0.0
  0
VERTEX
  5
1C9B
330
1C70
100
AcDbEntity
  8
SCHRAFFUR_RAND
100
AcDbVertex
100
AcDb2dVertex
 10
475.3264539999999
 20
609.577484
 30
0.0
  0
VERTEX
  5
1C9C
330
1C70
100
AcDbEntity
  8
SCHRAFFUR_RAND
100
AcDbVertex
100
AcDb2dVertex
 10
475.684454
 20
610.0884839999999
 30
0.0
  0
VERTEX
  5
1C9D
330
1C70
100
AcDbEntity
  8
SCHRAFFUR_RAND
100
AcDbVertex
100
AcDb2dVertex
 10
476.2074539999999
 20
610.4274839999999
 30
0.0
  0
VERTEX
  5
1C9E
330
1C70
100
AcDbEntity
  8
SCHRAFFUR_RAND
100
AcDbVertex
100
AcDb2dVertex
 10
476.819454
 20
610.512484
 30
0.0
  0
VERTEX
  5
1C9F
330
1C70
100
AcDbEntity
  8
SCHRAFFUR_RAND
100
AcDbVertex
100
AcDb2dVertex
 10
477.275454
 20
610.512484
 30
0.0
  0
VERTEX
  5
1CA0
330
1C70
100
AcDbEntity
  8
SCHRAFFUR_RAND
100
AcDbVertex
100
AcDb2dVertex
 10
477.4504539999999
 20
615.512484
 30
0.0
  0
SEQEND
  5
1CA1
330
1C70
100
AcDbEntity
  8
SCHRAFFUR_RAND
  0
POLYLINE
  5
1CA2
330
16C3
100
AcDbEntity
  8
SCHRAFFUR_RAND
100
AcDb2dPolyline
 66
     1
 10
0.0
 20
0.0
 30
0.0
 70
     1
  0
VERTEX
  5
1CA3
330
1CA2
100
AcDbEntity
  8
SCHRAFFUR_RAND
100
AcDbVertex
100
AcDb2dVertex
 10
474.2244539999999
 20
580.4244839999999
 30
0.0
  0
VERTEX
  5
1CA4
330
1CA2
100
AcDbEntity
  8
SCHRAFFUR_RAND
100
AcDbVertex
100
AcDb2dVertex
 10
473.242454
 20
580.5304839999999
 30
0.0
  0
VERTEX
  5
1CA5
330
1CA2
100
AcDbEntity
  8
SCHRAFFUR_RAND
100
AcDbVertex
100
AcDb2dVertex
 10
472.0144539999999
 20
580.3924839999999
 30
0.0
  0
VERTEX
  5
1CA6
330
1CA2
100
AcDbEntity
  8
SCHRAFFUR_RAND
100
AcDbVertex
100
AcDb2dVertex
 10
470.8484539999999
 20
579.9844839999999
 30
0.0
  0
VERTEX
  5
1CA7
330
1CA2
100
AcDbEntity
  8
SCHRAFFUR_RAND
100
AcDbVertex
100
AcDb2dVertex
 10
469.802454
 20
579.3264839999999
 30
0.0
  0
VERTEX
  5
1CA8
330
1CA2
100
AcDbEntity
  8
SCHRAFFUR_RAND
100
AcDbVertex
100
AcDb2dVertex
 10
468.928454
 20
578.453484
 30
0.0
  0
VERTEX
  5
1CA9
330
1CA2
100
AcDbEntity
  8
SCHRAFFUR_RAND
100
AcDbVertex
100
AcDb2dVertex
 10
468.270454
 20
577.406484
 30
0.0
  0
VERTEX
  5
1CAA
330
1CA2
100
AcDbEntity
  8
SCHRAFFUR_RAND
100
AcDbVertex
100
AcDb2dVertex
 10
467.862454
 20
576.240484
 30
0.0
  0
VERTEX
  5
1CAB
330
1CA2
100
AcDbEntity
  8
SCHRAFFUR_RAND
100
AcDbVertex
100
AcDb2dVertex
 10
467.724454
 20
575.0124839999999
 30
0.0
  0
VERTEX
  5
1CAC
330
1CA2
100
AcDbEntity
  8
SCHRAFFUR_RAND
100
AcDbVertex
100
AcDb2dVertex
 10
467.862454
 20
573.784484
 30
0.0
  0
VERTEX
  5
1CAD
330
1CA2
100
AcDbEntity
  8
SCHRAFFUR_RAND
100
AcDbVertex
100
AcDb2dVertex
 10
468.270454
 20
572.6174839999999
 30
0.0
  0
VERTEX
  5
1CAE
330
1CA2
100
AcDbEntity
  8
SCHRAFFUR_RAND
100
AcDbVertex
100
AcDb2dVertex
 10
468.928454
 20
571.5714839999999
 30
0.0
  0
VERTEX
  5
1CAF
330
1CA2
100
AcDbEntity
  8
SCHRAFFUR_RAND
100
AcDbVertex
100
AcDb2dVertex
 10
469.802454
 20
570.6974839999999
 30
0.0
  0
VERTEX
  5
1CB0
330
1CA2
100
AcDbEntity
  8
SCHRAFFUR_RAND
100
AcDbVertex
100
AcDb2dVertex
 10
470.8484539999999
 20
570.040484
 30
0.0
  0
VERTEX
  5
1CB1
330
1CA2
100
AcDbEntity
  8
SCHRAFFUR_RAND
100
AcDbVertex
100
AcDb2dVertex
 10
472.0144539999999
 20
569.631484
 30
0.0
  0
VERTEX
  5
1CB2
330
1CA2
100
AcDbEntity
  8
SCHRAFFUR_RAND
100
AcDbVertex
100
AcDb2dVertex
 10
473.242454
 20
569.512484
 30
0.0
  0
VERTEX
  5
1CB3
330
1CA2
100
AcDbEntity
  8
SCHRAFFUR_RAND
100
AcDbVertex
100
AcDb2dVertex
 10
474.307454
 20
569.5974839999999
 30
0.0
  0
VERTEX
  5
1CB4
330
1CA2
100
AcDbEntity
  8
SCHRAFFUR_RAND
100
AcDbVertex
100
AcDb2dVertex
 10
474.4704539999999
 20
569.631484
 30
0.0
  0
VERTEX
  5
1CB5
330
1CA2
100
AcDbEntity
  8
SCHRAFFUR_RAND
100
AcDbVertex
100
AcDb2dVertex
 10
475.332454
 20
569.904484
 30
0.0
  0
VERTEX
  5
1CB6
330
1CA2
100
AcDbEntity
  8
SCHRAFFUR_RAND
100
AcDbVertex
100
AcDb2dVertex
 10
475.637454
 20
570.040484
 30
0.0
  0
VERTEX
  5
1CB7
330
1CA2
100
AcDbEntity
  8
SCHRAFFUR_RAND
100
AcDbVertex
100
AcDb2dVertex
 10
476.278454
 20
570.4034839999999
 30
0.0
  0
VERTEX
  5
1CB8
330
1CA2
100
AcDbEntity
  8
SCHRAFFUR_RAND
100
AcDbVertex
100
AcDb2dVertex
 10
476.6834539999999
 20
570.6974839999999
 30
0.0
  0
VERTEX
  5
1CB9
330
1CA2
100
AcDbEntity
  8
SCHRAFFUR_RAND
100
AcDbVertex
100
AcDb2dVertex
 10
477.110454
 20
571.0764839999999
 30
0.0
  0
VERTEX
  5
1CBA
330
1CA2
100
AcDbEntity
  8
SCHRAFFUR_RAND
100
AcDbVertex
100
AcDb2dVertex
 10
477.557454
 20
571.5714839999999
 30
0.0
  0
VERTEX
  5
1CBB
330
1CA2
100
AcDbEntity
  8
SCHRAFFUR_RAND
100
AcDbVertex
100
AcDb2dVertex
 10
477.797454
 20
571.8964839999999
 30
0.0
  0
VERTEX
  5
1CBC
330
1CA2
100
AcDbEntity
  8
SCHRAFFUR_RAND
100
AcDbVertex
100
AcDb2dVertex
 10
478.2144539999999
 20
572.6174839999999
 30
0.0
  0
VERTEX
  5
1CBD
330
1CA2
100
AcDbEntity
  8
SCHRAFFUR_RAND
100
AcDbVertex
100
AcDb2dVertex
 10
478.3134539999999
 20
572.833484
 30
0.0
  0
VERTEX
  5
1CBE
330
1CA2
100
AcDbEntity
  8
SCHRAFFUR_RAND
100
AcDbVertex
100
AcDb2dVertex
 10
478.6234539999999
 20
573.784484
 30
0.0
  0
VERTEX
  5
1CBF
330
1CA2
100
AcDbEntity
  8
SCHRAFFUR_RAND
100
AcDbVertex
100
AcDb2dVertex
 10
478.638454
 20
573.8534839999999
 30
0.0
  0
VERTEX
  5
1CC0
330
1CA2
100
AcDbEntity
  8
SCHRAFFUR_RAND
100
AcDbVertex
100
AcDb2dVertex
 10
478.7414539999999
 20
574.9164839999999
 30
0.0
  0
VERTEX
  5
1CC1
330
1CA2
100
AcDbEntity
  8
SCHRAFFUR_RAND
100
AcDbVertex
100
AcDb2dVertex
 10
478.7424539999999
 20
575.0124839999999
 30
0.0
  0
VERTEX
  5
1CC2
330
1CA2
100
AcDbEntity
  8
SCHRAFFUR_RAND
100
AcDbVertex
100
AcDb2dVertex
 10
478.6234539999999
 20
576.240484
 30
0.0
  0
VERTEX
  5
1CC3
330
1CA2
100
AcDbEntity
  8
SCHRAFFUR_RAND
100
AcDbVertex
100
AcDb2dVertex
 10
478.215454
 20
577.406484
 30
0.0
  0
VERTEX
  5
1CC4
330
1CA2
100
AcDbEntity
  8
SCHRAFFUR_RAND
100
AcDbVertex
100
AcDb2dVertex
 10
477.557454
 20
578.453484
 30
0.0
  0
VERTEX
  5
1CC5
330
1CA2
100
AcDbEntity
  8
SCHRAFFUR_RAND
100
AcDbVertex
100
AcDb2dVertex
 10
476.6834539999999
 20
579.3264839999999
 30
0.0
  0
VERTEX
  5
1CC6
330
1CA2
100
AcDbEntity
  8
SCHRAFFUR_RAND
100
AcDbVertex
100
AcDb2dVertex
 10
475.637454
 20
579.9844839999999
 30
0.0
  0
VERTEX
  5
1CC7
330
1CA2
100
AcDbEntity
  8
SCHRAFFUR_RAND
100
AcDbVertex
100
AcDb2dVertex
 10
474.4704539999999
 20
580.3924839999999
 30
0.0
  0
VERTEX
  5
1CC8
330
1CA2
100
AcDbEntity
  8
SCHRAFFUR_RAND
100
AcDbVertex
100
AcDb2dVertex
 10
474.2244539999999
 20
580.4244839999999
 30
0.0
  0
SEQEND
  5
1CC9
330
1CA2
100
AcDbEntity
  8
SCHRAFFUR_RAND
  0
INSERT
  5
1CCA
330
16C3
100
AcDbEntity
  8
8
100
AcDbBlockReference
  2
*X5
 10
127.129454
 20
55.731484
 30
0.0
1001
ACAD
1000
HATCH
1002
{
1070
    19
1000
ANSI37,_I
1040
3.174999999999999
1040
8.638999999999999
1002
}
  0
DIMENSION
  5
1D35
330
16C3
100
AcDbEntity
  8
5
100
AcDbDimension
  2
*D6
 10
176.949954
 20
309.910484
 30
0.0
 11
165.199954
 21
211.410484
 31
0.0
 12
641.113725
 22
0.705646
 32
0.0
 70
    32
  1
{\Fgeniso.shx;\U+25A1}197
 71
     5
 42
-1.0
  3
GEN-ISO
100
AcDbAlignedDimension
 13
291.3569540000001
 23
112.910484
 33
0.0
 14
291.3569540000001
 24
309.910484
 34
0.0
 50
90.0
100
AcDbRotatedDimension
1001
GENIUS_GENDTOL_13
1000

1000
B2/max
1000

1040
0.0
1000
{\Fgeniso.shx;\U+25A1}197
  0
DIMENSION
  5
1D36
330
16C3
100
AcDbEntity
  8
5
100
AcDbDimension
  2
*D7
 10
521.949954
 20
62.910484
 30
0.0
 11
391.949954
 21
74.66220600000001
 31
0.0
 12
641.113725
 22
0.705646
 32
0.0
 70
    32
  1
260
 71
     5
 42
-1.0
  3
GEN-ISO
100
AcDbAlignedDimension
 13
261.949954
 23
183.893484
 33
0.0
 14
521.949954
 24
183.893484
 34
0.0
100
AcDbRotatedDimension
  0
DIMENSION
  5
1D37
330
16C3
100
AcDbEntity
  8
5
100
AcDbDimension
  2
*D8
 10
211.949954
 20
215.910484
 30
0.0
 11
200.199954
 21
248.368788
 31
0.0
 12
641.113725
 22
0.705646
 32
0.0
 70
    32
  1
9
 71
     5
 42
-1.0
  3
GEN-ISO
100
AcDbAlignedDimension
 13
277.476954
 23
206.910484
 33
0.0
 14
277.476954
 24
215.910484
 34
0.0
 50
90.0
100
AcDbRotatedDimension
  0
POINT
  5
1D38
330
16C3
100
AcDbEntity
  8
0
 60
     1
100
AcDbPoint
 10
-671.275923
 20
-54.223777
 30
0.0
1001
GENIUS_GENOBJ-N-TIT_13
1002
{
1000
OWNER
1000
GEN
1002
}
1001
GENIUS_GENOENT_13
1002
{
1000
MYREF
1005
1D38
1002
}
1002
{
1000
GRP
1005
0
1002
}
1001
GENIUS_GENOLIS_13
1002
{
1000
ENT
1005
1D39
1002
}
1001
GENIUS_GENTITLE_13
1002
{
1000
SCALE
1000
1:5
1002
}
1002
{
1000
BORDER
1000
KATALOG
1002
}
1002
{
1000
TITLE
1000
KATALOG_LEER
1002
}
1002
{
1000
UNCHG
1002
{
1000
GEN-TITLE-SCA
1000
GEN-TITLE-SIZ
1002
}
1002
}
1002
{
1000
HRA
1005
0
1002
}
1002
{
1000
HTIT
1005
1D39
1002
}
1002
{
1000
GENIUSID
1005
1D38
1002
}
1001
GENIUS_GENODEF_13
1002
{
1000
HIER
1070
     1
1002
}
1002
{
1000
MANEDIT
1070
     1
1002
}
1002
{
1000
NOSEL
1070
     0
1002
}
1002
{
1000
BEHIND
1070
     0
1002
}
1002
{
1000
REACTOR
1002
}
  0
INSERT
  5
1D39
330
16C3
100
AcDbEntity
  8
0
100
AcDbBlockReference
  2
KATALOG_LEER
 10
-419.4362169999999
 20
-42.91929399999999
 30
0.0
 41
5.0
 42
5.0
 43
5.0
1001
GENIUS_GENOREF_13
1005
1D38
  0
HATCH
  5
1D3C
330
16C3
100
AcDbEntity
  8
8
100
AcDbHatch
 10
0.0
 20
0.0
 30
0.0
210
0.0
220
0.0
230
1.0
  2
_U
 70
     0
 71
     0
 91
        1
 92
        1
 93
      117
 72
     1
 10
308.680454
 20
608.967484
 11
309.677454
 21
580.4244839999999
 72
     1
 10
309.677454
 20
580.4244839999999
 11
309.700123
 21
580.42835
 72
     2
 10
310.658454
 20
575.0124839999999
 40
5.5
 50
259.965453
 51
260.679456
 73
     0
 72
     1
 10
309.767687
 20
580.439871
 11
310.281454
 21
580.527484
 72
     1
 10
310.281454
 20
580.527484
 11
310.5241180000001
 21
580.510843
 72
     2
 10
310.658454
 20
575.0124839999999
 40
5.5
 50
268.600434
 51
271.482454
 73
     0
 72
     1
 10
310.800743
 20
580.5106429999999
 11
311.072454
 21
580.531484
 72
     1
 10
311.072454
 20
580.531484
 11
311.343183
 21
580.469694
 72
     2
 10
310.658454
 20
575.0124839999999
 40
5.5
 50
277.151662
 51
279.245425
 73
     0
 72
     1
 10
311.542104
 20
580.4410339999999
 11
311.783454
 21
580.4244839999999
 72
     1
 10
311.783454
 20
580.4244839999999
 11
312.011236
 21
580.3435229999999
 72
     2
 10
310.658454
 20
575.0124839999999
 40
5.5
 50
284.238598
 51
288.561573
 73
     0
 72
     1
 10
312.409233
 20
580.2263849999999
 11
312.680454
 21
580.164484
 72
     1
 10
312.680454
 20
580.164484
 11
312.921435
 21
580.0253589999999
 72
     2
 10
310.658454
 20
575.0124839999999
 40
5.5
 50
294.296031
 51
294.894899
 73
     0
 72
     1
 10
312.973706
 20
580.001432
 11
313.201454
 21
579.9204839999999
 72
     1
 10
313.201454
 20
579.9204839999999
 11
313.399061
 21
579.7810339999999
 72
     2
 10
310.658454
 20
575.0124839999999
 40
5.5
 50
299.887082
 51
305.701952
 73
     0
 72
     1
 10
313.868083
 20
579.478834
 11
314.109454
 21
579.3394839999999
 72
     1
 10
314.109454
 20
579.3394839999999
 11
314.2698
 21
579.1665609999999
 72
     1
 10
314.2698
 20
579.1665609999999
 11
314.431454
 21
579.0524839999999
 72
     1
 10
314.431454
 20
579.0524839999999
 11
314.584785
 21
578.863967
 72
     2
 10
310.658454
 20
575.0124839999999
 40
5.5
 50
315.55136
 51
322.881886
 73
     0
 72
     1
 10
315.044116
 20
578.331514
 11
315.231454
 21
578.1294839999999
 72
     1
 10
315.231454
 20
578.1294839999999
 11
315.30282
 21
577.981162
 72
     1
 10
315.30282
 20
577.981162
 11
315.381454
 21
577.8844839999999
 72
     1
 10
315.381454
 20
577.8844839999999
 11
315.477756
 21
577.6628289999999
 72
     2
 10
310.658454
 20
575.0124839999999
 40
5.5
 50
331.19168
 51
340.061358
 73
     0
 72
     1
 10
315.828775
 20
576.888059
 11
315.946454
 21
576.6434839999999
 72
     1
 10
315.946454
 20
576.6434839999999
 11
315.962595
 21
576.546889
 72
     1
 10
315.962595
 20
576.546889
 11
315.981454
 21
576.5034839999999
 72
     1
 10
315.981454
 20
576.5034839999999
 11
316.028356
 21
576.2016629999999
 72
     2
 10
310.658454
 20
575.0124839999999
 40
5.5
 50
347.513221
 51
354.784091
 73
     0
 72
     1
 10
316.135679
 20
575.5124839999999
 11
321.450454
 21
575.5124839999999
 72
     1
 10
321.450454
 20
575.5124839999999
 11
322.829454
 21
601.8264839999999
 72
     1
 10
322.829454
 20
601.8264839999999
 11
322.829786
 21
601.8285919999999
 72
     2
 10
328.821454
 20
601.5124839999999
 40
6.0
 50
183.020004
 51
194.925249
 73
     0
 72
     1
 10
323.023878
 20
603.057836
 11
323.066454
 21
603.327484
 72
     1
 10
323.066454
 20
603.327484
 11
323.215662
 21
603.651433
 72
     2
 10
328.821454
 20
601.5124839999999
 40
6.0
 50
200.884881
 51
208.576043
 73
     0
 72
     1
 10
323.552355
 20
604.3824319999999
 11
323.703454
 21
604.7104839999999
 72
     1
 10
323.703454
 20
604.7104839999999
 11
323.931917
 21
604.989901
 72
     2
 10
328.821454
 20
601.5124839999999
 40
6.0
 50
215.420271
 51
223.121484
 73
     0
 72
     1
 10
324.442018
 20
605.613769
 11
324.667454
 21
605.889484
 72
     1
 10
324.667454
 20
605.889484
 11
324.953995
 21
606.099723
 72
     2
 10
328.821454
 20
601.5124839999999
 40
6.0
 50
229.8660740000001
 51
237.597937
 73
     0
 72
     1
 10
325.60631
 20
606.578336
 11
325.895454
 21
606.7904839999999
 72
     1
 10
325.895454
 20
606.7904839999999
 11
326.228042
 21
606.9230489999999
 72
     2
 10
328.821454
 20
601.5124839999999
 40
6.0
 50
244.390504
 51
252.146372
 73
     0
 72
     1
 10
326.981936
 20
607.2235410000001
 11
327.310454
 21
607.3544839999999
 72
     1
 10
327.310454
 20
607.3544839999999
 11
327.580227
 21
607.382693
 72
     2
 10
328.821454
 20
601.5124839999999
 40
6.0
 50
258.060949
 51
270.0
 73
     0
 72
     1
 10
328.821454
 20
607.5124839999999
 11
455.079454
 21
607.5124839999999
 72
     2
 10
455.079454
 20
601.5124839999999
 40
6.0
 50
270.0
 51
281.9390509999999
 73
     0
 72
     1
 10
456.3206799999999
 20
607.382693
 11
456.590454
 21
607.3544839999999
 72
     1
 10
456.590454
 20
607.3544839999999
 11
456.9189719999999
 21
607.2235410000001
 72
     2
 10
455.079454
 20
601.5124839999999
 40
6.0
 50
287.853628
 51
295.609496
 73
     0
 72
     1
 10
457.672865
 20
606.9230489999999
 11
458.0054539999999
 21
606.7904839999999
 72
     1
 10
458.0054539999999
 20
606.7904839999999
 11
458.2945969999999
 21
606.578336
 72
     2
 10
455.079454
 20
601.5124839999999
 40
6.0
 50
302.402063
 51
310.133926
 73
     0
 72
     1
 10
458.946912
 20
606.099723
 11
459.233454
 21
605.889484
 72
     1
 10
459.233454
 20
605.889484
 11
459.45889
 21
605.613769
 72
     2
 10
455.079454
 20
601.5124839999999
 40
6.0
 50
316.878516
 51
324.579729
 73
     0
 72
     1
 10
459.96899
 20
604.989901
 11
460.1974539999999
 21
604.7104839999999
 72
     1
 10
460.1974539999999
 20
604.7104839999999
 11
460.350107
 21
604.3795750000001
 72
     2
 10
455.079454
 20
601.5124839999999
 40
6.0
 50
331.455025
 51
339.015713
 73
     0
 72
     1
 10
460.6815259999999
 20
603.6611549999999
 11
460.835454
 21
603.327484
 72
     1
 10
460.835454
 20
603.327484
 11
460.879037
 21
603.050283
 72
     2
 10
455.079454
 20
601.5124839999999
 40
6.0
 50
345.149374
 51
356.9798670000001
 73
     0
 72
     1
 10
461.0711199999999
 20
601.8286049999999
 11
461.071454
 21
601.8264839999999
 72
     1
 10
461.071454
 20
601.8264839999999
 11
462.450454
 21
575.5124839999999
 72
     1
 10
462.450454
 20
575.5124839999999
 11
467.765228
 21
575.5124839999999
 72
     2
 10
473.242454
 20
575.0124839999999
 40
5.5
 50
185.215909
 51
185.246886
 73
     0
 72
     1
 10
467.765499
 20
575.515445
 11
467.770454
 21
575.837484
 72
     1
 10
467.770454
 20
575.837484
 11
467.843948
 21
576.075812
 72
     1
 10
467.843948
 20
576.075812
 11
467.862454
 21
576.240484
 72
     1
 10
467.862454
 20
576.240484
 11
467.9266489999999
 21
576.4239429999999
 72
     2
 10
473.242454
 20
575.0124839999999
 40
5.5
 50
194.87013
 51
202.908891
 73
     0
 72
     1
 10
468.176266
 20
577.1534519999999
 11
468.256454
 21
577.413484
 72
     1
 10
468.256454
 20
577.413484
 11
468.409973
 21
577.638722
 72
     2
 10
473.242454
 20
575.0124839999999
 40
5.5
 50
208.522114
 51
216.581105
 73
     0
 72
     1
 10
468.825876
 20
578.2902639999999
 11
468.928454
 21
578.453484
 72
     1
 10
468.928454
 20
578.453484
 11
469.0438939999999
 21
578.5687929999999
 72
     1
 10
469.0438939999999
 20
578.5687929999999
 11
469.185454
 21
578.776484
 72
     1
 10
469.185454
 20
578.776484
 11
469.3998309999999
 21
578.947487
 72
     2
 10
473.242454
 20
575.0124839999999
 40
5.5
 50
225.680513
 51
229.504359
 73
     0
 72
     1
 10
469.670808
 20
579.1949879999999
 11
469.802454
 21
579.3264839999999
 72
     1
 10
469.802454
 20
579.3264839999999
 11
469.960012
 21
579.425598
 72
     2
 10
473.242454
 20
575.0124839999999
 40
5.5
 50
233.358398
 51
237.16255
 73
     0
 72
     1
 10
470.2600369999999
 20
579.6336519999999
 11
470.475454
 21
579.8054839999999
 72
     1
 10
470.475454
 20
579.8054839999999
 11
470.7107349999999
 21
579.8978499999999
 72
     1
 10
470.7107349999999
 20
579.8978499999999
 11
470.8484539999999
 21
579.9844839999999
 72
     1
 10
470.8484539999999
 20
579.9844839999999
 11
471.0316349999999
 21
580.048582
 72
     2
 10
473.242454
 20
575.0124839999999
 40
5.5
 50
246.2987930000001
 51
254.282106
 73
     0
 72
     1
 10
471.752498
 20
580.306823
 11
472.0114539999999
 21
580.4084839999999
 72
     1
 10
472.0114539999999
 20
580.4084839999999
 11
472.2892589999999
 21
580.429256
 72
     2
 10
473.242454
 20
575.0124839999999
 40
5.5
 50
260.019781
 51
268.02953
 73
     0
 72
     1
 10
473.0533389999999
 20
580.5092319999999
 11
473.242454
 21
580.5304839999999
 72
     1
 10
473.242454
 20
580.5304839999999
 11
473.4064009999999
 21
580.5127869999999
 72
     1
 10
473.4064009999999
 20
580.5127869999999
 11
473.6564539999999
 21
580.531484
 72
     1
 10
473.6564539999999
 20
580.531484
 11
474.2244539999999
 21
580.4244839999999
 72
     1
 10
474.2244539999999
 20
580.4244839999999
 11
475.220454
 21
608.967484
 72
     1
 10
475.220454
 20
608.967484
 11
475.3264539999999
 21
609.577484
 72
     1
 10
475.3264539999999
 20
609.577484
 11
475.684454
 21
610.0884839999999
 72
     1
 10
475.684454
 20
610.0884839999999
 11
476.2074539999999
 21
610.4274839999999
 72
     1
 10
476.2074539999999
 20
610.4274839999999
 11
476.3834199999999
 21
610.4519240000001
 72
     2
 10
476.819454
 20
608.9124839999999
 40
1.6
 50
254.185675
 51
270.0
 73
     0
 72
     1
 10
476.819454
 20
610.512484
 11
477.275454
 21
610.512484
 72
     1
 10
477.275454
 20
610.512484
 11
477.4504539999999
 21
615.512484
 72
     1
 10
477.4504539999999
 20
615.512484
 11
306.451454
 21
615.512484
 72
     1
 10
306.451454
 20
615.512484
 11
306.625454
 21
610.512484
 72
     1
 10
306.625454
 20
610.512484
 11
307.081454
 21
610.512484
 72
     2
 10
307.081454
 20
608.9124839999999
 40
1.6
 50
270.0
 51
285.814325
 73
     0
 72
     1
 10
307.517487
 20
610.4519240000001
 11
307.693454
 21
610.4274839999999
 72
     1
 10
307.693454
 20
610.4274839999999
 11
308.216454
 21
610.0884839999999
 72
     1
 10
308.216454
 20
610.0884839999999
 11
308.574454
 21
609.577484
 72
     1
 10
308.574454
 20
609.577484
 11
308.680454
 21
608.967484
 97
        0
 75
     0
 76
     0
 52
45.0
 41
2.5
 77
     0
 78
     1
 53
45.0
 43
-30.161698
 44
-22.916131
 45
-1.767766952966368
 46
1.767766952966368
 79
     0
 98
        1
 10
-30.161698
 20
-22.916131
1001
GENIUS_GENODEF_13
1002
{
1000
HIER
1070
     0
1002
}
1002
{
1000
MANEDIT
1070
     0
1002
}
1002
{
1000
NOSEL
1070
     0
1002
}
1002
{
1000
BEHIND
1070
     0
1002
}
1002
{
1000
REACTOR
1002
}
1001
GENIUS_GENOBJ-N-HTC_13
1002
{
1000
OWNER
1000
GEN
1002
}
1001
GENIUS_GENHATCH_13
1002
{
1000
DATA
1040
45.0
1042
2.5
1000
_U
1070
     0
1011
317.582376
1021
607.2269079999999
1031
0.0
1002
}
1002
{
1000
UCS
1010
0.0
1020
0.0
1030
0.0
1010
1.0
1020
0.0
1030
0.0
1010
0.0
1020
1.0
1030
0.0
1002
}
  0
HATCH
  5
1E92
330
16C3
100
AcDbEntity
  8
8
100
AcDbHatch
 10
0.0
 20
0.0
 30
0.0
210
0.0
220
0.0
230
1.0
  2
_U
 70
     0
 71
     0
 91
        1
 92
        1
 93
       48
 72
     1
 10
477.317454
 20
559.0264839999999
 11
477.6621709999999
 21
559.645953
 72
     2
 10
486.767454
 20
555.5114839999999
 40
10.0
 50
204.421551
 51
213.767945
 73
     0
 72
     1
 10
478.454498
 20
561.0697899999999
 11
478.800454
 21
561.6914839999999
 72
     1
 10
478.800454
 20
561.6914839999999
 11
479.317123
 21
562.1817589999999
 72
     2
 10
486.767454
 20
555.5114839999999
 40
10.0
 50
221.838059
 51
231.16493
 73
     0
 72
     1
 10
480.496646
 20
563.3010269999999
 11
481.012454
 21
563.790484
 72
     1
 10
481.012454
 20
563.790484
 11
481.6489279999999
 21
564.102217
 72
     2
 10
486.767454
 20
555.5114839999999
 40
10.0
 50
239.21269
 51
248.597838
 73
     0
 72
     1
 10
483.1183339999999
 20
564.8219039999999
 11
483.752454
 21
565.132484
 72
     1
 10
483.752454
 20
565.132484
 11
484.292466
 21
565.200366
 72
     2
 10
486.767454
 20
555.5114839999999
 40
10.0
 50
255.670452
 51
270.0
 73
     0
 72
     1
 10
486.767454
 20
565.511484
 11
501.923454
 21
565.511484
 72
     1
 10
501.923454
 20
565.511484
 11
499.673454
 21
575.5664839999999
 72
     1
 10
499.673454
 20
575.5664839999999
 11
492.543454
 21
575.5664839999999
 72
     1
 10
492.543454
 20
575.5664839999999
 11
490.4504539999999
 21
615.511484
 72
     1
 10
490.4504539999999
 20
615.511484
 11
482.4504539999999
 21
615.511484
 72
     1
 10
482.4504539999999
 20
615.511484
 11
479.2984539999999
 21
606.8544839999999
 72
     1
 10
479.2984539999999
 20
606.8544839999999
 11
478.7421919999999
 21
574.9588
 72
     2
 10
473.242454
 20
575.0124839999999
 40
5.5
 50
0.5592520000000001
 51
10.089952
 73
     0
 72
     1
 10
478.65739
 20
574.048916
 11
478.657178
 21
574.046723
 72
     1
 10
478.657178
 20
574.046723
 11
478.638454
 21
573.8534839999999
 72
     1
 10
478.638454
 20
573.8534839999999
 11
478.6234539999999
 21
573.784484
 72
     1
 10
478.6234539999999
 20
573.784484
 11
478.530457
 21
573.499195
 72
     2
 10
473.242454
 20
575.011484
 40
5.5
 50
15.959726
 51
18.923366
 73
     0
 72
     1
 10
478.445196
 20
573.2278159999999
 11
478.371454
 21
572.8074839999999
 72
     1
 10
478.371454
 20
572.8074839999999
 11
478.0661999999999
 21
572.3611509999999
 72
     1
 10
478.0661999999999
 20
572.3611509999999
 11
477.797454
 21
571.8964839999999
 72
     1
 10
477.797454
 20
571.8964839999999
 11
477.557454
 21
571.5714839999999
 72
     1
 10
477.557454
 20
571.5714839999999
 11
477.4283829999999
 21
571.428553
 72
     1
 10
477.4283829999999
 20
571.428553
 11
477.155454
 21
571.029484
 72
     1
 10
477.155454
 20
571.029484
 11
476.775612
 21
570.779282
 72
     1
 10
476.775612
 20
570.779282
 11
476.6834539999999
 21
570.6974839999999
 72
     1
 10
476.6834539999999
 20
570.6974839999999
 11
476.278454
 21
570.4034839999999
 72
     1
 10
476.278454
 20
570.4034839999999
 11
475.755483
 21
570.107324
 72
     1
 10
475.755483
 20
570.107324
 11
475.356454
 21
569.8444839999999
 72
     1
 10
475.356454
 20
569.8444839999999
 11
474.9332349999999
 21
569.777818
 72
     2
 10
473.242454
 20
575.011484
 40
5.5
 50
72.096502
 51
73.036777
 73
     0
 72
     1
 10
474.8471219999999
 20
569.7507769999999
 11
474.4704539999999
 21
569.631484
 72
     1
 10
474.4704539999999
 20
569.631484
 11
474.307454
 21
569.5974839999999
 72
     1
 10
474.307454
 20
569.5974839999999
 11
474.1270280000001
 21
569.583084
 72
     2
 10
473.242454
 20
575.011484
 40
5.5
 50
80.744828
 51
90.0
 73
     0
 72
     1
 10
473.242454
 20
569.511484
 11
467.449454
 21
569.511484
 72
     1
 10
467.449454
 20
569.511484
 11
465.6304539999999
 21
465.2814839999999
 72
     1
 10
465.6304539999999
 20
465.2814839999999
 11
464.9504539999999
 21
460.2814839999999
 72
     1
 10
464.9504539999999
 20
460.2814839999999
 11
464.9504539999999
 21
440.511484
 72
     1
 10
464.9504539999999
 20
440.511484
 11
470.7264539999999
 21
440.511484
 72
     1
 10
470.7264539999999
 20
440.511484
 11
476.7814539999999
 21
556.035484
 72
     1
 10
476.7814539999999
 20
556.035484
 11
477.317454
 21
559.0264839999999
 97
        0
 75
     0
 76
     0
 52
135.0
 41
5.0
 77
     0
 78
     1
 53
135.0
 43
0.0
 44
0.0
 45
-3.535533905932736
 46
-3.535533905932736
 79
     0
 98
        1
 10
0.0
 20
0.0
1001
GENIUS_GENODEF_13
1002
{
1000
HIER
1070
     0
1002
}
1002
{
1000
MANEDIT
1070
     0
1002
}
1002
{
1000
NOSEL
1070
     0
1002
}
1002
{
1000
BEHIND
1070
     0
1002
}
1002
{
1000
REACTOR
1002
}
1001
GENIUS_GENOBJ-N-HTC_13
1002
{
1000
OWNER
1000
GEN
1002
}
1001
GENIUS_GENHATCH_13
1002
{
1000
DATA
1040
135.0
1042
1.0
1000
_U
1070
     0
1011
483.998051
1021
583.745588
1031
0.0
1002
}
1002
{
1000
UCS
1010
0.0
1020
0.0
1030
0.0
1010
1.0
1020
0.0
1030
0.0
1010
0.0
1020
1.0
1030
0.0
1002
}
  0
HATCH
  5
1E9B
330
16C3
100
AcDbEntity
  8
8
100
AcDbHatch
 10
0.0
 20
0.0
 30
0.0
210
0.0
220
0.0
230
1.0
  2
_U
 70
     0
 71
     0
 91
        1
 92
        1
 93
        4
 72
     1
 10
521.426454
 20
575.4984839999999
 11
513.173454
 21
575.5664839999999
 72
     1
 10
513.173454
 20
575.5664839999999
 11
510.923454
 21
565.511484
 72
     1
 10
510.923454
 20
565.511484
 11
521.950454
 21
565.511484
 72
     1
 10
521.950454
 20
565.511484
 11
521.426454
 21
575.4984839999999
 97
        0
 75
     0
 76
     0
 52
135.0
 41
3.0
 77
     0
 78
     1
 53
135.0
 43
0.0
 44
0.0
 45
-2.121320343559641
 46
-2.121320343559641
 79
     0
 98
        1
 10
0.0
 20
0.0
1001
GENIUS_GENODEF_13
1002
{
1000
HIER
1070
     0
1002
}
1002
{
1000
MANEDIT
1070
     0
1002
}
1002
{
1000
NOSEL
1070
     0
1002
}
1002
{
1000
BEHIND
1070
     0
1002
}
1002
{
1000
REACTOR
1002
}
1001
GENIUS_GENOBJ-N-HTC_13
1002
{
1000
OWNER
1000
GEN
1002
}
1001
GENIUS_GENHATCH_13
1002
{
1000
DATA
1040
135.0
1042
1.0
1000
_U
1070
     0
1011
517.018554
1021
569.929769
1031
0.0
1002
}
1002
{
1000
UCS
1010
0.0
1020
0.0
1030
0.0
1010
1.0
1020
0.0
1030
0.0
1010
0.0
1020
1.0
1030
0.0
1002
}
  0
HATCH
  5
1ECC
330
16C3
100
AcDbEntity
  8
8
100
AcDbHatch
 10
0.0
 20
0.0
 30
0.0
210
0.0
220
0.0
230
1.0
  2
_U
 70
     0
 71
     0
 91
        1
 92
        1
 93
       44
 72
     1
 10
307.118454
 20
556.035484
 11
313.173454
 21
440.511484
 72
     1
 10
313.173454
 20
440.511484
 11
318.949454
 21
440.511484
 72
     1
 10
318.949454
 20
440.511484
 11
318.949454
 21
460.2814839999999
 72
     1
 10
318.949454
 20
460.2814839999999
 11
318.269454
 21
465.282484
 72
     1
 10
318.269454
 20
465.282484
 11
316.449454
 21
569.511484
 72
     1
 10
316.449454
 20
569.511484
 11
310.657454
 21
569.511484
 72
     2
 10
310.657454
 20
575.011484
 40
5.5
 50
90.0
 51
102.677904
 73
     0
 72
     1
 10
309.450369
 20
569.6455779999999
 11
309.242454
 21
569.668484
 72
     1
 10
309.242454
 20
569.668484
 11
308.811286
 21
569.8022950000001
 72
     1
 10
308.811286
 20
569.8022950000001
 11
308.543454
 21
569.8444839999999
 72
     1
 10
308.543454
 20
569.8444839999999
 11
308.146514
 21
570.105948
 72
     1
 10
308.146514
 20
570.105948
 11
307.922454
 21
570.208484
 72
     1
 10
307.922454
 20
570.208484
 11
307.470454
 21
570.496484
 72
     1
 10
307.470454
 20
570.496484
 11
307.158046
 21
570.7570509999999
 72
     1
 10
307.158046
 20
570.7570509999999
 11
306.744454
 21
571.029484
 72
     1
 10
306.744454
 20
571.029484
 11
306.518035
 21
571.360547
 72
     1
 10
306.518035
 20
571.360547
 11
306.369454
 21
571.5234839999999
 72
     1
 10
306.369454
 20
571.5234839999999
 11
305.903454
 21
572.192484
 72
     1
 10
305.903454
 20
572.192484
 11
305.770011
 21
572.454286
 72
     1
 10
305.770011
 20
572.454286
 11
305.528454
 21
572.8074839999999
 72
     1
 10
305.528454
 20
572.8074839999999
 11
305.470013
 21
573.140596
 72
     1
 10
305.470013
 20
573.140596
 11
305.339454
 21
573.5044839999999
 72
     1
 10
305.339454
 20
573.5044839999999
 11
305.311092
 21
573.725733
 72
     2
 10
310.658454
 20
575.0124839999999
 40
5.5
 50
166.469988
 51
178.920541
 73
     0
 72
     1
 10
305.15943
 20
574.908869
 11
305.158454
 21
574.9164839999999
 72
     1
 10
305.158454
 20
574.9164839999999
 11
304.601454
 21
606.8544839999999
 72
     1
 10
304.601454
 20
606.8544839999999
 11
301.450454
 21
615.511484
 72
     1
 10
301.450454
 20
615.511484
 11
293.450454
 21
615.511484
 72
     1
 10
293.450454
 20
615.511484
 11
291.356454
 21
575.5664839999999
 72
     1
 10
291.356454
 20
575.5664839999999
 11
284.227454
 21
575.5664839999999
 72
     1
 10
284.227454
 20
575.5664839999999
 11
281.977454
 21
565.511484
 72
     1
 10
281.977454
 20
565.511484
 11
297.132454
 21
565.511484
 72
     2
 10
297.132454
 20
555.5114839999999
 40
10.0
 50
270.0
 51
284.324847
 73
     0
 72
     1
 10
299.606646
 20
565.2005690000001
 11
300.148454
 21
565.132484
 72
     1
 10
300.148454
 20
565.132484
 11
300.785424
 21
564.8203940000001
 72
     2
 10
297.132454
 20
555.5114839999999
 40
10.0
 50
291.425863
 51
300.780134
 73
     0
 72
     1
 10
302.249904
 20
564.1028579999999
 11
302.887454
 21
563.790484
 72
     1
 10
302.887454
 20
563.790484
 11
303.403261
 21
563.3010269999999
 72
     2
 10
297.132454
 20
555.5114839999999
 40
10.0
 50
308.83507
 51
318.161941
 73
     0
 72
     1
 10
304.582785
 20
562.1817589999999
 11
305.099454
 21
561.6914839999999
 72
     1
 10
305.099454
 20
561.6914839999999
 11
305.446807
 21
561.0676999999999
 72
     2
 10
297.132454
 20
555.5114839999999
 40
10.0
 50
326.246461
 51
335.531217
 73
     0
 72
     1
 10
306.234324
 20
559.653458
 11
306.583454
 21
559.0264839999999
 72
     1
 10
306.583454
 20
559.0264839999999
 11
307.118454
 21
556.035484
 97
        0
 75
     0
 76
     0
 52
135.0
 41
5.0
 77
     0
 78
     1
 53
135.0
 43
0.0
 44
0.0
 45
-3.535533905932736
 46
-3.535533905932736
 79
     0
 98
        1
 10
0.0
 20
0.0
1001
GENIUS_GENODEF_13
1002
{
1000
HIER
1070
     0
1002
}
1002
{
1000
MANEDIT
1070
     0
1002
}
1002
{
1000
NOSEL
1070
     0
1002
}
1002
{
1000
BEHIND
1070
     0
1002
}
1002
{
1000
REACTOR
1002
}
1001
GENIUS_GENOBJ-N-HTC_13
1002
{
1000
OWNER
1000
GEN
1002
}
1001
GENIUS_GENHATCH_13
1002
{
1000
DATA
1040
135.0
1042
1.0
1000
_U
1070
     0
1011
311.216348
1021
546.5196269999998
1031
0.0
1002
}
1002
{
1000
UCS
1010
0.0
1020
0.0
1030
0.0
1010
1.0
1020
0.0
1030
0.0
1010
0.0
1020
1.0
1030
0.0
1002
}
  0
HATCH
  5
1ED5
330
16C3
100
AcDbEntity
  8
8
100
AcDbHatch
 10
0.0
 20
0.0
 30
0.0
210
0.0
220
0.0
230
1.0
  2
_U
 70
     0
 71
     0
 91
        1
 92
        1
 93
        4
 72
     1
 10
270.727454
 20
575.5664839999999
 11
262.473454
 21
575.4984839999999
 72
     1
 10
262.473454
 20
575.4984839999999
 11
261.949454
 21
565.511484
 72
     1
 10
261.949454
 20
565.511484
 11
272.977454
 21
565.511484
 72
     1
 10
272.977454
 20
565.511484
 11
270.727454
 21
575.5664839999999
 97
        0
 75
     0
 76
     0
 52
135.0
 41
2.0
 77
     0
 78
     1
 53
135.0
 43
0.0
 44
0.0
 45
-1.414213562373094
 46
-1.414213562373094
 79
     0
 98
        1
 10
0.0
 20
0.0
1001
GENIUS_GENODEF_13
1002
{
1000
HIER
1070
     0
1002
}
1002
{
1000
MANEDIT
1070
     0
1002
}
1002
{
1000
NOSEL
1070
     0
1002
}
1002
{
1000
BEHIND
1070
     0
1002
}
1002
{
1000
REACTOR
1002
}
1001
GENIUS_GENOBJ-N-HTC_13
1002
{
1000
OWNER
1000
GEN
1002
}
1001
GENIUS_GENHATCH_13
1002
{
1000
DATA
1040
135.0
1042
1.0
1000
_U
1070
     0
1011
265.909147
1021
569.162223
1031
0.0
1002
}
1002
{
1000
UCS
1010
0.0
1020
0.0
1030
0.0
1010
1.0
1020
0.0
1030
0.0
1010
0.0
1020
1.0
1030
0.0
1002
}
  0
ENDSEC
  0
SECTION
  2
OBJECTS
  0
DICTIONARY
  5
16B7
330
0
100
AcDbDictionary
281
     1
  3
ACAD_COLOR
350
1EF9
  3
ACAD_GROUP
350
16B8
  3
ACAD_LAYOUT
350
1EFC
  3
ACAD_MATERIAL
350
1EF8
  3
ACAD_MLINESTYLE
350
16C6
  3
ACAD_PLOTSETTINGS
350
1EFD
  3
ACAD_PLOTSTYLENAME
350
1EF6
  3
ACAD_TABLESTYLE
350
1EFA
  3
ACDBHEADERROUNDTRIPXREC
350
1FD6
  3
AcDbVariableDictionary
350
1FCA
  3
AcmDictionary
350
1F5C
  3
AMG
350
1F02
  3
AMGSNAPSETTINGS
350
1FCC
  0
DICTIONARY
  5
1EF9
102
{ACAD_REACTORS
330
16B7
102
}
330
16B7
100
AcDbDictionary
281
     1
  0
DICTIONARY
  5
16B8
102
{ACAD_REACTORS
330
16B7
102
}
330
16B7
100
AcDbDictionary
281
     1
  0
DICTIONARY
  5
1EFC
102
{ACAD_REACTORS
330
16B7
102
}
330
16B7
100
AcDbDictionary
281
     1
  3
Layout1
350
1EFF
  3
Model
350
1EFE
  0
DICTIONARY
  5
1EF8
102
{ACAD_REACTORS
330
16B7
102
}
330
16B7
100
AcDbDictionary
281
     1
  0
DICTIONARY
  5
16C6
102
{ACAD_REACTORS
330
16B7
102
}
330
16B7
100
AcDbDictionary
281
     1
  3
STANDARD
350
16C7
  0
DICTIONARY
  5
1EFD
102
{ACAD_REACTORS
330
16B7
102
}
330
16B7
100
AcDbDictionary
281
     1
  0
ACDBDICTIONARYWDFLT
  5
1EF6
102
{ACAD_REACTORS
330
16B7
102
}
330
16B7
100
AcDbDictionary
281
     1
  3
Normal
350
1EF7
100
AcDbDictionaryWithDefault
340
1EF7
  0
DICTIONARY
  5
1EFA
102
{ACAD_REACTORS
330
16B7
102
}
330
16B7
100
AcDbDictionary
281
     1
  3
Standard
350
1EFB
  0
DICTIONARY
  5
1FD6
102
{ACAD_REACTORS
330
16B7
102
}
330
16B7
100
AcDbDictionary
281
     1
  0
DICTIONARY
  5
1FCA
102
{ACAD_REACTORS
330
16B7
102
}
330
16B7
100
AcDbDictionary
281
     1
  3
CTABLESTYLE
350
1FCB
  3
DIMASSOC
350
1FD3
  3
PROJECTNAME
350
1FD4
  0
DICTIONARY
  5
1F5C
102
{ACAD_REACTORS
330
16B7
102
}
330
16B7
100
AcDbDictionary
281
     1
  3
AcmStdDictionary
350
1F67
  3
AMDTSECTSYM_ARROWCOLOR
350
1F8A
  0
DICTIONARY
  5
1F02
102
{ACAD_REACTORS
330
16B7
102
}
330
16B7
100
AcDbDictionary
281
     1
  0
DICTIONARY
  5
1FCC
102
{ACAD_REACTORS
330
16B7
102
}
330
16B7
100
AcDbDictionary
281
     1
  0
LAYOUT
  5
1EFF
102
{ACAD_XDICTIONARY
360
1FD9
102
}
102
{ACAD_REACTORS
330
1EFC
102
}
330
1EFC
100
AcDbPlotSettings
  1

  2
Xerox Document Centre CS50 PS
  4

  6

 40
0.0
 41
0.0
 42
0.0
 43
0.0
 44
0.0
 45
0.0
 46
0.0
 47
0.0
 48
0.0
 49
0.0
140
0.0
141
0.0
142
1.0
143
1.0
 70
   688
 72
     0
 73
     0
 74
     5
  7

 75
    16
147
1.0
148
0.0
149
0.0
100
AcDbLayout
  1
Layout1
 70
     1
 71
     1
 10
0.0
 20
0.0
 11
209.9
 21
296.9
 12
0.0
 22
0.0
 32
0.0
 14
0.0
 24
0.0
 34
0.0
 15
209.9
 25
296.9
 35
0.0
146
0.0
 13
0.0
 23
0.0
 33
0.0
 16
1.0
 26
0.0
 36
0.0
 17
0.0
 27
1.0
 37
0.0
 76
     0
330
16C0
  0
LAYOUT
  5
1EFE
102
{ACAD_XDICTIONARY
360
1FD7
102
}
102
{ACAD_REACTORS
330
1EFC
102
}
330
1EFC
100
AcDbPlotSettings
  1

  2
Xerox Document Centre CS50 PS
  4

  6

 40
0.0
 41
0.0
 42
0.0
 43
0.0
 44
0.0
 45
0.0
 46
0.0
 47
0.0
 48
0.0
 49
0.0
140
0.0
141
0.0
142
1.0
143
1.0
 70
  1712
 72
     0
 73
     0
 74
     0
  7

 75
     0
147
1.0
148
0.0
149
0.0
100
AcDbLayout
  1
Model
 70
     1
 71
     0
 10
0.0
 20
0.0
 11
12.0
 21
9.0
 12
0.0
 22
0.0
 32
0.0
 14
0.0
 24
0.0
 34
0.0
 15
0.0
 25
0.0
 35
0.0
146
0.0
 13
0.0
 23
0.0
 33
0.0
 16
1.0
 26
0.0
 36
0.0
 17
0.0
 27
1.0
 37
0.0
 76
     0
330
16C3
  0
MLINESTYLE
  5
16C7
102
{ACAD_REACTORS
330
16C6
102
}
330
16C6
100
AcDbMlineStyle
  2
STANDARD
 70
     0
  3

 62
   256
 51
90.0
 52
90.0
 71
     2
 49
0.5
 62
   256
  6
BYLAYER
 49
-0.5
 62
   256
  6
BYLAYER
  0
ACDBPLACEHOLDER
  5
1EF7
102
{ACAD_REACTORS
330
1EF6
102
}
330
1EF6
  0
TABLESTYLE
  5
1EFB
102
{ACAD_REACTORS
330
1EFA
102
}
330
1EFA
100
AcDbTableStyle
  3
Standard
 70
     0
 71
     0
 40
1.5
 41
1.5
280
     0
281
     0
  7
STANDARD
140
4.5
170
     2
 62
     0
 63
     7
283
     0
274
    -2
284
     1
 64
     0
275
    -2
285
     1
 65
     0
276
    -2
286
     1
 66
     0
277
    -2
287
     1
 67
     0
278
    -2
288
     1
 68
     0
279
    -2
289
     1
 69
     0
  7
STANDARD
140
6.0
170
     5
 62
     0
 63
     7
283
     0
274
    -2
284
     1
 64
     0
275
    -2
285
     1
 65
     0
276
    -2
286
     1
 66
     0
277
    -2
287
     1
 67
     0
278
    -2
288
     1
 68
     0
279
    -2
289
     1
 69
     0
  7
STANDARD
140
4.5
170
     5
 62
     0
 63
     7
283
     0
274
    -2
284
     1
 64
     0
275
    -2
285
     1
 65
     0
276
    -2
286
     1
 66
     0
277
    -2
287
     1
 67
     0
278
    -2
288
     1
 68
     0
279
    -2
289
     1
 69
     0
  0
DICTIONARYVAR
  5
1FCB
102
{ACAD_REACTORS
330
1FCA
102
}
330
1FCA
100
DictionaryVariables
280
     0
  1
STANDARD
  0
DICTIONARYVAR
  5
1FD3
102
{ACAD_REACTORS
330
1FCA
102
}
330
1FCA
100
DictionaryVariables
280
     0
  1
1
  0
DICTIONARYVAR
  5
1FD4
102
{ACAD_REACTORS
330
1FCA
102
}
330
1FCA
100
DictionaryVariables
280
     0
  1

  0
DICTIONARY
  5
1F67
102
{ACAD_REACTORS
330
1F5C
102
}
330
1F5C
100
AcDbDictionary
281
     1
  0
XRECORD
  5
1F8A
102
{ACAD_REACTORS
330
1F5C
102
}
330
1F5C
100
AcDbXrecord
280
     1
 90
-1023410169
  0
DICTIONARY
  5
1FD9
330
1EFF
100
AcDbDictionary
280
     1
281
     1
  3
ACAD_XREC_ROUNDTRIP
360
1FDA
  0
DICTIONARY
  5
1FD7
330
1EFE
100
AcDbDictionary
280
     1
281
     1
  3
ACAD_XREC_ROUNDTRIP
360
1FD8
  0
XRECORD
  5
1FDA
102
{ACAD_REACTORS
330
1FD9
102
}
330
1FD9
100
AcDbXrecord
280
     1
102
SHADEPLOT
 70
     0
102
SHADEPLOTRESLEVEL
 70
     2
102
SHADEPLOTCUSTOMDPI
 70
   300
  0
XRECORD
  5
1FD8
102
{ACAD_REACTORS
330
1FD7
102
}
330
1FD7
100
AcDbXrecord
280
     1
102
SHADEPLOT
 70
     0
102
SHADEPLOTRESLEVEL
 70
     2
102
SHADEPLOTCUSTOMDPI
 70
   300
  0
ENDSEC
  0
EOF
