  0
SECTION
  2
HEADER
  9
$ACADVER
  1
AC1032
  9
$ACADMAINTVER
 90
       55
  9
$DWGCODEPAGE
  3
ANSI_1252
  9
$LASTSAVEDBY
  1
MAlaie
  9
$REQUIREDVERSIONS
160
                 0
  9
$INSBASE
 10
0.0
 20
0.0
 30
0.0
  9
$EXTMIN
 10
-0.000007169698538
 20
-0.0000013789847344
 30
0.0
  9
$EXTMAX
 10
340.9925329836105
 20
443.4066103628183
 30
0.0
  9
$LIMMIN
 10
0.0
 20
0.0
  9
$LIMMAX
 10
210.0
 20
297.0
  9
$ORTHOMODE
 70
     0
  9
$REGENMODE
 70
     1
  9
$FILLMODE
 70
     1
  9
$QTEXTMODE
 70
     0
  9
$MIRRTEXT
 70
     0
  9
$LTSCALE
 40
1.0
  9
$ATTMODE
 70
     1
  9
$TEXTSIZE
 40
2.5
  9
$TRACEWID
 40
1.0
  9
$TEXTSTYLE
  7
Annotative
  9
$CLAYER
  8
AM_0
  9
$CELTYPE
  6
ByLayer
  9
$CECOLOR
 62
   256
  9
$CELTSCALE
 40
1.0
  9
$DISPSILH
 70
     0
  9
$DIMSCALE
 40
1.0
  9
$DIMASZ
 40
3.5
  9
$DIMEXO
 40
1.0
  9
$DIMDLI
 40
10.0
  9
$DIMRND
 40
0.0
  9
$DIMDLE
 40
0.0
  9
$DIMEXE
 40
1.0
  9
$DIMTP
 40
0.1
  9
$DIMTM
 40
0.1
  9
$DIMTXT
 40
3.5
  9
$DIMCEN
 40
0.0
  9
$DIMTSZ
 40
0.0
  9
$DIMTOL
 70
     0
  9
$DIMLIM
 70
     0
  9
$DIMTIH
 70
     0
  9
$DIMTOH
 70
     0
  9
$DIMSE1
 70
     0
  9
$DIMSE2
 70
     0
  9
$DIMTAD
 70
     1
  9
$DIMZIN
 70
     8
  9
$DIMBLK
  1

  9
$DIMASO
 70
     1
  9
$DIMSHO
 70
     1
  9
$DIMPOST
  1

  9
$DIMAPOST
  1
"
  9
$DIMALT
 70
     0
  9
$DIMALTD
 70
     2
  9
$DIMALTF
 40
0.0393701
  9
$DIMLFAC
 40
1.0
  9
$DIMTOFL
 70
     1
  9
$DIMTVP
 40
0.0
  9
$DIMTIX
 70
     0
  9
$DIMSOXD
 70
     0
  9
$DIMSAH
 70
     0
  9
$DIMBLK1
  1

  9
$DIMBLK2
  1

  9
$DIMSTYLE
  2
AM_ISO
  9
$DIMCLRD
 70
   256
  9
$DIMCLRE
 70
   256
  9
$DIMCLRT
 70
     2
  9
$DIMTFAC
 40
0.71
  9
$DIMGAP
 40
1.5
  9
$DIMJUST
 70
     0
  9
$DIMSD1
 70
     0
  9
$DIMSD2
 70
     0
  9
$DIMTOLJ
 70
     0
  9
$DIMTZIN
 70
     8
  9
$DIMALTZ
 70
     0
  9
$DIMALTTZ
 70
     0
  9
$DIMUPT
 70
     0
  9
$DIMDEC
 70
     2
  9
$DIMTDEC
 70
     3
  9
$DIMALTU
 70
     2
  9
$DIMALTTD
 70
     2
  9
$DIMTXSTY
  7
STANDARD
  9
$DIMAUNIT
 70
     0
  9
$DIMADEC
 70
     0
  9
$DIMALTRND
 40
0.0
  9
$DIMAZIN
 70
     2
  9
$DIMDSEP
 70
    46
  9
$DIMATFIT
 70
     3
  9
$DIMFRAC
 70
     0
  9
$DIMLDRBLK
  1

  9
$DIMLUNIT
 70
     2
  9
$DIMLWD
 70
    -1
  9
$DIMLWE
 70
    -1
  9
$DIMTMOVE
 70
     0
  9
$DIMFXL
 40
1.0
  9
$DIMFXLON
 70
     0
  9
$DIMJOGANG
 40
0.7853981633974483
  9
$DIMTFILL
 70
     0
  9
$DIMTFILLCLR
 70
     0
  9
$DIMARCSYM
 70
     1
  9
$DIMLTYPE
  6
ByBlock
  9
$DIMLTEX1
  6
ByBlock
  9
$DIMLTEX2
  6
ByBlock
  9
$DIMTXTDIRECTION
 70
     0
  9
$LUNITS
 70
     2
  9
$LUPREC
 70
     2
  9
$SKETCHINC
 40
1.0
  9
$FILLETRAD
 40
2.5
  9
$AUNITS
 70
     0
  9
$AUPREC
 70
     0
  9
$MENU
  1
.
  9
$ELEVATION
 40
0.0
  9
$PELEVATION
 40
0.0
  9
$THICKNESS
 40
0.0
  9
$LIMCHECK
 70
     0
  9
$CHAMFERA
 40
2.5
  9
$CHAMFERB
 40
2.5
  9
$CHAMFERC
 40
20.0
  9
$CHAMFERD
 40
0.0
  9
$SKPOLY
 70
     0
  9
$TDCREATE
 40
2459327.568275463
  9
$TDUCREATE
 40
2459327.484942130
  9
$TDUPDATE
 40
2459327.568784722
  9
$TDUUPDATE
 40
2459327.485451389
  9
$TDINDWG
 40
0.0005208333
  9
$TDUSRTIMER
 40
0.0005092593
  9
$USRTIMER
 70
     1
  9
$ANGBASE
 50
0.0
  9
$ANGDIR
 70
     0
  9
$PDMODE
 70
     0
  9
$PDSIZE
 40
0.0
  9
$PLINEWID
 40
0.0
  9
$SPLFRAME
 70
     0
  9
$SPLINETYPE
 70
     6
  9
$SPLINESEGS
 70
     8
  9
$HANDSEED
  5
F24
  9
$SURFTAB1
 70
     6
  9
$SURFTAB2
 70
     6
  9
$SURFTYPE
 70
     6
  9
$SURFU
 70
     6
  9
$SURFV
 70
     6
  9
$UCSBASE
  2

  9
$UCSNAME
  2

  9
$UCSORG
 10
0.0
 20
0.0
 30
0.0
  9
$UCSXDIR
 10
1.0
 20
0.0
 30
0.0
  9
$UCSYDIR
 10
0.0
 20
1.0
 30
0.0
  9
$UCSORTHOREF
  2

  9
$UCSORTHOVIEW
 70
     0
  9
$UCSORGTOP
 10
0.0
 20
0.0
 30
0.0
  9
$UCSORGBOTTOM
 10
0.0
 20
0.0
 30
0.0
  9
$UCSORGLEFT
 10
0.0
 20
0.0
 30
0.0
  9
$UCSORGRIGHT
 10
0.0
 20
0.0
 30
0.0
  9
$UCSORGFRONT
 10
0.0
 20
0.0
 30
0.0
  9
$UCSORGBACK
 10
0.0
 20
0.0
 30
0.0
  9
$PUCSBASE
  2

  9
$PUCSNAME
  2

  9
$PUCSORG
 10
0.0
 20
0.0
 30
0.0
  9
$PUCSXDIR
 10
1.0
 20
0.0
 30
0.0
  9
$PUCSYDIR
 10
0.0
 20
1.0
 30
0.0
  9
$PUCSORTHOREF
  2

  9
$PUCSORTHOVIEW
 70
     0
  9
$PUCSORGTOP
 10
0.0
 20
0.0
 30
0.0
  9
$PUCSORGBOTTOM
 10
0.0
 20
0.0
 30
0.0
  9
$PUCSORGLEFT
 10
0.0
 20
0.0
 30
0.0
  9
$PUCSORGRIGHT
 10
0.0
 20
0.0
 30
0.0
  9
$PUCSORGFRONT
 10
0.0
 20
0.0
 30
0.0
  9
$PUCSORGBACK
 10
0.0
 20
0.0
 30
0.0
  9
$USERI1
 70
     0
  9
$USERI2
 70
     0
  9
$USERI3
 70
     0
  9
$USERI4
 70
     0
  9
$USERI5
 70
     0
  9
$USERR1
 40
0.0
  9
$USERR2
 40
0.0
  9
$USERR3
 40
0.0
  9
$USERR4
 40
0.0
  9
$USERR5
 40
0.0
  9
$WORLDVIEW
 70
     1
  9
$SHADEDGE
 70
     3
  9
$SHADEDIF
 70
    70
  9
$TILEMODE
 70
     1
  9
$MAXACTVP
 70
    64
  9
$PINSBASE
 10
0.0
 20
0.0
 30
0.0
  9
$PLIMCHECK
 70
     0
  9
$PEXTMIN
 10
1.000000000000000E+20
 20
1.000000000000000E+20
 30
1.000000000000000E+20
  9
$PEXTMAX
 10
-1.000000000000000E+20
 20
-1.000000000000000E+20
 30
-1.000000000000000E+20
  9
$PLIMMIN
 10
0.0
 20
0.0
  9
$PLIMMAX
 10
420.0
 20
297.0
  9
$UNITMODE
 70
     0
  9
$VISRETAIN
 70
     1
  9
$PLINEGEN
 70
     0
  9
$PSLTSCALE
 70
     1
  9
$TREEDEPTH
 70
  3020
  9
$CMLSTYLE
  2
Standard
  9
$CMLJUST
 70
     0
  9
$CMLSCALE
 40
20.0
  9
$PROXYGRAPHICS
 70
     1
  9
$MEASUREMENT
 70
     1
  9
$CELWEIGHT
370
    -1
  9
$ENDCAPS
280
     0
  9
$JOINSTYLE
280
     0
  9
$LWDISPLAY
290
     0
  9
$INSUNITS
 70
     4
  9
$HYPERLINKBASE
  1

  9
$STYLESHEET
  1

  9
$XEDIT
290
     1
  9
$CEPSNTYPE
380
     0
  9
$PSTYLEMODE
290
     1
  9
$FINGERPRINTGUID
  2
{162118A9-11AA-1949-956F-DDBAA30B68E3}
  9
$VERSIONGUID
  2
{FA1B6847-EC61-154F-A33E-8272953B7156}
  9
$EXTNAMES
290
     1
  9
$PSVPSCALE
 40
0.0
  9
$OLESTARTUP
290
     0
  9
$SORTENTS
280
   127
  9
$INDEXCTL
280
     0
  9
$HIDETEXT
280
     0
  9
$XCLIPFRAME
280
     0
  9
$HALOGAP
280
     0
  9
$OBSCOLOR
 70
   257
  9
$OBSLTYPE
280
     0
  9
$INTERSECTIONDISPLAY
280
     0
  9
$INTERSECTIONCOLOR
 70
   257
  9
$DIMASSOC
280
     2
  9
$PROJECTNAME
  1

  9
$CAMERADISPLAY
290
     0
  9
$LENSLENGTH
 40
50.0
  9
$CAMERAHEIGHT
 40
0.0
  9
$STEPSPERSEC
 40
2.0
  9
$STEPSIZE
 40
6.0
  9
$3DDWFPREC
 40
2.0
  9
$PSOLWIDTH
 40
0.25
  9
$PSOLHEIGHT
 40
4.0
  9
$LOFTANG1
 40
1.570796326794896
  9
$LOFTANG2
 40
1.570796326794896
  9
$LOFTMAG1
 40
0.0
  9
$LOFTMAG2
 40
0.0
  9
$LOFTPARAM
 70
     7
  9
$LOFTNORMALS
280
     1
  9
$LATITUDE
 40
37.795
  9
$LONGITUDE
 40
-122.394
  9
$NORTHDIRECTION
 40
0.0
  9
$TIMEZONE
 70
 -8000
  9
$LIGHTGLYPHDISPLAY
280
     1
  9
$TILEMODELIGHTSYNCH
280
     1
  9
$CMATERIAL
347
EC
  9
$SOLIDHIST
280
     0
  9
$SHOWHIST
280
     1
  9
$DWFFRAME
280
     2
  9
$DGNFRAME
280
     0
  9
$REALWORLDSCALE
290
     1
  9
$INTERFERECOLOR
 62
     1
  9
$INTERFEREOBJVS
345
F9
  9
$INTERFEREVPVS
346
F6
  9
$CSHADOW
280
     0
  9
$SHADOWPLANELOCATION
 40
0.0
  0
ENDSEC
  0
SECTION
  2
CLASSES
  0
CLASS
  1
ACDBDICTIONARYWDFLT
  2
AcDbDictionaryWithDefault
  3
ObjectDBX Classes
 90
        0
 91
        1
280
     0
281
     0
  0
CLASS
  1
DICTIONARYVAR
  2
AcDbDictionaryVar
  3
ObjectDBX Classes
 90
        0
 91
       15
280
     0
281
     0
  0
CLASS
  1
TABLESTYLE
  2
AcDbTableStyle
  3
ObjectDBX Classes
 90
     4095
 91
        1
280
     0
281
     0
  0
CLASS
  1
MATERIAL
  2
AcDbMaterial
  3
ObjectDBX Classes
 90
     1153
 91
        3
280
     0
281
     0
  0
CLASS
  1
VISUALSTYLE
  2
AcDbVisualStyle
  3
ObjectDBX Classes
 90
     4095
 91
       26
280
     0
281
     0
  0
CLASS
  1
SCALE
  2
AcDbScale
  3
ObjectDBX Classes
 90
     1153
 91
       17
280
     0
281
     0
  0
CLASS
  1
MLEADERSTYLE
  2
AcDbMLeaderStyle
  3
ACDB_MLEADERSTYLE_CLASS
 90
     4095
 91
        2
280
     0
281
     0
  0
CLASS
  1
CELLSTYLEMAP
  2
AcDbCellStyleMap
  3
ObjectDBX Classes
 90
     1152
 91
        1
280
     0
281
     0
  0
CLASS
  1
EXACXREFPANELOBJECT
  2
ExAcXREFPanelObject
  3
EXAC_ESW
 90
     1025
 91
        0
280
     0
281
     0
  0
CLASS
  1
NPOCOLLECTION
  2
AcDbImpNonPersistentObjectsCollection
  3
ObjectDBX Classes
 90
     1153
 91
        0
280
     0
281
     0
  0
CLASS
  1
LAYER_INDEX
  2
AcDbLayerIndex
  3
ObjectDBX Classes
 90
        0
 91
        0
280
     0
281
     0
  0
CLASS
  1
SPATIAL_INDEX
  2
AcDbSpatialIndex
  3
ObjectDBX Classes
 90
        0
 91
        0
280
     0
281
     0
  0
CLASS
  1
IDBUFFER
  2
AcDbIdBuffer
  3
ObjectDBX Classes
 90
        0
 91
        0
280
     0
281
     0
  0
CLASS
  1
ACDBSECTIONVIEWSTYLE
  2
AcDbSectionViewStyle
  3
ObjectDBX Classes
 90
     1025
 91
        3
280
     0
281
     0
  0
CLASS
  1
ACDBDETAILVIEWSTYLE
  2
AcDbDetailViewStyle
  3
ObjectDBX Classes
 90
     1025
 91
        3
280
     0
281
     0
  0
CLASS
  1
ACME_DOCUMENT
  2
AcMeDbDoc
  3
AcMeServices
 90
     1024
 91
        2
280
     0
281
     0
  0
CLASS
  1
AMGSETTINGSOBJ
  2
AmgSettingsObj
  3
"AcadM|Product Description: AutoCAD Mechanical|Company: Autodesk, Inc."
 90
     1024
 91
        4
280
     0
281
     0
  0
CLASS
  1
ACMESCOPE
  2
AcMeScope
  3
AcMeServices
 90
     1024
 91
        1
280
     0
281
     0
  0
CLASS
  1
ACMECOMMANDHISTORY
  2
AcMeCommandHistory
  3
AcMeServices
 90
     1024
 91
        1
280
     0
281
     0
  0
CLASS
  1
ACIMSYSVARMAN
  2
AcImSysVarManager
  3
AcMeServices
 90
     1024
 91
        4
280
     0
281
     0
  0
CLASS
  1
ACIMINTSYSVAR
  2
AcImIntSysVar
  3
AcMeServices
 90
     1024
 91
       27
280
     0
281
     0
  0
CLASS
  1
ACMESTATEMGR
  2
AcMeStateMgr
  3
AcMeServices
 90
     1024
 91
        1
280
     0
281
     0
  0
CLASS
  1
ACDBENTITYCACHE
  2
AcMeEntityCache
  3
AcMeServices
 90
     1024
 91
        1
280
     0
281
     0
  0
CLASS
  1
ACGREFMASTER
  2
AcGrefMaster
  3
AcAttribServices
 90
     1024
 91
        1
280
     0
281
     0
  0
CLASS
  1
ACME_DATABASE
  2
AcMeDbDatabase
  3
AcMeServices
 90
     1024
 91
        2
280
     0
281
     0
  0
CLASS
  1
ACRFINSADJUSTERMGR
  2
AcRfInsAdjusterMgr
  3
AcMeServices
 90
     1024
 91
        1
280
     0
281
     0
  0
CLASS
  1
ACGREFACADMASTER
  2
AcGrefacadMaster
  3
AcGrefServices
 90
     1024
 91
        1
280
     0
281
     0
  0
CLASS
  1
AMDTMENUSTATEMGR
  2
AmdtMenuStateMgr
  3
McadcomServices
 90
     1024
 91
        1
280
     0
281
     0
  0
CLASS
  1
AMDTMCOMMENUSTATE
  2
AmdtMcomMenuState
  3
McadcomServices
 90
     1024
 91
        1
280
     0
281
     0
  0
CLASS
  1
AMIMASTER
  2
AmiMaster
  3
AmiServices
 90
     1024
 91
        1
280
     0
281
     0
  0
CLASS
  1
MAPIAMMOUDLE
  2
MApiAmModule
  3
MApiAmServices
 90
     1024
 91
        1
280
     0
281
     0
  0
CLASS
  1
ACIMSTRSYSVAR
  2
AcImStrSysVar
  3
AcMeServices
 90
     1024
 91
        5
280
     0
281
     0
  0
CLASS
  1
AMDTAMMENUSTATE
  2
AmdtAmMenuState
  3
DesignerAssemblies_arx
 90
     1024
 91
        1
280
     0
281
     0
  0
CLASS
  1
ACAMPROJECT
  2
AcAmProject
  3
DesignerAssemblies
 90
     1024
 91
        1
280
     0
281
     0
  0
CLASS
  1
ACAMGRCOMPDEF
  2
AcAmGrCompDef
  3
DesignerAssemblies
 90
     1024
 91
        1
280
     0
281
     0
  0
CLASS
  1
ACAMCOMPDEF
  2
AcAmCompDef
  3
DesignerAssemblies
 90
     1024
 91
        1
280
     0
281
     0
  0
CLASS
  1
ACAMCOMPDEFMGR
  2
AcAmCompDefMgr
  3
DesignerAssemblies
 90
     1024
 91
        1
280
     0
281
     0
  0
CLASS
  1
AMCONTEXTMGR
  2
AcAmContextMgr
  3
DesignerAssemblies
 90
     1024
 91
        1
280
     0
281
     0
  0
CLASS
  1
ACAMCONTEXTMODELER
  2
AcAmContextModeler
  3
DesignerAssemblies
 90
     1024
 91
        1
280
     0
281
     0
  0
CLASS
  1
ACMDATADICTIONARY
  2
AcmDataDictionary
  3
"AcmSymBB|Product Description: AutoCAD Mechanical|Company: Autodesk, Inc."
 90
     1024
 91
        1
280
     0
281
     0
  0
CLASS
  1
ACAMGRCOMPDEFSET
  2
AcAmGrCompDefSet
  3
DesignerAssemblies
 90
     1024
 91
        1
280
     0
281
     0
  0
CLASS
  1
AMDTBROWSERDBTAB
  2
AmdtBrowserDbTab
  3
McadcomServices
 90
     1024
 91
        1
280
     0
281
     0
  0
CLASS
  1
CBROWSERAPPOBJECT
  2
CBrowserAppObject
  3
McadcomServices
 90
     1024
 91
        2
280
     0
281
     0
  0
CLASS
  1
DM_PLACEHOLDER
  2
AcDmSelsetPlaceholder
  3
McadcomServices
 90
     1024
 91
        1
280
     0
281
     0
  0
CLASS
  1
ACMSTANDARDISO
  2
AcmStandardISO
  3
"Amdt_StdImp|Product Description: AutoCAD Mechanical|Company: Autodesk, Inc."
 90
     1024
 91
        1
280
     0
281
     0
  0
CLASS
  1
AMDTEDGESTANDARDISO13715
  2
AmdtEdgeStdISO13715
  3
"Amdt_StdImp|Product Description: AutoCAD Mechanical|Company: Autodesk, Inc."
 90
     1024
 91
        1
280
     0
281
     0
  0
CLASS
  1
ACMSURFSTANDARDISO2002
  2
AcmSurfTextStdISO2002
  3
"Amdt_StdImp|Product Description: AutoCAD Mechanical|Company: Autodesk, Inc."
 90
     1024
 91
        1
280
     0
281
     0
  0
CLASS
  1
ACMFCFSTANDARDISO2012
  2
AcmFCFStdISO2012
  3
"Amdt_StdImp|Product Description: AutoCAD Mechanical|Company: Autodesk, Inc."
 90
     1024
 91
        1
280
     0
281
     0
  0
CLASS
  1
ACMWELDSTANDARDISO
  2
AcmWeldingStdISO
  3
"Amdt_StdImp|Product Description: AutoCAD Mechanical|Company: Autodesk, Inc."
 90
     1024
 91
        1
280
     0
281
     0
  0
CLASS
  1
ACMIDSTANDARDISO2012
  2
AcmIdStdISO2012
  3
"Amdt_StdImp|Product Description: AutoCAD Mechanical|Company: Autodesk, Inc."
 90
     1024
 91
        1
280
     0
281
     0
  0
CLASS
  1
ACMDATUMSTANDARDISO2012
  2
AcmDatumStdISO2012
  3
"Amdt_StdImp|Product Description: AutoCAD Mechanical|Company: Autodesk, Inc."
 90
     1024
 91
        1
280
     0
281
     0
  0
CLASS
  1
ACMBOMSTANDARDISO
  2
AcmBOMStdISO
  3
"Amdt_StdImp|Product Description: AutoCAD Mechanical|Company: Autodesk, Inc."
 90
     1024
 91
        1
280
     0
281
     0
  0
CLASS
  1
ACMDETAILSTANDARDISO
  2
AmdtDetailSymStdISO
  3
"Amdt_StdImp|Product Description: AutoCAD Mechanical|Company: Autodesk, Inc."
 90
     1024
 91
        1
280
     0
281
     0
  0
CLASS
  1
ACMSECTIONSTANDARDISO2001
  2
AmdtSectionSymStdISO2001
  3
"Amdt_StdImp|Product Description: AutoCAD Mechanical|Company: Autodesk, Inc."
 90
     1024
 91
        1
280
     0
281
     0
  0
CLASS
  1
ACMCENTERLINESTANDARDISO
  2
AmdtCenterLineStdISO
  3
"Amdt_StdImp|Product Description: AutoCAD Mechanical|Company: Autodesk, Inc."
 90
     1024
 91
        1
280
     0
281
     0
  0
CLASS
  1
ACMTHREADLINESTANDARDISO
  2
AmdtThreadLineStdISO
  3
"Amdt_StdImp|Product Description: AutoCAD Mechanical|Company: Autodesk, Inc."
 90
     1024
 91
        1
280
     0
281
     0
  0
CLASS
  1
ACMNOTESTANDARDISO
  2
AmdtNoteStdISO
  3
"Amdt_StdImp|Product Description: AutoCAD Mechanical|Company: Autodesk, Inc."
 90
     1024
 91
        1
280
     0
281
     0
  0
CLASS
  1
ACMTAPERSTANDARDISO
  2
AcmTaperStdISO
  3
"Amdt_StdImp|Product Description: AutoCAD Mechanical|Company: Autodesk, Inc."
 90
     1024
 91
        1
280
     0
281
     0
  0
CLASS
  1
ACMANOOTATIONVIEWSTANDARDISO
  2
AmdtAnViewStdISO
  3
"Amdt_StdImp|Product Description: AutoCAD Mechanical|Company: Autodesk, Inc."
 90
     1024
 91
        1
280
     0
281
     0
  0
CLASS
  1
ACAMGLAYSTD
  2
AcAmgLayStd
  3
"AmgLay|Product Description: AutoCAD Mechanical|Company: Autodesk, Inc."
 90
     1024
 91
        3
280
     0
281
     0
  0
CLASS
  1
ACAMGDIMSTD
  2
AcAmgDimStd
  3
"AmgDim|Product Description: AutoCAD Mechanical|Company: Autodesk, Inc."
 90
     1024
 91
        3
280
     0
281
     0
  0
CLASS
  1
AMGOBJPROPCFG
  2
AmgObjPropCfg
  3
"AmgLay|Product Description: AutoCAD Mechanical|Company: Autodesk, Inc."
 90
     1024
 91
        1
280
     0
281
     0
  0
CLASS
  1
ACAMGHOLECHARTSTDISO
  2
AcAmgHoleChartStdISO
  3
"AmgDim" "Product Description: AutoCAD Mechanical|Company: Autodesk, Inc."
 90
     1024
 91
        1
280
     0
281
     0
  0
CLASS
  1
ACAMGTITLESTD
  2
AcAmgTitleStd
  3
"AmgTitle|Product Description: AutoCAD Mechanical|Company: Autodesk, Inc."
 90
     1024
 91
        3
280
     0
281
     0
  0
CLASS
  1
ACMSECTIONSTANDARDCUSTOM
  2
AmdtSectionSymStdCustom
  3
"Amdt_StdImp|Product Description: AutoCAD Mechanical|Company: Autodesk, Inc."
 90
     1024
 91
        6
280
     0
281
     0
  0
CLASS
  1
ACMDETAILTANDARDCUSTOM
  2
AmdtDetailSymStdCustom
  3
"Amdt_StdImp|Product Description: AutoCAD Mechanical|Company: Autodesk, Inc."
 90
     1024
 91
        6
280
     0
281
     0
  0
CLASS
  1
FIELD
  2
AcDbField
  3
ObjectDBX Classes
 90
     1152
 91
        3
280
     0
281
     0
  0
CLASS
  1
FIELDLIST
  2
AcDbFieldList
  3
ObjectDBX Classes
 90
     1152
 91
        1
280
     0
281
     0
  0
CLASS
  1
AMDTNOTETEMPLATEDB
  2
AmdtNoteTemplateDB
  3
"AcmSymBB" "Product Description: AutoCAD Mechanical|Company: Autodesk, Inc."
 90
     1024
 91
       20
280
     0
281
     0
  0
CLASS
  1
AMDTEDGELIBRARY
  2
AmdtEdgeLibrary
  3
"AcmSymBB|Product Description: AutoCAD Mechanical|Company: Autodesk, Inc."
 90
     1024
 91
        1
280
     0
281
     0
  0
CLASS
  1
AMDTEDGELIBOBJECT
  2
AmdtEdgeLibObject
  3
"AcmSymBB|Product Description: AutoCAD Mechanical|Company: Autodesk, Inc."
 90
     1024
 91
        3
280
     0
281
     0
  0
CLASS
  1
AMDTFCFLIBRARY
  2
AmdtFCFLibrary
  3
"AcmSymBB|Product Description: AutoCAD Mechanical|Company: Autodesk, Inc."
 90
     1024
 91
        1
280
     0
281
     0
  0
CLASS
  1
AMDTFCFLIBOBJECT
  2
AmdtFCFLibObject
  3
"AcmSymBB|Product Description: AutoCAD Mechanical|Company: Autodesk, Inc."
 90
     1024
 91
        9
280
     0
281
     0
  0
CLASS
  1
AMDTSURFTEXTLIBRARY
  2
AmdtSurfTextLibrary
  3
"AcmSymBB|Product Description: AutoCAD Mechanical|Company: Autodesk, Inc."
 90
     1024
 91
        1
280
     0
281
     0
  0
CLASS
  1
AMDTSURFTEXTLIBOBJECT
  2
AmdtSurfTextLibObject
  3
"AcmSymBB|Product Description: AutoCAD Mechanical|Company: Autodesk, Inc."
 90
     1024
 91
        3
280
     0
281
     0
  0
CLASS
  1
AMDTWELDINGLIBRARY
  2
AmdtWeldingLibrary
  3
"AcmSymBB|Product Description: AutoCAD Mechanical|Company: Autodesk, Inc."
 90
     1024
 91
        1
280
     0
281
     0
  0
CLASS
  1
AMDTWELDINGLIBOBJECT
  2
AmdtWeldingLibObject
  3
"AcmSymBB|Product Description: AutoCAD Mechanical|Company: Autodesk, Inc."
 90
     1024
 91
        3
280
     0
281
     0
  0
CLASS
  1
ACDBVIEWREPSTANDARD
  2
AcDbViewRepStandard
  3
AcModelDocObj
 90
      129
 91
        1
280
     0
281
     0
  0
CLASS
  1
CAMSSTRUCTBTNSTATE
  2
StructBtnState
  3
DesignerAssemblies_arx
 90
     1024
 91
        1
280
     0
281
     0
  0
CLASS
  1
ACAMGFILTERDAT
  2
AcAmgFilterDat
  3
"AcadM|Product Description: AutoCAD Mechanical|Company: Autodesk, Inc."
 90
     1024
 91
        6
280
     0
281
     0
  0
CLASS
  1
PLOTSETTINGS
  2
AcDbPlotSettings
  3
ObjectDBX Classes
 90
        0
 91
       11
280
     0
281
     0
  0
CLASS
  1
ACDB_TEXTOBJECTCONTEXTDATA_CLASS
  2
AcDbTextObjectContextData
  3
ObjectDBX Classes
 90
     1153
 91
        0
280
     0
281
     0
  0
CLASS
  1
SORTENTSTABLE
  2
AcDbSortentsTable
  3
ObjectDBX Classes
 90
        0
 91
        0
280
     0
281
     0
  0
CLASS
  1
ACMSTANDARDANSI
  2
AcmStandardANSI
  3
"Amdt_StdImp|Product Description: AutoCAD Mechanical|Company: Autodesk, Inc."
 90
     1024
 91
        1
280
     0
281
     0
  0
CLASS
  1
ACMSURFSTANDARDANSI
  2
AcmSurfTextStdANSI
  3
"Amdt_StdImp|Product Description: AutoCAD Mechanical|Company: Autodesk, Inc."
 90
     1024
 91
        1
280
     0
281
     0
  0
CLASS
  1
ACMFCFSTANDARDANSI
  2
AcmFCFStdANSI
  3
"Amdt_StdImp|Product Description: AutoCAD Mechanical|Company: Autodesk, Inc."
 90
     1024
 91
        1
280
     0
281
     0
  0
CLASS
  1
ACMWELDSTANDARDANSI
  2
AcmWeldingStdANSI
  3
"Amdt_StdImp|Product Description: AutoCAD Mechanical|Company: Autodesk, Inc."
 90
     1024
 91
        1
280
     0
281
     0
  0
CLASS
  1
ACMIDSTANDARDANSI
  2
AcmIdStdANSI
  3
"Amdt_StdImp|Product Description: AutoCAD Mechanical|Company: Autodesk, Inc."
 90
     1024
 91
        1
280
     0
281
     0
  0
CLASS
  1
ACMDATUMSTANDARDANSI
  2
AcmDatumStdANSI
  3
"Amdt_StdImp|Product Description: AutoCAD Mechanical|Company: Autodesk, Inc."
 90
     1024
 91
        1
280
     0
281
     0
  0
CLASS
  1
ACMBOMSTANDARDANSI
  2
AcmBOMStdANSI
  3
"Amdt_StdImp|Product Description: AutoCAD Mechanical|Company: Autodesk, Inc."
 90
     1024
 91
        1
280
     0
281
     0
  0
CLASS
  1
ACMDETAILSTANDARDANSI
  2
AmdtDetailSymStdANSI
  3
"Amdt_StdImp|Product Description: AutoCAD Mechanical|Company: Autodesk, Inc."
 90
     1024
 91
        0
280
     0
281
     0
  0
CLASS
  1
ACMSECTIONSTANDARDANSI
  2
AmdtSectionSymStdANSI
  3
"Amdt_StdImp|Product Description: AutoCAD Mechanical|Company: Autodesk, Inc."
 90
     1024
 91
        0
280
     0
281
     0
  0
CLASS
  1
ACMCENTERLINESTANDARDANSI
  2
AmdtCenterLineStdANSI
  3
"Amdt_StdImp|Product Description: AutoCAD Mechanical|Company: Autodesk, Inc."
 90
     1024
 91
        1
280
     0
281
     0
  0
CLASS
  1
ACMTHREADLINESTANDARDANSI
  2
AmdtThreadLineStdANSI
  3
"Amdt_StdImp|Product Description: AutoCAD Mechanical|Company: Autodesk, Inc."
 90
     1024
 91
        1
280
     0
281
     0
  0
CLASS
  1
ACMNOTESTANDARDANSI
  2
AmdtNoteStdANSI
  3
"Amdt_StdImp|Product Description: AutoCAD Mechanical|Company: Autodesk, Inc."
 90
     1024
 91
        1
280
     0
281
     0
  0
CLASS
  1
ACMTAPERSTANDARDANSI
  2
AcmTaperStdANSI
  3
"Amdt_StdImp|Product Description: AutoCAD Mechanical|Company: Autodesk, Inc."
 90
     1024
 91
        1
280
     0
281
     0
  0
CLASS
  1
ACMANOOTATIONVIEWSTANDARDANSI
  2
AmdtAnViewStdANSI
  3
"Amdt_StdImp|Product Description: AutoCAD Mechanical|Company: Autodesk, Inc."
 90
     1024
 91
        1
280
     0
281
     0
  0
CLASS
  1
ACAMGHOLECHARTSTDANSI
  2
AcAmgHoleChartStdANSI
  3
"AmgDim" "Product Description: AutoCAD Mechanical|Company: Autodesk, Inc."
 90
     1024
 91
        1
280
     0
281
     0
  0
CLASS
  1
ACDB_MTEXTOBJECTCONTEXTDATA_CLASS
  2
AcDbMTextObjectContextData
  3
ObjectDBX Classes
 90
     1153
 91
        0
280
     0
281
     0
  0
CLASS
  1
ACDB_MTEXTATTRIBUTEOBJECTCONTEXTDATA_CLASS
  2
AcDbMTextAttributeObjectContextData
  3
ObjectDBX Classes
 90
     1153
 91
        0
280
     0
281
     0
  0
CLASS
  1
ACMSTANDARDDIN
  2
AcmStandardDIN
  3
"Amdt_StdImp|Product Description: AutoCAD Mechanical|Company: Autodesk, Inc."
 90
     1024
 91
        1
280
     0
281
     0
  0
CLASS
  1
AMDTEDGESTANDARDDIN
  2
AmdtEdgeStdDIN
  3
"Amdt_StdImp|Product Description: AutoCAD Mechanical|Company: Autodesk, Inc."
 90
     1024
 91
        1
280
     0
281
     0
  0
CLASS
  1
ACMSURFSTANDARDDIN
  2
AcmSurfTextStdDIN
  3
"Amdt_StdImp|Product Description: AutoCAD Mechanical|Company: Autodesk, Inc."
 90
     1024
 91
        1
280
     0
281
     0
  0
CLASS
  1
ACMFCFSTANDARDDIN
  2
AcmFCFStdDIN
  3
"Amdt_StdImp|Product Description: AutoCAD Mechanical|Company: Autodesk, Inc."
 90
     1024
 91
        1
280
     0
281
     0
  0
CLASS
  1
ACMWELDSTANDARDDIN
  2
AcmWeldingStdDIN
  3
"Amdt_StdImp|Product Description: AutoCAD Mechanical|Company: Autodesk, Inc."
 90
     1024
 91
        1
280
     0
281
     0
  0
CLASS
  1
ACMIDSTANDARDDIN
  2
AcmIdStdDIN
  3
"Amdt_StdImp|Product Description: AutoCAD Mechanical|Company: Autodesk, Inc."
 90
     1024
 91
        1
280
     0
281
     0
  0
CLASS
  1
ACMDATUMSTANDARDDIN
  2
AcmDatumStdDIN
  3
"Amdt_StdImp|Product Description: AutoCAD Mechanical|Company: Autodesk, Inc."
 90
     1024
 91
        1
280
     0
281
     0
  0
CLASS
  1
ACMBOMSTANDARDDIN
  2
AcmBOMStdDIN
  3
"Amdt_StdImp|Product Description: AutoCAD Mechanical|Company: Autodesk, Inc."
 90
     1024
 91
        1
280
     0
281
     0
  0
CLASS
  1
ACMDETAILSTANDARDDIN
  2
AmdtDetailSymStdDIN
  3
"Amdt_StdImp|Product Description: AutoCAD Mechanical|Company: Autodesk, Inc."
 90
     1024
 91
        0
280
     0
281
     0
  0
CLASS
  1
ACMSECTIONSTANDARDDIN
  2
AmdtSectionSymStdDIN
  3
"Amdt_StdImp|Product Description: AutoCAD Mechanical|Company: Autodesk, Inc."
 90
     1024
 91
        0
280
     0
281
     0
  0
CLASS
  1
ACMCENTERLINESTANDARDDIN
  2
AmdtCenterLineStdDIN
  3
"Amdt_StdImp|Product Description: AutoCAD Mechanical|Company: Autodesk, Inc."
 90
     1024
 91
        1
280
     0
281
     0
  0
CLASS
  1
ACMTHREADLINESTANDARDDIN
  2
AmdtThreadLineStdDIN
  3
"Amdt_StdImp|Product Description: AutoCAD Mechanical|Company: Autodesk, Inc."
 90
     1024
 91
        1
280
     0
281
     0
  0
CLASS
  1
ACMNOTESTANDARDDIN
  2
AmdtNoteStdDIN
  3
"Amdt_StdImp|Product Description: AutoCAD Mechanical|Company: Autodesk, Inc."
 90
     1024
 91
        1
280
     0
281
     0
  0
CLASS
  1
ACMTAPERSTANDARDDIN
  2
AcmTaperStdDIN
  3
"Amdt_StdImp|Product Description: AutoCAD Mechanical|Company: Autodesk, Inc."
 90
     1024
 91
        1
280
     0
281
     0
  0
CLASS
  1
ACMANOOTATIONVIEWSTANDARDDIN
  2
AmdtAnViewStdDIN
  3
"Amdt_StdImp|Product Description: AutoCAD Mechanical|Company: Autodesk, Inc."
 90
     1024
 91
        1
280
     0
281
     0
  0
CLASS
  1
AM_DRAWING_MGR
  2
AcDmDwgMgr
  3
AcMechDwgViewMgmt
 90
     1024
 91
        1
280
     0
281
     0
  0
CLASS
  1
AM_DWG_DOCUMENT
  2
AcDmDwgDocument
  3
AcMechDwgViewMgmt
 90
     1024
 91
        1
280
     0
281
     0
  0
CLASS
  1
AM_DWG_SHEET
  2
AcDmSheet
  3
AcMechDwgViewMgmt
 90
     1024
 91
        1
280
     0
281
     0
  0
CLASS
  1
AM_VIEWDIMPARMAP
  2
AcDmViewDimParMap
  3
AcMechDwgViewMgmt
 90
     1024
 91
        1
280
     0
281
     0
  0
CLASS
  1
AMDTINTERNALREACTOR
  2
AmdtInternalReactor
  3
AcMeServices
 90
     1024
 91
        1
280
     0
281
     0
  0
CLASS
  1
ACIMREALSYSVAR
  2
AcImRealSysVar
  3
AcMeServices
 90
     1024
 91
        1
280
     0
281
     0
  0
CLASS
  1
AM_DWGMGR_NAME
  2
AcDmDwgMgrName
  3
AcMechDwgViewMgmt
 90
     1024
 91
        1
280
     0
281
     0
  0
CLASS
  1
RAPIDRTRENDERSETTINGS
  2
AcDbRapidRTRenderSettings
  3
ObjectDBX Classes
 90
     1024
 91
        6
280
     0
281
     0
  0
CLASS
  1
MULTILEADER
  2
AcDbMLeader
  3
ACDB_MLEADER_CLASS
 90
     1025
 91
        4
280
     0
281
     1
  0
ENDSEC
  0
SECTION
  2
TABLES
  0
TABLE
  2
VPORT
  5
8
330
0
100
AcDbSymbolTable
 70
     1
  0
VPORT
  5
EA
330
8
100
AcDbSymbolTableRecord
100
AcDbViewportTableRecord
  2
*Active
 70
     0
 10
0.0
 20
0.0
 11
1.0
 21
1.0
 12
205.2950192978954
 22
251.0970756658225
 13
0.0
 23
0.0
 14
2.5
 24
2.5
 15
10.0
 25
10.0
 16
0.0
 26
0.0
 36
1.0
 17
0.0
 27
0.0
 37
0.0
 40
637.5624349610064
 41
1.889079965606191
 42
50.0
 43
0.0
 44
0.0
 50
0.0
 51
0.0
 71
    16
 72
  1000
 73
     1
 74
     3
 75
     0
 76
     0
 77
     0
 78
     0
281
     0
 65
     1
110
0.0
120
0.0
130
0.0
111
1.0
121
0.0
131
0.0
112
0.0
122
1.0
132
0.0
 79
     0
146
0.0
348
F5
 60
     3
 61
     5
292
     1
282
     0
141
0.0
142
0.0
 63
   250
421
  3355443
1001
ACAD_NAV_VCDISPLAY
1070
     1
  0
ENDTAB
  0
TABLE
  2
LTYPE
  5
5
330
0
100
AcDbSymbolTable
 70
    29
  0
LTYPE
  5
14
330
5
100
AcDbSymbolTableRecord
100
AcDbLinetypeTableRecord
  2
ByBlock
 70
     0
  3

 72
    65
 73
     0
 40
0.0
  0
LTYPE
  5
15
330
5
100
AcDbSymbolTableRecord
100
AcDbLinetypeTableRecord
  2
ByLayer
 70
     0
  3

 72
    65
 73
     0
 40
0.0
  0
LTYPE
  5
16
330
5
100
AcDbSymbolTableRecord
100
AcDbLinetypeTableRecord
  2
Continuous
 70
     0
  3
Solid line
 72
    65
 73
     0
 40
0.0
  0
LTYPE
  5
276
330
5
100
AcDbSymbolTableRecord
100
AcDbLinetypeTableRecord
  2
HIDDEN
 70
     0
  3
Hidden __ __ __ __ __ __ __ __ __ __ __ __ __ _
 72
    65
 73
     2
 40
9.524999999999998
 49
6.349999999999999
 74
     0
 49
-3.174999999999999
 74
     0
  0
LTYPE
  5
277
330
5
100
AcDbSymbolTableRecord
100
AcDbLinetypeTableRecord
  2
PHANTOM2
 70
     0
  3
Phantom (.5x) ___ _ _ ___ _ _ ___ _ _ ___ _ _
 72
    65
 73
     6
 40
31.75
 49
15.875
 74
     0
 49
-3.174999999999999
 74
     0
 49
3.174999999999999
 74
     0
 49
-3.174999999999999
 74
     0
 49
3.174999999999999
 74
     0
 49
-3.174999999999999
 74
     0
  0
LTYPE
  5
278
330
5
100
AcDbSymbolTableRecord
100
AcDbLinetypeTableRecord
  2
CENTER
 70
     0
  3
Center ____ _ ____ _ ____ _ ____ _ ____ _ ____
 72
    65
 73
     4
 40
50.8
 49
31.75
 74
     0
 49
-6.349999999999999
 74
     0
 49
6.349999999999999
 74
     0
 49
-6.349999999999999
 74
     0
  0
LTYPE
  5
2B2
330
5
100
AcDbSymbolTableRecord
100
AcDbLinetypeTableRecord
  2
AM_ISO02W050
 70
     0
  3
__ __ __ __ __ __ __ __ __ __ __ __ __ __ __
 72
    65
 73
     2
 40
7.5
 49
6.0
 74
     0
 49
-1.5
 74
     0
  0
LTYPE
  5
2B3
330
5
100
AcDbSymbolTableRecord
100
AcDbLinetypeTableRecord
  2
AM_ISO08W050
 70
     0
  3
____ . ____ . ____ . ____ . ____ . ____ . ____
 72
    65
 73
     4
 40
18.0
 49
12.0
 74
     0
 49
-1.5
 74
     0
 49
3.0
 74
     0
 49
-1.5
 74
     0
  0
LTYPE
  5
2B4
330
5
100
AcDbSymbolTableRecord
100
AcDbLinetypeTableRecord
  2
AM_ISO09W050
 70
     0
  3
_____ . . _____ . . _____ . . ____ .. ____
 72
    65
 73
     6
 40
22.5
 49
12.0
 74
     0
 49
-1.5
 74
     0
 49
3.0
 74
     0
 49
-1.5
 74
     0
 49
3.0
 74
     0
 49
-1.5
 74
     0
  0
LTYPE
  5
2B5
330
5
100
AcDbSymbolTableRecord
100
AcDbLinetypeTableRecord
  2
Amconstr
 70
     0
  3
_______________________
 72
    65
 73
     2
 40
9999.0
 49
9999.0
 74
     0
 49
0.0
 74
     0
  0
LTYPE
  5
2B6
330
5
100
AcDbSymbolTableRecord
100
AcDbLinetypeTableRecord
  2
AM_ISO08W050x2
 70
     0
  3
__ . __ . __ . __ . __ . __
 72
    65
 73
     4
 40
9.0
 49
6.0
 74
     0
 49
-0.75
 74
     0
 49
1.5
 74
     0
 49
-0.75
 74
     0
  0
LTYPE
  5
2B7
330
5
100
AcDbSymbolTableRecord
100
AcDbLinetypeTableRecord
  2
AM_ISO02W050x2
 70
     0
  3
 _ _ _ _ _ _ _ _ _ _ _ _
 72
    65
 73
     2
 40
3.75
 49
3.0
 74
     0
 49
-0.75
 74
     0
  0
LTYPE
  5
2BA
330
5
100
AcDbSymbolTableRecord
100
AcDbLinetypeTableRecord
  2
Amzigzag
 70
     0
  3
/\/-/\/-/\/-/\/-/\/-/\/
 72
    65
 73
     2
 40
11.0001
 49
0.0001
 74
     4
 75
   136
340
2B9
 46
0.04
 50
0.0
 44
0.0
 45
0.0
 49
-11.0
 74
     0
  0
LTYPE
  5
2CB
330
5
100
AcDbSymbolTableRecord
100
AcDbLinetypeTableRecord
  2
ACISOWELD
 70
     0
  3
_ _ _ _ _
 72
    65
 73
     2
 40
2.0
 49
2.0
 74
     0
 49
-1.0
 74
     0
  0
LTYPE
  5
2CC
330
5
100
AcDbSymbolTableRecord
100
AcDbLinetypeTableRecord
  2
ACISOTGL
 70
     0
  3
_ _ _ _ _
 72
    65
 73
     2
 40
3.0
 49
2.0
 74
     0
 49
-1.0
 74
     0
  0
LTYPE
  5
2CD
330
5
100
AcDbSymbolTableRecord
100
AcDbLinetypeTableRecord
  2
ACISOTGB
 70
     0
  3
__ . . __ . .
 72
    65
 73
     6
 40
9.0
 49
4.0
 74
     0
 49
-1.0
 74
     0
 49
1.0
 74
     0
 49
-1.0
 74
     0
 49
1.0
 74
     0
 49
-1.0
 74
     0
  0
LTYPE
  5
4B9
330
5
100
AcDbSymbolTableRecord
100
AcDbLinetypeTableRecord
  2
CENTER2
 70
     0
  3
Center (.5x) ___ _ ___ _ ___ _ ___ _ ___ _ ___
 72
    65
 73
     4
 40
1.125
 49
0.75
 74
     0
 49
-0.125
 74
     0
 49
0.125
 74
     0
 49
-0.125
 74
     0
  0
LTYPE
  5
4BA
330
5
100
AcDbSymbolTableRecord
100
AcDbLinetypeTableRecord
  2
HIDDEN2
 70
     0
  3
Hidden (.5x) _ _ _ _ _ _ _ _ _ _ _ _ _ _ _ _ _
 72
    65
 73
     2
 40
0.1875
 49
0.125
 74
     0
 49
-0.0625
 74
     0
  0
LTYPE
  5
4BB
330
5
100
AcDbSymbolTableRecord
100
AcDbLinetypeTableRecord
  2
Amzigzag2
 70
     0
  3
/\/-/\/-/\/-/\/-/\/-/\/
 72
    65
 73
     2
 40
0.4401
 49
0.0001
 74
     4
 75
   136
340
2B9
 46
0.0016
 50
0.0
 44
0.0
 45
0.0
 49
-0.4400000000000001
 74
     0
  0
LTYPE
  5
4BC
330
5
100
AcDbSymbolTableRecord
100
AcDbLinetypeTableRecord
  2
ACANSTGB
 70
     0
  3
__ . . __ . .
 72
    65
 73
     6
 40
0.35433070866
 49
0.15748031496
 74
     0
 49
-0.03937007874
 74
     0
 49
0.03937007874
 74
     0
 49
-0.03937007874
 74
     0
 49
0.03937007874
 74
     0
 49
-0.03937007874
 74
     0
  0
LTYPE
  5
4BD
330
5
100
AcDbSymbolTableRecord
100
AcDbLinetypeTableRecord
  2
ACANSTGL
 70
     0
  3
_ _ _ _ _
 72
    65
 73
     2
 40
0.11811023622
 49
0.07874015748
 74
     0
 49
-0.03937007874
 74
     0
  0
LTYPE
  5
576
330
5
100
AcDbSymbolTableRecord
100
AcDbLinetypeTableRecord
  2
GEN3
 70
     0
  3
-- -- -- -- -- -- -- -- -- -- -- -- -- -- --
 72
    65
 73
     2
 40
6.25
 49
4.75
 74
     0
 49
-1.5
 74
     0
  0
LTYPE
  5
577
330
5
100
AcDbSymbolTableRecord
100
AcDbLinetypeTableRecord
  2
ACDINWELD
 70
     0
  3
_ _ _ _ _
 72
    65
 73
     2
 40
2.0
 49
2.0
 74
     0
 49
-1.0
 74
     0
  0
LTYPE
  5
578
330
5
100
AcDbSymbolTableRecord
100
AcDbLinetypeTableRecord
  2
ACDINTGB
 70
     0
  3
__ . . __ . .
 72
    65
 73
     6
 40
9.0
 49
4.0
 74
     0
 49
-1.0
 74
     0
 49
1.0
 74
     0
 49
-1.0
 74
     0
 49
1.0
 74
     0
 49
-1.0
 74
     0
  0
LTYPE
  5
579
330
5
100
AcDbSymbolTableRecord
100
AcDbLinetypeTableRecord
  2
ACDINTGL
 70
     0
  3
_ _ _ _ _
 72
    65
 73
     2
 40
3.0
 49
2.0
 74
     0
 49
-1.0
 74
     0
  0
LTYPE
  5
57A
330
5
100
AcDbSymbolTableRecord
100
AcDbLinetypeTableRecord
  2
gen7
 70
     0
  3
____ . ____ . ____ . ____ . ____ . ____ . ____
 72
    65
 73
     4
 40
13.75
 49
9.75
 74
     0
 49
-1.5
 74
     0
 49
1.0
 74
     0
 49
-1.5
 74
     0
  0
LTYPE
  5
57B
330
5
100
AcDbSymbolTableRecord
100
AcDbLinetypeTableRecord
  2
gen3a
 70
     0
  3
 - - - - -
 72
    65
 73
     2
 40
3.125
 49
2.25
 74
     0
 49
-0.875
 74
     0
  0
LTYPE
  5
57C
330
5
100
AcDbSymbolTableRecord
100
AcDbLinetypeTableRecord
  2
gen7a
 70
     0
  3
__ . __ . __
 72
    65
 73
     4
 40
6.875
 49
4.75
 74
     0
 49
-0.875
 74
     0
 49
0.375
 74
     0
 49
-0.875
 74
     0
  0
LTYPE
  5
57D
330
5
100
AcDbSymbolTableRecord
100
AcDbLinetypeTableRecord
  2
gen4a
 70
     0
  3
_____ . . _____ . . _____ . . ____ .. ____
 72
    65
 73
     6
 40
16.25
 49
9.75
 74
     0
 49
-1.5
 74
     0
 49
1.0
 74
     0
 49
-1.5
 74
     0
 49
1.0
 74
     0
 49
-1.5
 74
     0
  0
LTYPE
  5
57E
330
5
100
AcDbSymbolTableRecord
100
AcDbLinetypeTableRecord
  2
genzigzag
 70
     0
  3
/\/-/\/-/\/-/\/-/\/-/\/
 72
    65
 73
     2
 40
12.0001
 49
0.0001
 74
     4
 75
   135
340
2B9
 46
2.0
 50
0.0
 44
0.0
 45
0.0
 49
-12.0
 74
     0
  0
LTYPE
  5
CA7
330
5
100
AcDbSymbolTableRecord
100
AcDbLinetypeTableRecord
  2
CENTERX2
 70
     0
  3
Center (2x) ________  __  ________  __  _____
 72
    65
 73
     4
 40
20.32
 49
12.7
 74
     0
 49
-2.54
 74
     0
 49
2.54
 74
     0
 49
-2.54
 74
     0
  0
ENDTAB
  0
TABLE
  2
LAYER
  5
2
102
{ACAD_XDICTIONARY
360
1FF
102
}
330
0
100
AcDbSymbolTable
 70
     5
  0
LAYER
  5
10
102
{ACAD_XDICTIONARY
360
13C
102
}
330
2
100
AcDbSymbolTableRecord
100
AcDbLayerTableRecord
  2
0
 70
     0
 62
     7
  6
Continuous
370
    -3
390
F
347
EE
348
0
  0
LAYER
  5
2DD
102
{ACAD_XDICTIONARY
360
38B
102
}
330
2
100
AcDbSymbolTableRecord
100
AcDbLayerTableRecord
  2
AM_0
 70
     0
 62
     7
  6
Continuous
370
    50
390
F
347
EE
348
0
1001
AcAecLayerStandard
1000

1000

  0
LAYER
  5
CA8
330
2
100
AcDbSymbolTableRecord
100
AcDbLayerTableRecord
  2
Defpoints
 70
     0
 62
     7
  6
Continuous
290
     0
370
    -3
390
F
347
EE
348
0
  0
LAYER
  5
CA9
102
{ACAD_XDICTIONARY
360
CAA
102
}
330
2
100
AcDbSymbolTableRecord
100
AcDbLayerTableRecord
  2
DIMENSION
 70
     0
 62
     7
  6
Continuous
370
    -3
390
F
347
EE
348
0
  0
LAYER
  5
CAB
102
{ACAD_XDICTIONARY
360
CAC
102
}
330
2
100
AcDbSymbolTableRecord
100
AcDbLayerTableRecord
  2
AM_7
 70
     0
 62
     4
  6
AM_ISO08W050
370
    25
390
F
347
EE
348
0
1001
AcAecLayerStandard
1000

1000

  0
ENDTAB
  0
TABLE
  2
STYLE
  5
3
330
0
100
AcDbSymbolTable
 70
     8
  0
STYLE
  5
11
330
3
100
AcDbSymbolTableRecord
100
AcDbTextStyleTableRecord
  2
STANDARD
 70
     0
 40
0.0
 41
1.0
 50
0.0
 71
     0
 42
2.5
  3
ISOCP.SHX
  4

  0
STYLE
  5
2B9
330
3
100
AcDbSymbolTableRecord
100
AcDbTextStyleTableRecord
  2

 70
     1
 40
0.0
 41
1.0
 50
0.0
 71
     0
 42
2.5
  3
genltshp.shx
  4

  0
STYLE
  5
2CA
330
3
100
AcDbSymbolTableRecord
100
AcDbTextStyleTableRecord
  2
ACISOGDT
 70
     0
 40
0.0
 41
1.0
 50
0.0
 71
     0
 42
2.5
  3
amgdt.shx
  4

  0
STYLE
  5
4C1
330
3
100
AcDbSymbolTableRecord
100
AcDbTextStyleTableRecord
  2
ACANSGDT
 70
     0
 40
0.0
 41
1.0
 50
0.0
 71
     0
 42
0.2
  3
amgdt.shx
  4

  0
STYLE
  5
58B
330
3
100
AcDbSymbolTableRecord
100
AcDbTextStyleTableRecord
  2
ACDINTS
 70
     0
 40
1.0
 41
1.0
 50
0.0
 71
     0
 42
35.0
  3
isocp.shx
  4

  0
STYLE
  5
58C
330
3
100
AcDbSymbolTableRecord
100
AcDbTextStyleTableRecord
  2
ACDINGDT
 70
     0
 40
0.0
 41
1.0
 50
0.0
 71
     0
 42
35.0
  3
amgdt.shx
  4

  0
STYLE
  5
C47
330
3
100
AcDbSymbolTableRecord
100
AcDbTextStyleTableRecord
  2
Annotative
 70
     0
 40
0.0
 41
1.0
 50
0.0
 71
     0
 42
2.5
  3
arial.ttf
  4

1001
AcadAnnotative
1000
AnnotativeData
1002
{
1070
     1
1070
     1
1002
}
1001
ACAD
1000
Arial
1071
       34
  0
STYLE
  5
CAD
330
3
100
AcDbSymbolTableRecord
100
AcDbTextStyleTableRecord
  2
SLDTEXTSTYLE0
 70
     0
 40
0.0
 41
0.605
 50
0.0
 71
     0
 42
2.5
  3
TXT
  4

  0
ENDTAB
  0
TABLE
  2
VIEW
  5
6
330
0
100
AcDbSymbolTable
 70
     6
  0
VIEW
  5
6E7
330
6
100
AcDbSymbolTableRecord
100
AcDbViewTableRecord
  2
AM_VIEW1
 70
     0
 40
148.5
 10
125.2820170757737
 20
222.75
 41
250.5640341515475
 11
0.0
 21
0.0
 31
1.0
 12
0.0
 22
0.0
 32
0.0
 42
50.0
 43
0.0
 44
0.0
 50
0.0
 71
    16
281
     0
 72
     0
 73
     0
  0
VIEW
  5
6E8
330
6
100
AcDbSymbolTableRecord
100
AcDbViewTableRecord
  2
AM_VIEW2
 70
     0
 40
148.5
 10
84.71798292422626
 20
222.75
 41
250.5640341515475
 11
0.0
 21
0.0
 31
1.0
 12
0.0
 22
0.0
 32
0.0
 42
50.0
 43
0.0
 44
0.0
 50
0.0
 71
    16
281
     0
 72
     0
 73
     0
  0
VIEW
  5
6E9
330
6
100
AcDbSymbolTableRecord
100
AcDbViewTableRecord
  2
AM_VIEW3
 70
     0
 40
148.5
 10
125.2820170757737
 20
74.25
 41
250.5640341515475
 11
0.0
 21
0.0
 31
1.0
 12
0.0
 22
0.0
 32
0.0
 42
50.0
 43
0.0
 44
0.0
 50
0.0
 71
    16
281
     0
 72
     0
 73
     0
  0
VIEW
  5
6EA
330
6
100
AcDbSymbolTableRecord
100
AcDbViewTableRecord
  2
AM_VIEW4
 70
     0
 40
148.5
 10
84.71798292422626
 20
74.25
 41
250.5640341515475
 11
0.0
 21
0.0
 31
1.0
 12
0.0
 22
0.0
 32
0.0
 42
50.0
 43
0.0
 44
0.0
 50
0.0
 71
    16
281
     0
 72
     0
 73
     0
  0
VIEW
  5
6EB
330
6
100
AcDbSymbolTableRecord
100
AcDbViewTableRecord
  2
AM_VIEW5
 70
     0
 40
148.5
 10
105.0
 20
148.5
 41
250.5640341515475
 11
0.0
 21
0.0
 31
1.0
 12
0.0
 22
0.0
 32
0.0
 42
50.0
 43
0.0
 44
0.0
 50
0.0
 71
    16
281
     0
 72
     0
 73
     0
  0
VIEW
  5
6EC
330
6
100
AcDbSymbolTableRecord
100
AcDbViewTableRecord
  2
AM_VIEW6
 70
     0
 40
296.99703
 10
105.0
 20
148.5
 41
501.123057022412
 11
0.0
 21
0.0
 31
1.0
 12
0.0
 22
0.0
 32
0.0
 42
50.0
 43
0.0
 44
0.0
 50
0.0
 71
    16
281
     0
 72
     0
 73
     0
  0
ENDTAB
  0
TABLE
  2
UCS
  5
7
330
0
100
AcDbSymbolTable
 70
     0
  0
ENDTAB
  0
TABLE
  2
APPID
  5
9
330
0
100
AcDbSymbolTable
 70
    38
  0
APPID
  5
12
330
9
100
AcDbSymbolTableRecord
100
AcDbRegAppTableRecord
  2
ACAD
 70
     0
  0
APPID
  5
9E
330
9
100
AcDbSymbolTableRecord
100
AcDbRegAppTableRecord
  2
ACAD_PSEXT
 70
     0
  0
APPID
  5
133
330
9
100
AcDbSymbolTableRecord
100
AcDbRegAppTableRecord
  2
AcadAnnoPO
 70
     0
  0
APPID
  5
134
330
9
100
AcDbSymbolTableRecord
100
AcDbRegAppTableRecord
  2
AcadAnnotative
 70
     0
  0
APPID
  5
135
330
9
100
AcDbSymbolTableRecord
100
AcDbRegAppTableRecord
  2
ACAD_DSTYLE_DIMJAG
 70
     0
  0
APPID
  5
136
330
9
100
AcDbSymbolTableRecord
100
AcDbRegAppTableRecord
  2
ACAD_DSTYLE_DIMTALN
 70
     0
  0
APPID
  5
165
330
9
100
AcDbSymbolTableRecord
100
AcDbRegAppTableRecord
  2
ACAD_MLEADERVER
 70
     0
  0
APPID
  5
217
330
9
100
AcDbSymbolTableRecord
100
AcDbRegAppTableRecord
  2
ACAD_NAV_VCDISPLAY
 70
     0
  0
APPID
  5
26F
330
9
100
AcDbSymbolTableRecord
100
AcDbRegAppTableRecord
  2
MCAD_NO_VIS
 70
     0
  0
APPID
  5
270
330
9
100
AcDbSymbolTableRecord
100
AcDbRegAppTableRecord
  2
ACAD_TEMP_GRAPHIC
 70
     0
  0
APPID
  5
27D
330
9
100
AcDbSymbolTableRecord
100
AcDbRegAppTableRecord
  2
ACATTRIBSERVICES
 70
     0
  0
APPID
  5
295
330
9
100
AcDbSymbolTableRecord
100
AcDbRegAppTableRecord
  2
DESIGNERASSEMBLIES
 70
     0
  0
APPID
  5
2B0
330
9
100
AcDbSymbolTableRecord
100
AcDbRegAppTableRecord
  2
ACAD_DSTYLE_DIMBREAK
 70
     0
  0
APPID
  5
2DE
330
9
100
AcDbSymbolTableRecord
100
AcDbRegAppTableRecord
  2
AcAecLayerStandard
 70
     0
  0
APPID
  5
2E6
330
9
100
AcDbSymbolTableRecord
100
AcDbRegAppTableRecord
  2
AD_DRAW
 70
     0
  0
APPID
  5
2E7
330
9
100
AcDbSymbolTableRecord
100
AcDbRegAppTableRecord
  2
ACADM_DIM_EDIT
 70
     0
  0
APPID
  5
2E8
330
9
100
AcDbSymbolTableRecord
100
AcDbRegAppTableRecord
  2
AMDT_DM_ADJ
 70
     0
  0
APPID
  5
2E9
330
9
100
AcDbSymbolTableRecord
100
AcDbRegAppTableRecord
  2
ACAD_DSTYLE_DIMARC_LENGTH_SYMBOL
 70
     0
  0
APPID
  5
2EA
330
9
100
AcDbSymbolTableRecord
100
AcDbRegAppTableRecord
  2
ACAD_DSTYLE_DIMJOGGED_JOGANGLE_SYMBOL
 70
     0
  0
APPID
  5
2EB
330
9
100
AcDbSymbolTableRecord
100
AcDbRegAppTableRecord
  2
ACAD_EXEMPT_FROM_CAD_STANDARDS
 70
     0
  0
APPID
  5
2EC
330
9
100
AcDbSymbolTableRecord
100
AcDbRegAppTableRecord
  2
GENIUS_GENREC_14
 70
     0
  0
APPID
  5
2ED
330
9
100
AcDbSymbolTableRecord
100
AcDbRegAppTableRecord
  2
GENIUS_GENODEF_13
 70
     0
  0
APPID
  5
2EE
330
9
100
AcDbSymbolTableRecord
100
AcDbRegAppTableRecord
  2
GENIUS_GENOBJ-N-REC_13
 70
     0
  0
APPID
  5
58D
330
9
100
AcDbSymbolTableRecord
100
AcDbRegAppTableRecord
  2
GENIUS_GENBLLY_14
 70
     0
  0
APPID
  5
58E
330
9
100
AcDbSymbolTableRecord
100
AcDbRegAppTableRecord
  2
AcDbDynamicBlockGUID
 70
     0
  0
APPID
  5
58F
330
9
100
AcDbSymbolTableRecord
100
AcDbRegAppTableRecord
  2
ACCMTRANSPARENCY
 70
     0
  0
APPID
  5
6E2
330
9
100
AcDbSymbolTableRecord
100
AcDbRegAppTableRecord
  2
GENIUS_GENOENT_13
 70
     0
  0
APPID
  5
6E3
330
9
100
AcDbSymbolTableRecord
100
AcDbRegAppTableRecord
  2
GENIUS_GENOBJ-N-TIT_13
 70
     0
  0
APPID
  5
6E4
330
9
100
AcDbSymbolTableRecord
100
AcDbRegAppTableRecord
  2
GENIUS_GENOLIS_13
 70
     0
  0
APPID
  5
6E5
330
9
100
AcDbSymbolTableRecord
100
AcDbRegAppTableRecord
  2
GENIUS_GENTITLE_13
 70
     0
  0
APPID
  5
6E6
330
9
100
AcDbSymbolTableRecord
100
AcDbRegAppTableRecord
  2
GENIUS_GENOREF_13
 70
     0
  0
APPID
  5
6ED
330
9
100
AcDbSymbolTableRecord
100
AcDbRegAppTableRecord
  2
GENIUS_GENSCREG_15
 70
     0
  0
APPID
  5
6EE
330
9
100
AcDbSymbolTableRecord
100
AcDbRegAppTableRecord
  2
GENIUS_GENOBJ-N-SDF_13
 70
     0
  0
APPID
  5
CB0
330
9
100
AcDbSymbolTableRecord
100
AcDbRegAppTableRecord
  2
ACAD_DSTYLE_DIMINSPECT
 70
     0
  0
APPID
  5
CB1
330
9
100
AcDbSymbolTableRecord
100
AcDbRegAppTableRecord
  2
GENIUS_GENOBJ-N-CRS_13
 70
     0
  0
APPID
  5
CB2
330
9
100
AcDbSymbolTableRecord
100
AcDbRegAppTableRecord
  2
GENIUS_GENCRS_20
 70
     0
  0
APPID
  5
CB3
330
9
100
AcDbSymbolTableRecord
100
AcDbRegAppTableRecord
  2
GENIUS_GENOBJ-N-CEN_13
 70
     0
  0
APPID
  5
CB4
330
9
100
AcDbSymbolTableRecord
100
AcDbRegAppTableRecord
  2
GENIUS_GENCEN_19
 70
     0
  0
ENDTAB
  0
TABLE
  2
DIMSTYLE
  5
A
330
0
100
AcDbSymbolTable
 70
    16
100
AcDbDimStyleTable
 71
     3
340
2AF
340
4C2
340
1B0
  0
DIMSTYLE
105
1B0
330
A
100
AcDbSymbolTableRecord
100
AcDbDimStyleTableRecord
  2
Standard
 70
     0
340
11
1001
ACAD_DSTYLE_DIMJAG
1070
   388
1040
1.5
1001
ACAD_DSTYLE_DIMTALN
1070
   392
1070
     0
  0
DIMSTYLE
105
2AF
102
{ACAD_REACTORS
330
29E
102
}
330
A
100
AcDbSymbolTableRecord
100
AcDbDimStyleTableRecord
  2
AM_ISO
 70
     0
  4
"
 41
3.5
 42
1.0
 43
10.0
 44
1.0
 47
0.1
 48
0.1
 73
     0
 74
     0
 77
     1
 78
     8
 79
     2
 90
     1
140
3.5
141
0.0
143
0.0393701
146
0.71
147
1.5
172
     1
176
   256
177
   256
178
     2
271
     2
272
     3
283
     0
284
     8
340
11
345
14
346
14
347
14
371
    -1
372
    -1
1001
ACAD_DSTYLE_DIMJAG
1070
   388
1040
1.5
1001
ACAD_DSTYLE_DIMTALN
1070
   392
1070
     0
1001
ACAD_DSTYLE_DIMBREAK
1070
   391
1040
3.75
  0
DIMSTYLE
105
2BB
330
A
100
AcDbSymbolTableRecord
100
AcDbDimStyleTableRecord
  2
AM_ISO$3
 70
     0
  4
"
 41
3.5
 42
1.0
 43
10.0
 44
1.0
 47
0.1
 48
0.1
 73
     0
 77
     1
 78
     8
 79
     2
 90
     1
140
3.5
141
0.0
143
0.0393701
146
0.71
147
1.5
176
   256
177
   256
178
     2
271
     2
272
     3
283
     0
284
     8
288
     1
289
     0
340
11
345
14
346
14
347
14
371
    -1
372
    -1
1001
ACAD_DSTYLE_DIMJAG
1070
   388
1040
1.5
1001
ACAD_DSTYLE_DIMTALN
1070
   392
1070
     0
1001
ACAD_DSTYLE_DIMBREAK
1070
   391
1040
3.75
  0
DIMSTYLE
105
2BC
330
A
100
AcDbSymbolTableRecord
100
AcDbDimStyleTableRecord
  2
AM_ISO$4
 70
     0
  4
"
 41
3.5
 42
1.0
 43
10.0
 44
1.0
 47
0.1
 48
0.1
 73
     0
 74
     0
 77
     1
 78
     8
 79
     2
 90
     1
140
3.5
141
0.0
143
0.0393701
146
0.71
147
1.5
172
     1
176
   256
177
   256
178
     2
271
     2
272
     3
283
     0
284
     8
340
11
345
14
346
14
347
14
371
    -1
372
    -1
1001
ACAD_DSTYLE_DIMJAG
1070
   388
1040
1.5
1001
ACAD_DSTYLE_DIMTALN
1070
   392
1070
     0
1001
ACAD_DSTYLE_DIMBREAK
1070
   391
1040
3.75
  0
DIMSTYLE
105
2BD
330
A
100
AcDbSymbolTableRecord
100
AcDbDimStyleTableRecord
  2
AM_ISO$6
 70
     0
  4
"
 41
3.5
 42
1.0
 43
10.0
 44
1.0
 47
0.1
 48
0.1
 73
     0
 74
     0
 78
     8
 79
     2
 90
     1
140
3.5
141
0.0
143
0.0393701
146
0.71
147
1.5
172
     1
176
   256
177
   256
178
     2
271
     2
272
     3
283
     0
284
     8
340
11
345
14
346
14
347
14
371
    -1
372
    -1
1001
ACAD_DSTYLE_DIMJAG
1070
   388
1040
1.5
1001
ACAD_DSTYLE_DIMTALN
1070
   392
1070
     0
1001
ACAD_DSTYLE_DIMBREAK
1070
   391
1040
3.75
  0
DIMSTYLE
105
2BE
330
A
100
AcDbSymbolTableRecord
100
AcDbDimStyleTableRecord
  2
AM_ISO$7
 70
     0
  4
"
 41
3.5
 42
1.0
 43
10.0
 44
1.0
 47
0.1
 48
0.1
 73
     0
 74
     0
 77
     1
 78
     8
 79
     2
 90
     1
140
3.5
141
0.0
143
0.0393701
146
0.71
147
1.5
172
     1
176
   256
177
   256
178
     2
271
     2
272
     3
283
     0
284
     8
340
11
345
14
346
14
347
14
371
    -1
372
    -1
1001
ACAD_DSTYLE_DIMJAG
1070
   388
1040
1.5
1001
ACAD_DSTYLE_DIMTALN
1070
   392
1070
     0
1001
ACAD_DSTYLE_DIMBREAK
1070
   391
1040
3.75
  0
DIMSTYLE
105
2BF
330
A
100
AcDbSymbolTableRecord
100
AcDbDimStyleTableRecord
  2
AM_ISO$SF
 70
     0
  4
"
 41
3.5
 42
1.0
 43
10.0
 44
1.0
 47
0.1
 48
0.1
 73
     0
 74
     0
 75
     1
 76
     1
 77
     1
 78
     8
 79
     2
 90
     1
140
3.5
141
0.0
143
0.0393701
146
0.71
147
1.5
172
     1
176
   256
177
   256
178
     2
271
     2
272
     3
283
     0
284
     8
340
11
345
14
346
14
347
14
371
    -1
372
    -1
1001
ACAD_DSTYLE_DIMJAG
1070
   388
1040
1.5
1001
ACAD_DSTYLE_DIMTALN
1070
   392
1070
     0
1001
ACAD_DSTYLE_DIMBREAK
1070
   391
1040
3.75
  0
DIMSTYLE
105
2C4
330
A
100
AcDbSymbolTableRecord
100
AcDbDimStyleTableRecord
  2
AM_ISO$SH
 70
     0
  4
"
 41
3.5
 42
1.0
 43
10.0
 44
1.0
 47
0.1
 48
0.1
 73
     0
 74
     0
 75
     1
 76
     1
 77
     1
 78
     8
 79
     2
 90
     1
140
3.5
141
0.0
143
0.0393701
144
2.0
146
0.71
147
1.5
172
     1
176
   256
177
   256
178
     2
271
     2
272
     3
283
     0
284
     8
340
11
345
14
346
14
347
14
371
    -1
372
    -1
1001
ACAD_DSTYLE_DIMJAG
1070
   388
1040
1.5
1001
ACAD_DSTYLE_DIMTALN
1070
   392
1070
     0
1001
ACAD_DSTYLE_DIMBREAK
1070
   391
1040
3.75
  0
DIMSTYLE
105
4C2
102
{ACAD_REACTORS
330
529
102
}
330
A
100
AcDbSymbolTableRecord
100
AcDbDimStyleTableRecord
  2
AM_ANSI
 70
     0
  4
mm
 41
0.12
 42
0.05
 43
0.5
 44
0.1
 47
0.1
 48
0.1
 78
     7
 79
     2
 90
     1
140
0.12
141
0.0
146
0.71
147
0.06
176
   256
177
   256
178
     2
284
     7
340
11
345
14
346
14
347
14
371
    -1
372
    -1
1001
ACAD_DSTYLE_DIMBREAK
1070
   391
1040
0.125
1001
ACAD_DSTYLE_DIMJAG
1070
   388
1040
1.5
1001
ACAD_DSTYLE_DIMTALN
1070
   392
1070
     0
  0
DIMSTYLE
105
4C3
330
A
100
AcDbSymbolTableRecord
100
AcDbDimStyleTableRecord
  2
AM_ANSI$3
 70
     0
  4
mm
 41
0.12
 42
0.05
 43
0.5
 44
0.1
 47
0.1
 48
0.1
 78
     7
 79
     2
 90
     1
140
0.12
141
0.0
146
0.71
147
0.06
176
   256
177
   256
178
     2
284
     7
288
     1
289
     0
340
11
345
14
346
14
347
14
371
    -1
372
    -1
1001
ACAD_DSTYLE_DIMBREAK
1070
   391
1040
0.125
1001
ACAD_DSTYLE_DIMJAG
1070
   388
1040
1.5
1001
ACAD_DSTYLE_DIMTALN
1070
   392
1070
     0
  0
DIMSTYLE
105
4C4
330
A
100
AcDbSymbolTableRecord
100
AcDbDimStyleTableRecord
  2
AM_ANSI$4
 70
     0
  4
mm
 41
0.12
 42
0.05
 43
0.5
 44
0.1
 47
0.1
 48
0.1
 78
     7
 79
     2
 90
     1
140
0.12
141
0.0
146
0.71
147
0.06
176
   256
177
   256
178
     2
284
     7
288
     1
289
     0
340
11
345
14
346
14
347
14
371
    -1
372
    -1
1001
ACAD_DSTYLE_DIMBREAK
1070
   391
1040
0.125
1001
ACAD_DSTYLE_DIMJAG
1070
   388
1040
1.5
1001
ACAD_DSTYLE_DIMTALN
1070
   392
1070
     0
  0
DIMSTYLE
105
4C5
330
A
100
AcDbSymbolTableRecord
100
AcDbDimStyleTableRecord
  2
AM_ANSI$7
 70
     0
  4
mm
 41
0.12
 42
0.05
 43
0.5
 44
0.1
 47
0.1
 48
0.1
 78
     7
 79
     2
 90
     1
140
0.12
141
0.0
146
0.71
147
0.06
176
   256
177
   256
178
     2
284
     7
340
11
345
14
346
14
347
14
371
    -1
372
    -1
1001
ACAD_DSTYLE_DIMBREAK
1070
   391
1040
0.125
1001
ACAD_DSTYLE_DIMJAG
1070
   388
1040
1.5
1001
ACAD_DSTYLE_DIMTALN
1070
   392
1070
     0
  0
DIMSTYLE
105
4C6
330
A
100
AcDbSymbolTableRecord
100
AcDbDimStyleTableRecord
  2
AM_ANSI$SF
 70
     0
  4
mm
 41
0.12
 42
0.05
 43
0.5
 44
0.1
 47
0.1
 48
0.1
 75
     1
 76
     1
 78
     7
 79
     2
 90
     1
140
0.12
141
0.0
146
0.71
147
0.06
176
   256
177
   256
178
     2
284
     7
340
11
345
14
346
14
347
14
371
    -1
372
    -1
1001
ACAD_DSTYLE_DIMBREAK
1070
   391
1040
0.125
1001
ACAD_DSTYLE_DIMJAG
1070
   388
1040
1.5
1001
ACAD_DSTYLE_DIMTALN
1070
   392
1070
     0
  0
DIMSTYLE
105
4C7
330
A
100
AcDbSymbolTableRecord
100
AcDbDimStyleTableRecord
  2
AM_ANSI$SH
 70
     0
  4
mm
 41
0.12
 42
0.05
 43
0.5
 44
0.1
 47
0.1
 48
0.1
 75
     1
 76
     1
 78
     7
 79
     2
 90
     1
140
0.12
141
0.0
146
0.71
147
0.06
176
   256
177
   256
178
     2
284
     7
340
11
345
14
346
14
347
14
371
    -1
372
    -1
1001
ACAD_DSTYLE_DIMBREAK
1070
   391
1040
0.125
1001
ACAD_DSTYLE_DIMJAG
1070
   388
1040
1.5
1001
ACAD_DSTYLE_DIMTALN
1070
   392
1070
     0
  0
DIMSTYLE
105
CAE
102
{ACAD_REACTORS
330
DB2
330
DB5
330
DB3
330
DB4
330
EBE
330
EBF
330
EC0
330
EC1
102
}
330
A
100
AcDbSymbolTableRecord
100
AcDbDimStyleTableRecord
  2
SLDDIMSTYLE0
 70
     0
 41
10.0
 44
0.0
 45
0.000000001
 73
     0
 74
     0
 77
     1
 78
    12
 79
     3
140
9.0
147
2.25
173
     1
271
     2
272
     2
276
     2
284
    12
340
CAD
  0
DIMSTYLE
105
CAF
330
A
100
AcDbSymbolTableRecord
100
AcDbDimStyleTableRecord
  2
AM_ISO$0
 70
     0
  4
"
 41
3.5
 42
1.0
 43
10.0
 44
1.0
 47
0.1
 48
0.1
 73
     0
 74
     0
 77
     1
 78
     8
 79
     2
 90
     1
140
3.5
141
0.0
143
0.0393701
146
0.71
147
1.5
172
     1
176
   256
177
   256
178
     2
271
     2
272
     3
283
     0
284
     8
340
11
345
14
346
14
347
14
371
    -1
372
    -1
1001
ACAD_DSTYLE_DIMBREAK
1070
   391
1040
3.75
1001
ACAD_DSTYLE_DIMJAG
1070
   388
1040
1.5
  0
ENDTAB
  0
TABLE
  2
BLOCK_RECORD
  5
1
330
0
100
AcDbSymbolTable
 70
    12
  0
BLOCK_RECORD
  5
1F
102
{ACAD_XDICTIONARY
360
1CE
102
}
330
1
100
AcDbSymbolTableRecord
100
AcDbBlockTableRecord
  2
*Model_Space
340
22
 70
     0
280
     1
281
     0
  0
BLOCK_RECORD
  5
D2
330
1
100
AcDbSymbolTableRecord
100
AcDbBlockTableRecord
  2
*Paper_Space
340
D3
 70
     0
280
     1
281
     0
  0
BLOCK_RECORD
  5
C6E
330
1
100
AcDbSymbolTableRecord
100
AcDbBlockTableRecord
  2
_TagCircle
340
0
 70
     4
280
     1
281
     0
  0
BLOCK_RECORD
  5
C73
330
1
100
AcDbSymbolTableRecord
100
AcDbBlockTableRecord
  2
_DotSmall
340
0
 70
     0
280
     1
281
     0
  0
BLOCK_RECORD
  5
C77
330
1
100
AcDbSymbolTableRecord
100
AcDbBlockTableRecord
  2
*D3
340
0
 70
     0
280
     1
281
     0
  0
BLOCK_RECORD
  5
C83
330
1
100
AcDbSymbolTableRecord
100
AcDbBlockTableRecord
  2
*D4
340
0
 70
     0
280
     1
281
     0
  0
BLOCK_RECORD
  5
C8F
330
1
100
AcDbSymbolTableRecord
100
AcDbBlockTableRecord
  2
*D5
340
0
 70
     0
280
     1
281
     0
  0
BLOCK_RECORD
  5
C9B
330
1
100
AcDbSymbolTableRecord
100
AcDbBlockTableRecord
  2
*D6
340
0
 70
     0
280
     1
281
     0
  0
BLOCK_RECORD
  5
ECA
330
1
100
AcDbSymbolTableRecord
100
AcDbBlockTableRecord
  2
*D8
340
0
 70
     0
280
     1
281
     0
  0
BLOCK_RECORD
  5
ED6
330
1
100
AcDbSymbolTableRecord
100
AcDbBlockTableRecord
  2
*D9
340
0
 70
     0
280
     1
281
     0
  0
BLOCK_RECORD
  5
EE2
330
1
100
AcDbSymbolTableRecord
100
AcDbBlockTableRecord
  2
*D10
340
0
 70
     0
280
     1
281
     0
  0
BLOCK_RECORD
  5
EEE
330
1
100
AcDbSymbolTableRecord
100
AcDbBlockTableRecord
  2
*D11
340
0
 70
     0
280
     1
281
     0
  0
ENDTAB
  0
ENDSEC
  0
SECTION
  2
BLOCKS
  0
BLOCK
  5
20
330
1F
100
AcDbEntity
  8
0
100
AcDbBlockBegin
  2
*Model_Space
 70
     0
 10
0.0
 20
0.0
 30
0.0
  3
*Model_Space
  1

  0
ENDBLK
  5
21
330
1F
100
AcDbEntity
  8
0
100
AcDbBlockEnd
  0
BLOCK
  5
D4
330
D2
100
AcDbEntity
 67
     1
  8
0
100
AcDbBlockBegin
  2
*Paper_Space
 70
     0
 10
0.0
 20
0.0
 30
0.0
  3
*Paper_Space
  1

  0
ENDBLK
  5
D5
330
D2
100
AcDbEntity
 67
     1
  8
0
100
AcDbBlockEnd
  0
BLOCK
  5
C6F
330
C6E
100
AcDbEntity
  8
0
100
AcDbBlockBegin
  2
_TagCircle
 70
     2
 10
0.0
 20
0.0
 30
0.0
  3
_TagCircle
  1

  0
CIRCLE
  5
C70
330
C6E
100
AcDbEntity
  8
0
  6
ByBlock
 62
     0
440
 16777216
370
    -2
100
AcDbCircle
 10
0.0
 20
0.0
 30
0.0
 40
4.0
  0
ATTDEF
  5
C71
330
C6E
100
AcDbEntity
  8
0
 62
     0
440
 16777216
100
AcDbText
 10
-10.95
 20
-1.5
 30
0.0
 40
3.0
  1
TAGNUMBER
 72
     1
 11
0.0
 21
-1.5
 31
0.0
100
AcDbAttributeDefinition
280
     0
  3
Enter tag number
  2
TAGNUMBER
 70
     0
280
     0
  0
ENDBLK
  5
C72
330
C6E
100
AcDbEntity
  8
0
100
AcDbBlockEnd
  0
BLOCK
  5
C74
330
C73
100
AcDbEntity
  8
0
100
AcDbBlockBegin
  2
_DotSmall
 70
     0
 10
0.0
 20
0.0
 30
0.0
  3
_DotSmall
  1

  0
LWPOLYLINE
  5
C75
330
C73
100
AcDbEntity
  8
0
  6
ByBlock
 62
     0
100
AcDbPolyline
 90
        2
 70
     1
 43
0.5
 10
-0.0625
 20
0.0
 42
1.0
 10
0.0625
 20
0.0
 42
1.0
  0
ENDBLK
  5
C76
330
C73
100
AcDbEntity
  8
0
100
AcDbBlockEnd
  0
BLOCK
  5
C78
330
C77
100
AcDbEntity
  8
0
100
AcDbBlockBegin
  2
*D3
 70
     1
 10
0.0
 20
0.0
 30
0.0
  3
*D3
  1

  0
LINE
  5
C79
330
C77
100
AcDbEntity
  8
AM_0
 62
     0
440
 16777216
370
    -2
100
AcDbLine
 10
255.4073771697113
 20
2149.683477439691
 30
0.0
 11
255.4073771697113
 21
2247.848637204809
 31
0.0
  0
LINE
  5
C7A
330
C77
100
AcDbEntity
  8
AM_0
 62
     0
440
 16777216
370
    -2
100
AcDbLine
 10
514.4073771697111
 20
2149.683477439691
 30
0.0
 11
514.4073771697111
 21
2247.848637204809
 31
0.0
  0
LINE
  5
C7B
330
C77
100
AcDbEntity
  8
AM_0
 62
     0
440
 16777216
370
    -2
100
AcDbLine
 10
265.4073771697113
 20
2247.848637204809
 30
0.0
 11
504.4073771697111
 21
2247.848637204809
 31
0.0
  0
SOLID
  5
C7C
330
C77
100
AcDbEntity
  8
AM_0
 62
     0
440
 16777216
100
AcDbTrace
 10
265.4073771697113
 20
2249.515303871476
 30
0.0
 11
265.4073771697113
 21
2246.181970538142
 31
0.0
 12
255.4073771697113
 22
2247.848637204809
 32
0.0
 13
255.4073771697113
 23
2247.848637204809
 33
0.0
  0
SOLID
  5
C7D
330
C77
100
AcDbEntity
  8
AM_0
 62
     0
440
 16777216
100
AcDbTrace
 10
504.4073771697111
 20
2249.515303871476
 30
0.0
 11
504.4073771697111
 21
2246.181970538142
 31
0.0
 12
514.4073771697111
 22
2247.848637204809
 32
0.0
 13
514.4073771697111
 23
2247.848637204809
 33
0.0
  0
MTEXT
  5
C7E
330
C77
100
AcDbEntity
  8
AM_0
 62
     0
440
 16777216
100
AcDbMText
 10
384.9073771697113
 20
2259.098637204809
 30
0.0
 40
9.0
 41
0.0
 46
0.0
 71
     2
 72
     1
  1
\A1;%%C259
  7
SLDTEXTSTYLE0
 73
     1
 44
1.0
  0
POINT
  5
C7F
330
C77
100
AcDbEntity
  8
Defpoints
 62
     0
440
 16777216
100
AcDbPoint
 10
255.4073771697113
 20
2149.620977439691
 30
0.0
  0
POINT
  5
C80
330
C77
100
AcDbEntity
  8
Defpoints
 62
     0
440
 16777216
100
AcDbPoint
 10
514.4073771697111
 20
2149.620977439691
 30
0.0
  0
POINT
  5
C81
330
C77
100
AcDbEntity
  8
Defpoints
 62
     0
440
 16777216
100
AcDbPoint
 10
514.4073771697111
 20
2247.848637204809
 30
0.0
  0
ENDBLK
  5
C82
330
C77
100
AcDbEntity
  8
0
100
AcDbBlockEnd
  0
BLOCK
  5
C84
330
C83
100
AcDbEntity
  8
0
100
AcDbBlockBegin
  2
*D4
 70
     1
 10
0.0
 20
0.0
 30
0.0
  3
*D4
  1

  0
LINE
  5
C85
330
C83
100
AcDbEntity
  8
AM_0
 62
     0
440
 16777216
370
    -2
100
AcDbLine
 10
290.4073771697113
 20
2187.683477439691
 30
0.0
 11
290.4073771697113
 21
2201.98881417226
 31
0.0
  0
LINE
  5
C86
330
C83
100
AcDbEntity
  8
AM_0
 62
     0
440
 16777216
370
    -2
100
AcDbLine
 10
479.4073771697111
 20
2187.683477439691
 30
0.0
 11
479.4073771697111
 21
2201.98881417226
 31
0.0
  0
LINE
  5
C87
330
C83
100
AcDbEntity
  8
AM_0
 62
     0
440
 16777216
370
    -2
100
AcDbLine
 10
300.4073771697112
 20
2201.98881417226
 30
0.0
 11
469.4073771697111
 21
2201.98881417226
 31
0.0
  0
SOLID
  5
C88
330
C83
100
AcDbEntity
  8
AM_0
 62
     0
440
 16777216
100
AcDbTrace
 10
300.4073771697112
 20
2203.655480838927
 30
0.0
 11
300.4073771697112
 21
2200.322147505593
 31
0.0
 12
290.4073771697113
 22
2201.98881417226
 32
0.0
 13
290.4073771697113
 23
2201.98881417226
 33
0.0
  0
SOLID
  5
C89
330
C83
100
AcDbEntity
  8
AM_0
 62
     0
440
 16777216
100
AcDbTrace
 10
469.4073771697111
 20
2203.655480838927
 30
0.0
 11
469.4073771697111
 21
2200.322147505593
 31
0.0
 12
479.4073771697111
 22
2201.98881417226
 32
0.0
 13
479.4073771697111
 23
2201.98881417226
 33
0.0
  0
MTEXT
  5
C8A
330
C83
100
AcDbEntity
  8
AM_0
 62
     0
440
 16777216
100
AcDbMText
 10
379.9565298780271
 20
2213.23881417226
 30
0.0
 40
9.0
 41
0.0
 46
0.0
 71
     2
 72
     1
  1
\A1;%%c189
  7
SLDTEXTSTYLE0
 73
     1
 44
1.0
  0
POINT
  5
C8B
330
C83
100
AcDbEntity
  8
Defpoints
 62
     0
440
 16777216
100
AcDbPoint
 10
290.4073771697113
 20
2187.620977439691
 30
0.0
  0
POINT
  5
C8C
330
C83
100
AcDbEntity
  8
Defpoints
 62
     0
440
 16777216
100
AcDbPoint
 10
479.4073771697111
 20
2187.620977439691
 30
0.0
  0
POINT
  5
C8D
330
C83
100
AcDbEntity
  8
Defpoints
 62
     0
440
 16777216
100
AcDbPoint
 10
479.4073771697111
 20
2201.98881417226
 30
0.0
  0
ENDBLK
  5
C8E
330
C83
100
AcDbEntity
  8
0
100
AcDbBlockEnd
  0
BLOCK
  5
C90
330
C8F
100
AcDbEntity
  8
0
100
AcDbBlockBegin
  2
*D5
 70
     1
 10
0.0
 20
0.0
 30
0.0
  3
*D5
  1

  0
LINE
  5
C91
330
C8F
100
AcDbEntity
  8
AM_0
 62
     0
440
 16777216
370
    -2
100
AcDbLine
 10
291.8448771697114
 20
2187.620977439692
 30
0.0
 11
231.4566811799185
 21
2187.620977439692
 31
0.0
  0
LINE
  5
C92
330
C8F
100
AcDbEntity
  8
AM_0
 62
     0
440
 16777216
370
    -2
100
AcDbLine
 10
291.0948771697114
 20
2143.620977439688
 30
0.0
 11
231.4566811799185
 21
2143.620977439688
 31
0.0
  0
LINE
  5
C93
330
C8F
100
AcDbEntity
  8
AM_0
 62
     0
440
 16777216
370
    -2
100
AcDbLine
 10
231.4566811799185
 20
2177.620977439692
 30
0.0
 11
231.4566811799185
 21
2153.620977439688
 31
0.0
  0
SOLID
  5
C94
330
C8F
100
AcDbEntity
  8
AM_0
 62
     0
440
 16777216
100
AcDbTrace
 10
229.7900145132519
 20
2177.620977439692
 30
0.0
 11
233.1233478465852
 21
2177.620977439692
 31
0.0
 12
231.4566811799185
 22
2187.620977439692
 32
0.0
 13
231.4566811799185
 23
2187.620977439692
 33
0.0
  0
SOLID
  5
C95
330
C8F
100
AcDbEntity
  8
AM_0
 62
     0
440
 16777216
100
AcDbTrace
 10
229.7900145132519
 20
2153.620977439688
 30
0.0
 11
233.1233478465852
 21
2153.620977439688
 31
0.0
 12
231.4566811799185
 22
2143.620977439688
 32
0.0
 13
231.4566811799185
 23
2143.620977439688
 33
0.0
  0
MTEXT
  5
C96
330
C8F
100
AcDbEntity
  8
AM_0
 62
     0
440
 16777216
100
AcDbMText
 10
220.2066811799191
 20
2168.150979165396
 30
0.0
 40
9.0
 41
0.0
 46
0.0
 71
     2
 72
     1
  1
\A1;44
  7
SLDTEXTSTYLE0
 11
0.0000000000000001
 21
1.0
 31
0.0
 73
     1
 44
1.0
  0
POINT
  5
C97
330
C8F
100
AcDbEntity
  8
Defpoints
 62
     0
440
 16777216
100
AcDbPoint
 10
291.9073771697114
 20
2187.620977439692
 30
0.0
  0
POINT
  5
C98
330
C8F
100
AcDbEntity
  8
Defpoints
 62
     0
440
 16777216
100
AcDbPoint
 10
291.1573771697113
 20
2143.620977439688
 30
0.0
  0
POINT
  5
C99
330
C8F
100
AcDbEntity
  8
Defpoints
 62
     0
440
 16777216
100
AcDbPoint
 10
231.4566811799185
 20
2143.620977439688
 30
0.0
  0
ENDBLK
  5
C9A
330
C8F
100
AcDbEntity
  8
0
100
AcDbBlockEnd
  0
BLOCK
  5
C9C
330
C9B
100
AcDbEntity
  8
0
100
AcDbBlockBegin
  2
*D6
 70
     1
 10
0.0
 20
0.0
 30
0.0
  3
*D6
  1

  0
LINE
  5
C9D
330
C9B
100
AcDbEntity
  8
AM_0
 62
     0
440
 16777216
370
    -2
100
AcDbLine
 10
268.2071696315015
 20
2153.683477439691
 30
0.0
 11
268.2071696315015
 21
2228.582676057834
 31
0.0
  0
LINE
  5
C9E
330
C9B
100
AcDbEntity
  8
AM_0
 62
     0
440
 16777216
370
    -2
100
AcDbLine
 10
501.607584707921
 20
2153.683477439691
 30
0.0
 11
501.607584707921
 21
2228.582676057834
 31
0.0
  0
LINE
  5
C9F
330
C9B
100
AcDbEntity
  8
AM_0
 62
     0
440
 16777216
370
    -2
100
AcDbLine
 10
278.2071696315015
 20
2228.582676057834
 30
0.0
 11
491.6075847079208
 21
2228.582676057834
 31
0.0
  0
SOLID
  5
CA0
330
C9B
100
AcDbEntity
  8
AM_0
 62
     0
440
 16777216
100
AcDbTrace
 10
278.2071696315015
 20
2230.2493427245
 30
0.0
 11
278.2071696315015
 21
2226.916009391167
 31
0.0
 12
268.2071696315015
 22
2228.582676057834
 32
0.0
 13
268.2071696315015
 23
2228.582676057834
 33
0.0
  0
SOLID
  5
CA1
330
C9B
100
AcDbEntity
  8
AM_0
 62
     0
440
 16777216
100
AcDbTrace
 10
491.6075847079208
 20
2230.2493427245
 30
0.0
 11
491.6075847079208
 21
2226.916009391167
 31
0.0
 12
501.607584707921
 22
2228.582676057834
 32
0.0
 13
501.607584707921
 23
2228.582676057834
 33
0.0
  0
MTEXT
  5
CA2
330
C9B
100
AcDbEntity
  8
AM_0
 62
     0
440
 16777216
100
AcDbMText
 10
384.2431439002027
 20
2241.332676057834
 30
0.0
 40
9.0
 41
0.0
 46
0.0
 71
     2
 72
     1
  1
\A1;%%C233,5
  7
SLDTEXTSTYLE0
 73
     1
 44
1.0
  0
POINT
  5
CA3
330
C9B
100
AcDbEntity
  8
Defpoints
 62
     0
440
 16777216
100
AcDbPoint
 10
268.2071696315015
 20
2153.620977439691
 30
0.0
  0
POINT
  5
CA4
330
C9B
100
AcDbEntity
  8
Defpoints
 62
     0
440
 16777216
100
AcDbPoint
 10
501.607584707921
 20
2153.620977439691
 30
0.0
  0
POINT
  5
CA5
330
C9B
100
AcDbEntity
  8
Defpoints
 62
     0
440
 16777216
100
AcDbPoint
 10
501.607584707921
 20
2228.582676057834
 30
0.0
  0
ENDBLK
  5
CA6
330
C9B
100
AcDbEntity
  8
0
100
AcDbBlockEnd
  0
BLOCK
  5
ECB
330
ECA
100
AcDbEntity
  8
0
100
AcDbBlockBegin
  2
*D8
 70
     1
 10
0.0
 20
0.0
 30
0.0
  3
*D8
  1

  0
LINE
  5
EFA
330
ECA
100
AcDbEntity
  8
AM_0
 62
     0
440
 16777216
370
    -2
100
AcDbLine
 10
78.99253298360969
 20
333.9914505976999
 30
0.0
 11
78.99253298360969
 21
432.1566103628184
 31
0.0
  0
LINE
  5
EFB
330
ECA
100
AcDbEntity
  8
AM_0
 62
     0
440
 16777216
370
    -2
100
AcDbLine
 10
337.9925329836095
 20
333.9914505976999
 30
0.0
 11
337.9925329836095
 21
432.1566103628184
 31
0.0
  0
LINE
  5
EFC
330
ECA
100
AcDbEntity
  8
AM_0
 62
     0
440
 16777216
370
    -2
100
AcDbLine
 10
88.99253298360969
 20
432.1566103628184
 30
0.0
 11
327.9925329836095
 21
432.1566103628184
 31
0.0
  0
SOLID
  5
EFD
330
ECA
100
AcDbEntity
  8
AM_0
 62
     0
440
 16777216
100
AcDbTrace
 10
88.99253298360969
 20
433.823277029485
 30
0.0
 11
88.99253298360969
 21
430.4899436961516
 31
0.0
 12
78.99253298360969
 22
432.1566103628184
 32
0.0
 13
78.99253298360969
 23
432.1566103628184
 33
0.0
  0
SOLID
  5
EFE
330
ECA
100
AcDbEntity
  8
AM_0
 62
     0
440
 16777216
100
AcDbTrace
 10
327.9925329836095
 20
433.823277029485
 30
0.0
 11
327.9925329836095
 21
430.4899436961516
 31
0.0
 12
337.9925329836095
 22
432.1566103628184
 32
0.0
 13
337.9925329836095
 23
432.1566103628184
 33
0.0
  0
MTEXT
  5
EFF
330
ECA
100
AcDbEntity
  8
AM_0
 62
     0
440
 16777216
100
AcDbMText
 10
208.4925329836097
 20
443.4066103628183
 30
0.0
 40
9.0
 41
0.0
 46
0.0
 71
     2
 72
     1
  1
\A1;%%C259
  7
SLDTEXTSTYLE0
 73
     1
 44
1.0
  0
POINT
  5
F00
330
ECA
100
AcDbEntity
  8
Defpoints
 62
     0
440
 16777216
100
AcDbPoint
 10
78.99253298360969
 20
333.9289505976999
 30
0.0
  0
POINT
  5
F01
330
ECA
100
AcDbEntity
  8
Defpoints
 62
     0
440
 16777216
100
AcDbPoint
 10
337.9925329836095
 20
333.9289505976999
 30
0.0
  0
POINT
  5
F02
330
ECA
100
AcDbEntity
  8
Defpoints
 62
     0
440
 16777216
100
AcDbPoint
 10
337.9925329836095
 20
432.1566103628184
 30
0.0
  0
ENDBLK
  5
ECC
330
ECA
100
AcDbEntity
  8
0
100
AcDbBlockEnd
  0
BLOCK
  5
ED7
330
ED6
100
AcDbEntity
  8
0
100
AcDbBlockBegin
  2
*D9
 70
     1
 10
0.0
 20
0.0
 30
0.0
  3
*D9
  1

  0
LINE
  5
F03
330
ED6
100
AcDbEntity
  8
AM_0
 62
     0
440
 16777216
370
    -2
100
AcDbLine
 10
113.9925329836097
 20
371.9914505976999
 30
0.0
 11
113.9925329836097
 21
386.2967873302691
 31
0.0
  0
LINE
  5
F04
330
ED6
100
AcDbEntity
  8
AM_0
 62
     0
440
 16777216
370
    -2
100
AcDbLine
 10
302.9925329836095
 20
371.9914505976999
 30
0.0
 11
302.9925329836095
 21
386.2967873302691
 31
0.0
  0
LINE
  5
F05
330
ED6
100
AcDbEntity
  8
AM_0
 62
     0
440
 16777216
370
    -2
100
AcDbLine
 10
123.9925329836097
 20
386.2967873302691
 30
0.0
 11
292.9925329836095
 21
386.2967873302691
 31
0.0
  0
SOLID
  5
F06
330
ED6
100
AcDbEntity
  8
AM_0
 62
     0
440
 16777216
100
AcDbTrace
 10
123.9925329836097
 20
387.9634539969358
 30
0.0
 11
123.9925329836097
 21
384.6301206636025
 31
0.0
 12
113.9925329836097
 22
386.2967873302691
 32
0.0
 13
113.9925329836097
 23
386.2967873302691
 33
0.0
  0
SOLID
  5
F07
330
ED6
100
AcDbEntity
  8
AM_0
 62
     0
440
 16777216
100
AcDbTrace
 10
292.9925329836095
 20
387.9634539969358
 30
0.0
 11
292.9925329836095
 21
384.6301206636025
 31
0.0
 12
302.9925329836095
 22
386.2967873302691
 32
0.0
 13
302.9925329836095
 23
386.2967873302691
 33
0.0
  0
MTEXT
  5
F08
330
ED6
100
AcDbEntity
  8
AM_0
 62
     0
440
 16777216
100
AcDbMText
 10
203.5416856919255
 20
397.5467873302691
 30
0.0
 40
9.0
 41
0.0
 46
0.0
 71
     2
 72
     1
  1
\A1;%%c189
  7
SLDTEXTSTYLE0
 73
     1
 44
1.0
  0
POINT
  5
F09
330
ED6
100
AcDbEntity
  8
Defpoints
 62
     0
440
 16777216
100
AcDbPoint
 10
113.9925329836097
 20
371.9289505976999
 30
0.0
  0
POINT
  5
F0A
330
ED6
100
AcDbEntity
  8
Defpoints
 62
     0
440
 16777216
100
AcDbPoint
 10
302.9925329836095
 20
371.9289505976999
 30
0.0
  0
POINT
  5
F0B
330
ED6
100
AcDbEntity
  8
Defpoints
 62
     0
440
 16777216
100
AcDbPoint
 10
302.9925329836095
 20
386.2967873302691
 30
0.0
  0
ENDBLK
  5
ED8
330
ED6
100
AcDbEntity
  8
0
100
AcDbBlockEnd
  0
BLOCK
  5
EE3
330
EE2
100
AcDbEntity
  8
0
100
AcDbBlockBegin
  2
*D10
 70
     1
 10
0.0
 20
0.0
 30
0.0
  3
*D10
  1

  0
LINE
  5
F0C
330
EE2
100
AcDbEntity
  8
AM_0
 62
     0
440
 16777216
370
    -2
100
AcDbLine
 10
115.4300329836096
 20
371.9289505977
 30
0.0
 11
55.04183699381737
 21
371.9289505977
 31
0.0
  0
LINE
  5
F0D
330
EE2
100
AcDbEntity
  8
AM_0
 62
     0
440
 16777216
370
    -2
100
AcDbLine
 10
114.6800329836097
 20
327.9289505976964
 30
0.0
 11
55.04183699381739
 21
327.9289505976964
 31
0.0
  0
LINE
  5
F0E
330
EE2
100
AcDbEntity
  8
AM_0
 62
     0
440
 16777216
370
    -2
100
AcDbLine
 10
55.04183699381738
 20
361.9289505977
 30
0.0
 11
55.04183699381738
 21
337.9289505976964
 31
0.0
  0
SOLID
  5
F0F
330
EE2
100
AcDbEntity
  8
AM_0
 62
     0
440
 16777216
100
AcDbTrace
 10
53.37517032715072
 20
361.9289505977
 30
0.0
 11
56.70850366048405
 21
361.9289505977
 31
0.0
 12
55.04183699381737
 22
371.9289505977
 32
0.0
 13
55.04183699381737
 23
371.9289505977
 33
0.0
  0
SOLID
  5
F10
330
EE2
100
AcDbEntity
  8
AM_0
 62
     0
440
 16777216
100
AcDbTrace
 10
53.37517032715072
 20
337.9289505976964
 30
0.0
 11
56.70850366048405
 21
337.9289505976964
 31
0.0
 12
55.04183699381739
 22
327.9289505976964
 32
0.0
 13
55.04183699381739
 23
327.9289505976964
 33
0.0
  0
MTEXT
  5
F11
330
EE2
100
AcDbEntity
  8
AM_0
 62
     0
440
 16777216
100
AcDbMText
 10
43.79183699381747
 20
352.4589523234054
 30
0.0
 40
9.0
 41
0.0
 46
0.0
 71
     2
 72
     1
  1
\A1;44
  7
SLDTEXTSTYLE0
 11
0.0000000000000001
 21
1.0
 31
0.0
 73
     1
 44
1.0
  0
POINT
  5
F12
330
EE2
100
AcDbEntity
  8
Defpoints
 62
     0
440
 16777216
100
AcDbPoint
 10
115.4925329836096
 20
371.9289505977
 30
0.0
  0
POINT
  5
F13
330
EE2
100
AcDbEntity
  8
Defpoints
 62
     0
440
 16777216
100
AcDbPoint
 10
114.7425329836097
 20
327.9289505976964
 30
0.0
  0
POINT
  5
F14
330
EE2
100
AcDbEntity
  8
Defpoints
 62
     0
440
 16777216
100
AcDbPoint
 10
55.04183699381739
 20
327.9289505976964
 30
0.0
  0
ENDBLK
  5
EE4
330
EE2
100
AcDbEntity
  8
0
100
AcDbBlockEnd
  0
BLOCK
  5
EEF
330
EEE
100
AcDbEntity
  8
0
100
AcDbBlockBegin
  2
*D11
 70
     1
 10
0.0
 20
0.0
 30
0.0
  3
*D11
  1

  0
LINE
  5
F15
330
EEE
100
AcDbEntity
  8
AM_0
 62
     0
440
 16777216
370
    -2
100
AcDbLine
 10
91.7923254453999
 20
337.9914505976999
 30
0.0
 11
91.7923254453999
 21
412.890649215843
 31
0.0
  0
LINE
  5
F16
330
EEE
100
AcDbEntity
  8
AM_0
 62
     0
440
 16777216
370
    -2
100
AcDbLine
 10
325.1927405218193
 20
337.9914505976999
 30
0.0
 11
325.1927405218193
 21
412.890649215843
 31
0.0
  0
LINE
  5
F17
330
EEE
100
AcDbEntity
  8
AM_0
 62
     0
440
 16777216
370
    -2
100
AcDbLine
 10
101.7923254453999
 20
412.890649215843
 30
0.0
 11
315.1927405218194
 21
412.890649215843
 31
0.0
  0
SOLID
  5
F18
330
EEE
100
AcDbEntity
  8
AM_0
 62
     0
440
 16777216
100
AcDbTrace
 10
101.7923254453999
 20
414.5573158825097
 30
0.0
 11
101.7923254453999
 21
411.2239825491763
 31
0.0
 12
91.7923254453999
 22
412.890649215843
 32
0.0
 13
91.7923254453999
 23
412.890649215843
 33
0.0
  0
SOLID
  5
F19
330
EEE
100
AcDbEntity
  8
AM_0
 62
     0
440
 16777216
100
AcDbTrace
 10
315.1927405218194
 20
414.5573158825097
 30
0.0
 11
315.1927405218194
 21
411.2239825491763
 31
0.0
 12
325.1927405218193
 22
412.890649215843
 32
0.0
 13
325.1927405218193
 23
412.890649215843
 33
0.0
  0
MTEXT
  5
F1A
330
EEE
100
AcDbEntity
  8
AM_0
 62
     0
440
 16777216
100
AcDbMText
 10
207.8282997141011
 20
425.640649215843
 30
0.0
 40
9.0
 41
0.0
 46
0.0
 71
     2
 72
     1
  1
\A1;%%C233,5
  7
SLDTEXTSTYLE0
 73
     1
 44
1.0
  0
POINT
  5
F1B
330
EEE
100
AcDbEntity
  8
Defpoints
 62
     0
440
 16777216
100
AcDbPoint
 10
91.7923254453999
 20
337.9289505976999
 30
0.0
  0
POINT
  5
F1C
330
EEE
100
AcDbEntity
  8
Defpoints
 62
     0
440
 16777216
100
AcDbPoint
 10
325.1927405218193
 20
337.9289505976999
 30
0.0
  0
POINT
  5
F1D
330
EEE
100
AcDbEntity
  8
Defpoints
 62
     0
440
 16777216
100
AcDbPoint
 10
325.1927405218193
 20
412.890649215843
 30
0.0
  0
ENDBLK
  5
EF0
330
EEE
100
AcDbEntity
  8
0
100
AcDbBlockEnd
  0
ENDSEC
  0
SECTION
  2
ENTITIES
  0
ARC
  5
DC5
330
1F
100
AcDbEntity
  8
AM_0
  6
Continuous
 62
     7
370
    35
100
AcDbCircle
 10
208.4925329836097
 20
132.4999986210162
 30
0.0
 40
95.72929220505214
100
AcDbArc
 50
5.996126846619052
 51
84.00387315338061
  0
ARC
  5
DC6
330
1F
100
AcDbEntity
  8
AM_0
  6
Continuous
 62
     7
370
    35
100
AcDbCircle
 10
208.4925329836097
 20
132.4999986210162
 30
0.0
 40
95.72929220505214
100
AcDbArc
 50
275.9961268466194
 51
354.0038731533809
  0
ARC
  5
DC7
330
1F
100
AcDbEntity
  8
AM_0
  6
Continuous
 62
     7
370
    35
100
AcDbCircle
 10
208.4925329836097
 20
132.4999986210162
 30
0.0
 40
95.72929220505214
100
AcDbArc
 50
185.996126846619
 51
264.0038731533806
  0
ARC
  5
DC8
330
1F
100
AcDbEntity
  8
AM_0
  6
Continuous
 62
     7
370
    35
100
AcDbCircle
 10
208.4925329836097
 20
132.4999986210162
 30
0.0
 40
95.72929220505214
100
AcDbArc
 50
95.9961268466194
 51
174.0038731533809
  0
CIRCLE
  5
DC9
330
1F
100
AcDbEntity
  8
AM_0
  6
Continuous
 62
     7
370
    35
100
AcDbCircle
 10
208.4925329836097
 20
132.4999986210162
 30
0.0
 40
91.77070779494801
  0
ARC
  5
DCA
330
1F
100
AcDbEntity
  8
AM_0
  6
Continuous
 62
     7
370
    35
100
AcDbCircle
 10
208.4925329836097
 20
132.4999986210162
 30
0.0
 40
97.72848506571587
100
AcDbArc
 50
5.873030486524761
 51
84.12696951347589
  0
ARC
  5
DCB
330
1F
100
AcDbEntity
  8
AM_0
  6
Continuous
 62
     7
370
    35
100
AcDbCircle
 10
208.4925329836097
 20
132.4999986210162
 30
0.0
 40
97.72848506571584
100
AcDbArc
 50
275.8730304865241
 51
354.1269695134752
  0
ARC
  5
DCC
330
1F
100
AcDbEntity
  8
AM_0
  6
Continuous
 62
     7
370
    35
100
AcDbCircle
 10
208.4925329836097
 20
132.4999986210162
 30
0.0
 40
97.72848506571587
100
AcDbArc
 50
185.8730304865247
 51
264.1269695134759
  0
ARC
  5
DCD
330
1F
100
AcDbEntity
  8
AM_0
  6
Continuous
 62
     7
370
    35
100
AcDbCircle
 10
208.4925329836097
 20
132.4999986210162
 30
0.0
 40
97.72848506571582
100
AcDbArc
 50
95.87303048652408
 51
174.1269695134752
  0
CIRCLE
  5
DCE
330
1F
100
AcDbEntity
  8
AM_0
  6
Continuous
 62
     7
370
    35
100
AcDbCircle
 10
208.4925329836097
 20
132.4999986210162
 30
0.0
 40
89.77151493428484
  0
ARC
  5
DCF
330
1F
100
AcDbEntity
  8
AM_0
  6
Continuous
 62
     7
370
    35
100
AcDbCircle
 10
208.4925329836097
 20
132.4999986210162
 30
0.0
 40
98.4517839046728
100
AcDbArc
 50
5.829732830933113
 51
84.17026716906706
  0
ARC
  5
DD0
330
1F
100
AcDbEntity
  8
AM_0
  6
Continuous
 62
     7
370
    35
100
AcDbCircle
 10
208.4925329836097
 20
132.4999986210162
 30
0.0
 40
98.4517839046728
100
AcDbArc
 50
275.8297328309329
 51
354.1702671690669
  0
ARC
  5
DD1
330
1F
100
AcDbEntity
  8
AM_0
  6
Continuous
 62
     7
370
    35
100
AcDbCircle
 10
208.4925329836097
 20
132.4999986210162
 30
0.0
 40
98.4517839046728
100
AcDbArc
 50
185.829732830933
 51
264.1702671690671
  0
ARC
  5
DD2
330
1F
100
AcDbEntity
  8
AM_0
  6
Continuous
 62
     7
370
    35
100
AcDbCircle
 10
208.4925329836097
 20
132.4999986210162
 30
0.0
 40
98.45178390467282
100
AcDbArc
 50
95.82973283093295
 51
174.1702671690669
  0
CIRCLE
  5
DD3
330
1F
100
AcDbEntity
  8
AM_0
  6
Continuous
 62
     7
370
    35
100
AcDbCircle
 10
208.4925329836097
 20
132.4999986210162
 30
0.0
 40
89.04821609532787
  0
LINE
  5
DD4
330
1F
100
AcDbEntity
  8
AM_0
  6
Continuous
 62
     7
370
    35
100
AcDbLine
 10
302.9925307782378
 20
122.4999988445331
 30
0.0
 11
304.9925348313536
 21
122.4999988445331
 31
0.0
  0
LINE
  5
DD5
330
1F
100
AcDbEntity
  8
AM_0
  6
Continuous
 62
     7
370
    35
100
AcDbLine
 10
302.9925307782378
 20
122.4999988445331
 30
0.0
 11
302.9925307782378
 21
142.499998397499
 31
0.0
  0
LINE
  5
DD6
330
1F
100
AcDbEntity
  8
AM_0
  6
Continuous
 62
     7
370
    35
100
AcDbLine
 10
302.9925307782378
 20
142.499998397499
 30
0.0
 11
304.9925348313536
 21
142.499998397499
 31
0.0
  0
LINE
  5
DD7
330
1F
100
AcDbEntity
  8
AM_0
  6
Continuous
 62
     7
370
    35
100
AcDbLine
 10
304.9925348313536
 20
122.4999988445331
 30
0.0
 11
304.9925348313536
 21
142.499998397499
 31
0.0
  0
LINE
  5
DD8
330
1F
100
AcDbEntity
  8
AM_0
  6
Continuous
 62
     7
370
    35
100
AcDbLine
 10
304.9925348313536
 20
122.4999988445331
 30
0.0
 11
305.1131448300566
 21
122.4999988445331
 31
0.0
  0
LINE
  5
DD9
330
1F
100
AcDbEntity
  8
AM_0
  6
Continuous
 62
     7
370
    35
100
AcDbLine
 10
304.9925348313536
 20
142.499998397499
 30
0.0
 11
305.1131448300566
 21
142.499998397499
 31
0.0
  0
LINE
  5
DDA
330
1F
100
AcDbEntity
  8
AM_0
  6
Continuous
 62
     7
370
    35
100
AcDbLine
 10
305.1131448300566
 20
142.499998397499
 30
0.0
 11
314.5135647209372
 21
142.499998397499
 31
0.0
  0
LINE
  5
DDB
330
1F
100
AcDbEntity
  8
AM_0
  6
Continuous
 62
     7
370
    35
100
AcDbLine
 10
305.1131448300566
 20
122.4999988445331
 30
0.0
 11
314.5135647209372
 21
122.4999988445331
 31
0.0
  0
LINE
  5
DDC
330
1F
100
AcDbEntity
  8
AM_0
  6
Continuous
 62
     7
370
    35
100
AcDbLine
 10
314.5135647209372
 20
122.4999988445331
 30
0.0
 11
316.3929513247695
 21
122.4999988445331
 31
0.0
  0
LINE
  5
DDD
330
1F
100
AcDbEntity
  8
AM_0
  6
Continuous
 62
     7
370
    35
100
AcDbLine
 10
314.5135647209372
 20
142.499998397499
 30
0.0
 11
316.3929513247695
 21
142.499998397499
 31
0.0
  0
LINE
  5
DDE
330
1F
100
AcDbEntity
  8
AM_0
  6
Continuous
 62
     7
370
    35
100
AcDbLine
 10
316.3929513247695
 20
122.4999988445331
 30
0.0
 11
327.9925292881217
 21
122.4999988445331
 31
0.0
  0
LINE
  5
DDF
330
1F
100
AcDbEntity
  8
AM_0
  6
Continuous
 62
     7
370
    35
100
AcDbLine
 10
316.3929513247695
 20
142.499998397499
 30
0.0
 11
327.9925292881217
 21
142.499998397499
 31
0.0
  0
ARC
  5
DE0
330
1F
100
AcDbEntity
  8
AM_0
  6
Continuous
 62
     7
370
    35
100
AcDbCircle
 10
327.9925329836095
 20
132.4999986210162
 30
0.0
 40
10.00000000000003
100
AcDbArc
 50
0.0
 51
90.0
  0
ARC
  5
DE1
330
1F
100
AcDbEntity
  8
AM_0
  6
Continuous
 62
     7
370
    35
100
AcDbCircle
 10
327.9925329836095
 20
132.4999986210162
 30
0.0
 40
10.0
100
AcDbArc
 50
270.0
 51
0.0
  0
ARC
  5
DE2
330
1F
100
AcDbEntity
  8
AM_0
  6
Continuous
 62
     7
370
    35
100
AcDbCircle
 10
327.1927405218193
 20
132.4999986210162
 30
0.0
 40
5.0
100
AcDbArc
 50
270.0
 51
90.0
  0
LINE
  5
DE3
330
1F
100
AcDbEntity
  8
AM_0
  6
Continuous
 62
     7
370
    35
100
AcDbLine
 10
323.1927386077132
 20
137.4999985092561
 30
0.0
 11
327.1927392633643
 21
137.4999985092561
 31
0.0
  0
ARC
  5
DE4
330
1F
100
AcDbEntity
  8
AM_0
  6
Continuous
 62
     7
370
    35
100
AcDbCircle
 10
323.1927405218192
 20
132.4999986210162
 30
0.0
 40
5.0
100
AcDbArc
 50
90.0
 51
270.0
  0
LINE
  5
DE5
330
1F
100
AcDbEntity
  8
AM_0
  6
Continuous
 62
     7
370
    35
100
AcDbLine
 10
323.1927386077132
 20
127.4999987327751
 30
0.0
 11
327.1927392633643
 21
127.4999987327751
 31
0.0
  0
LINE
  5
DE6
330
1F
100
AcDbEntity
  8
AM_0
  6
Continuous
 62
     7
370
    35
100
AcDbLine
 10
198.492533207127
 20
35.99999677327219
 30
0.0
 11
218.4925327600922
 21
35.99999677327219
 31
0.0
  0
LINE
  5
DE7
330
1F
100
AcDbEntity
  8
AM_0
  6
Continuous
 62
     7
370
    35
100
AcDbLine
 10
218.4925327600922
 20
38.00000082638803
 30
0.0
 11
218.4925327600922
 21
35.99999677327219
 31
0.0
  0
LINE
  5
DE8
330
1F
100
AcDbEntity
  8
AM_0
  6
Continuous
 62
     7
370
    35
100
AcDbLine
 10
198.492533207127
 20
38.00000082638803
 30
0.0
 11
198.492533207127
 21
35.99999677327219
 31
0.0
  0
LINE
  5
DE9
330
1F
100
AcDbEntity
  8
AM_0
  6
Continuous
 62
     7
370
    35
100
AcDbLine
 10
198.492533207127
 20
38.00000082638803
 30
0.0
 11
218.4925327600922
 21
38.00000082638803
 31
0.0
  0
LINE
  5
DEA
330
1F
100
AcDbEntity
  8
AM_0
  6
Continuous
 62
     7
370
    35
100
AcDbLine
 10
218.4925327600922
 20
35.99999677327219
 30
0.0
 11
218.4925327600922
 21
35.87938677456918
 31
0.0
  0
LINE
  5
DEB
330
1F
100
AcDbEntity
  8
AM_0
  6
Continuous
 62
     7
370
    35
100
AcDbLine
 10
198.492533207127
 20
35.99999677327219
 30
0.0
 11
198.492533207127
 21
35.87938677456918
 31
0.0
  0
LINE
  5
DEC
330
1F
100
AcDbEntity
  8
AM_0
  6
Continuous
 62
     7
370
    35
100
AcDbLine
 10
198.492533207127
 20
35.87938677456918
 30
0.0
 11
198.492533207127
 21
26.47896688368906
 31
0.0
  0
LINE
  5
DED
330
1F
100
AcDbEntity
  8
AM_0
  6
Continuous
 62
     7
370
    35
100
AcDbLine
 10
218.4925327600922
 20
35.87938677456918
 30
0.0
 11
218.4925327600922
 21
26.47896688368906
 31
0.0
  0
LINE
  5
DEE
330
1F
100
AcDbEntity
  8
AM_0
  6
Continuous
 62
     7
370
    35
100
AcDbLine
 10
198.492533207127
 20
26.47896688368906
 30
0.0
 11
198.492533207127
 21
24.59958027985726
 31
0.0
  0
LINE
  5
DEF
330
1F
100
AcDbEntity
  8
AM_0
  6
Continuous
 62
     7
370
    35
100
AcDbLine
 10
218.4925327600922
 20
26.47896688368906
 30
0.0
 11
218.4925327600922
 21
24.59958027985726
 31
0.0
  0
LINE
  5
DF0
330
1F
100
AcDbEntity
  8
AM_0
  6
Continuous
 62
     7
370
    35
100
AcDbLine
 10
198.492533207127
 20
24.59958027985726
 30
0.0
 11
198.492533207127
 21
13.00000231650415
 31
0.0
  0
LINE
  5
DF1
330
1F
100
AcDbEntity
  8
AM_0
  6
Continuous
 62
     7
370
    35
100
AcDbLine
 10
218.4925327600922
 20
24.59958027985726
 30
0.0
 11
218.4925327600922
 21
13.00000231650415
 31
0.0
  0
ARC
  5
DF2
330
1F
100
AcDbEntity
  8
AM_0
  6
Continuous
 62
     7
370
    35
100
AcDbCircle
 10
208.492532983611
 20
12.99999862101617
 30
0.0
 40
10.0
100
AcDbArc
 50
270.0
 51
0.0
  0
ARC
  5
DF3
330
1F
100
AcDbEntity
  8
AM_0
  6
Continuous
 62
     7
370
    35
100
AcDbCircle
 10
208.492532983611
 20
12.99999862101617
 30
0.0
 40
10.0
100
AcDbArc
 50
180.0
 51
270.0
  0
LINE
  5
DF4
330
1F
100
AcDbEntity
  8
AM_0
  6
Continuous
 62
     7
370
    35
100
AcDbLine
 10
213.4925328718509
 20
17.79979299691331
 30
0.0
 11
213.4925328718509
 21
13.79979234126199
 31
0.0
  0
ARC
  5
DF5
330
1F
100
AcDbEntity
  8
AM_0
  6
Continuous
 62
     7
370
    35
100
AcDbCircle
 10
208.4925329836106
 20
17.79979108280713
 30
0.0
 40
5.000000000000028
100
AcDbArc
 50
0.0
 51
180.0
  0
LINE
  5
DF6
330
1F
100
AcDbEntity
  8
AM_0
  6
Continuous
 62
     7
370
    35
100
AcDbLine
 10
203.4925330953684
 20
17.79979299691331
 30
0.0
 11
203.4925330953684
 21
13.79979234126199
 31
0.0
  0
ARC
  5
DF7
330
1F
100
AcDbEntity
  8
AM_0
  6
Continuous
 62
     7
370
    35
100
AcDbCircle
 10
208.492532983611
 20
13.79979108280713
 30
0.0
 40
5.0
100
AcDbArc
 50
180.0
 51
0.0
  0
LINE
  5
DF8
330
1F
100
AcDbEntity
  8
AM_0
  6
Continuous
 62
     7
370
    35
100
AcDbLine
 10
218.4925327600922
 20
229.0000004687611
 30
0.0
 11
198.492533207127
 21
229.0000004687611
 31
0.0
  0
LINE
  5
DF9
330
1F
100
AcDbEntity
  8
AM_0
  6
Continuous
 62
     7
370
    35
100
AcDbLine
 10
218.4925327600922
 20
226.9999964156452
 30
0.0
 11
218.4925327600922
 21
229.0000004687611
 31
0.0
  0
LINE
  5
DFA
330
1F
100
AcDbEntity
  8
AM_0
  6
Continuous
 62
     7
370
    35
100
AcDbLine
 10
218.4925327600922
 20
226.9999964156452
 30
0.0
 11
198.492533207127
 21
226.9999964156452
 31
0.0
  0
LINE
  5
DFB
330
1F
100
AcDbEntity
  8
AM_0
  6
Continuous
 62
     7
370
    35
100
AcDbLine
 10
198.492533207127
 20
226.9999964156452
 30
0.0
 11
198.492533207127
 21
229.0000004687611
 31
0.0
  0
LINE
  5
DFC
330
1F
100
AcDbEntity
  8
AM_0
  6
Continuous
 62
     7
370
    35
100
AcDbLine
 10
218.4925327600922
 20
229.0000004687611
 30
0.0
 11
218.4925327600922
 21
229.1206104674641
 31
0.0
  0
LINE
  5
DFD
330
1F
100
AcDbEntity
  8
AM_0
  6
Continuous
 62
     7
370
    35
100
AcDbLine
 10
198.492533207127
 20
229.0000004687611
 30
0.0
 11
198.492533207127
 21
229.1206104674641
 31
0.0
  0
LINE
  5
DFE
330
1F
100
AcDbEntity
  8
AM_0
  6
Continuous
 62
     7
370
    35
100
AcDbLine
 10
218.4925327600922
 20
229.1206104674641
 30
0.0
 11
218.4925327600922
 21
238.5210303583453
 31
0.0
  0
LINE
  5
DFF
330
1F
100
AcDbEntity
  8
AM_0
  6
Continuous
 62
     7
370
    35
100
AcDbLine
 10
198.492533207127
 20
229.1206104674641
 30
0.0
 11
198.492533207127
 21
238.5210303583453
 31
0.0
  0
LINE
  5
E00
330
1F
100
AcDbEntity
  8
AM_0
  6
Continuous
 62
     7
370
    35
100
AcDbLine
 10
198.492533207127
 20
238.5210303583453
 30
0.0
 11
198.492533207127
 21
240.4004169621771
 31
0.0
  0
LINE
  5
E01
330
1F
100
AcDbEntity
  8
AM_0
  6
Continuous
 62
     7
370
    35
100
AcDbLine
 10
218.4925327600922
 20
238.5210303583453
 30
0.0
 11
218.4925327600922
 21
240.4004169621771
 31
0.0
  0
LINE
  5
E02
330
1F
100
AcDbEntity
  8
AM_0
  6
Continuous
 62
     7
370
    35
100
AcDbLine
 10
203.4925330953684
 20
247.2002042451213
 30
0.0
 11
203.4925330953684
 21
251.2002049007724
 31
0.0
  0
ARC
  5
E03
330
1F
100
AcDbEntity
  8
AM_0
  6
Continuous
 62
     7
370
    35
100
AcDbCircle
 10
208.4925329836092
 20
247.200206159227
 30
0.0
 40
5.000000000000028
100
AcDbArc
 50
180.0
 51
0.0
  0
LINE
  5
E04
330
1F
100
AcDbEntity
  8
AM_0
  6
Continuous
 62
     7
370
    35
100
AcDbLine
 10
213.4925328718509
 20
247.2002042451213
 30
0.0
 11
213.4925328718509
 21
251.2002049007724
 31
0.0
  0
ARC
  5
E05
330
1F
100
AcDbEntity
  8
AM_0
  6
Continuous
 62
     7
370
    35
100
AcDbCircle
 10
208.4925329836092
 20
251.9999986210173
 30
0.0
 40
10.00000000000003
100
AcDbArc
 50
90.0
 51
180.0
  0
ARC
  5
E06
330
1F
100
AcDbEntity
  8
AM_0
  6
Continuous
 62
     7
370
    35
100
AcDbCircle
 10
208.4925329836092
 20
251.9999986210173
 30
0.0
 40
10.0
100
AcDbArc
 50
0.0
 51
90.0
  0
ARC
  5
E07
330
1F
100
AcDbEntity
  8
AM_0
  6
Continuous
 62
     7
370
    35
100
AcDbCircle
 10
208.4925329836092
 20
251.200206159227
 30
0.0
 40
5.000000000000028
100
AcDbArc
 50
0.0
 51
180.0
  0
LINE
  5
E08
330
1F
100
AcDbEntity
  8
AM_0
  6
Continuous
 62
     7
370
    35
100
AcDbLine
 10
198.492533207127
 20
240.4004169621771
 30
0.0
 11
198.492533207127
 21
251.9999949255289
 31
0.0
  0
LINE
  5
E09
330
1F
100
AcDbEntity
  8
AM_0
  6
Continuous
 62
     7
370
    35
100
AcDbLine
 10
218.4925327600922
 20
240.4004169621771
 30
0.0
 11
218.4925327600922
 21
251.9999949255289
 31
0.0
  0
LINE
  5
E0A
330
1F
100
AcDbEntity
  8
AM_0
  6
Continuous
 62
     7
370
    35
100
AcDbLine
 10
113.9925351889815
 20
142.499998397499
 30
0.0
 11
111.9925311358657
 21
142.499998397499
 31
0.0
  0
LINE
  5
E0B
330
1F
100
AcDbEntity
  8
AM_0
  6
Continuous
 62
     7
370
    35
100
AcDbLine
 10
113.9925351889815
 20
122.4999988445331
 30
0.0
 11
111.9925311358657
 21
122.4999988445331
 31
0.0
  0
LINE
  5
E0C
330
1F
100
AcDbEntity
  8
AM_0
  6
Continuous
 62
     7
370
    35
100
AcDbLine
 10
111.9925311358657
 20
142.499998397499
 30
0.0
 11
111.9925311358657
 21
122.4999988445331
 31
0.0
  0
LINE
  5
E0D
330
1F
100
AcDbEntity
  8
AM_0
  6
Continuous
 62
     7
370
    35
100
AcDbLine
 10
113.9925351889815
 20
142.499998397499
 30
0.0
 11
113.9925351889815
 21
122.4999988445331
 31
0.0
  0
LINE
  5
E0E
330
1F
100
AcDbEntity
  8
AM_0
  6
Continuous
 62
     7
370
    35
100
AcDbLine
 10
111.9925311358657
 20
122.4999988445331
 30
0.0
 11
111.8719211371627
 21
122.4999988445331
 31
0.0
  0
LINE
  5
E0F
330
1F
100
AcDbEntity
  8
AM_0
  6
Continuous
 62
     7
370
    35
100
AcDbLine
 10
111.9925311358657
 20
142.499998397499
 30
0.0
 11
111.8719211371627
 21
142.499998397499
 31
0.0
  0
LINE
  5
E10
330
1F
100
AcDbEntity
  8
AM_0
  6
Continuous
 62
     7
370
    35
100
AcDbLine
 10
111.8719211371627
 20
122.4999988445331
 30
0.0
 11
102.471501246282
 21
122.4999988445331
 31
0.0
  0
LINE
  5
E11
330
1F
100
AcDbEntity
  8
AM_0
  6
Continuous
 62
     7
370
    35
100
AcDbLine
 10
111.8719211371627
 20
142.499998397499
 30
0.0
 11
102.471501246282
 21
142.499998397499
 31
0.0
  0
LINE
  5
E12
330
1F
100
AcDbEntity
  8
AM_0
  6
Continuous
 62
     7
370
    35
100
AcDbLine
 10
102.471501246282
 20
142.499998397499
 30
0.0
 11
100.5921146424498
 21
142.499998397499
 31
0.0
  0
LINE
  5
E13
330
1F
100
AcDbEntity
  8
AM_0
  6
Continuous
 62
     7
370
    35
100
AcDbLine
 10
102.471501246282
 20
122.4999988445331
 30
0.0
 11
100.5921146424498
 21
122.4999988445331
 31
0.0
  0
ARC
  5
E14
330
1F
100
AcDbEntity
  8
AM_0
  6
Continuous
 62
     7
370
    35
100
AcDbCircle
 10
88.99253298360969
 20
132.4999986210162
 30
0.0
 40
10.00000000000001
100
AcDbArc
 50
180.0
 51
270.0
  0
ARC
  5
E15
330
1F
100
AcDbEntity
  8
AM_0
  6
Continuous
 62
     7
370
    35
100
AcDbCircle
 10
88.99253298360969
 20
132.4999986210162
 30
0.0
 40
10.00000000000001
100
AcDbArc
 50
90.0
 51
180.0
  0
LINE
  5
E16
330
1F
100
AcDbEntity
  8
AM_0
  6
Continuous
 62
     7
370
    35
100
AcDbLine
 10
93.79232735950608
 20
127.4999987327751
 30
0.0
 11
89.79232670385499
 21
127.4999987327751
 31
0.0
  0
ARC
  5
E17
330
1F
100
AcDbEntity
  8
AM_0
  6
Continuous
 62
     7
370
    35
100
AcDbCircle
 10
93.79232544539991
 20
132.4999986210162
 30
0.0
 40
5.0
100
AcDbArc
 50
270.0
 51
90.0
  0
LINE
  5
E18
330
1F
100
AcDbEntity
  8
AM_0
  6
Continuous
 62
     7
370
    35
100
AcDbLine
 10
93.79232735950608
 20
137.4999985092561
 30
0.0
 11
89.79232670385499
 21
137.4999985092561
 31
0.0
  0
LINE
  5
E19
330
1F
100
AcDbEntity
  8
AM_0
  6
Continuous
 62
     7
370
    35
100
AcDbLine
 10
100.5921146424498
 20
122.4999988445331
 30
0.0
 11
88.99253667909761
 21
122.4999988445331
 31
0.0
  0
LINE
  5
E1A
330
1F
100
AcDbEntity
  8
AM_0
  6
Continuous
 62
     7
370
    35
100
AcDbLine
 10
100.5921146424498
 20
142.499998397499
 30
0.0
 11
88.99253667909761
 21
142.499998397499
 31
0.0
  0
ARC
  5
E1B
330
1F
100
AcDbEntity
  8
AM_0
  6
Continuous
 62
     7
370
    35
100
AcDbCircle
 10
89.79232544539991
 20
132.4999986210162
 30
0.0
 40
5.0
100
AcDbArc
 50
90.0
 51
270.0
  0
ARC
  5
E1C
330
1F
100
AcDbEntity
  8
AM_0
  6
Continuous
 62
     7
370
    35
100
AcDbCircle
 10
208.4925329836097
 20
132.4999986210162
 30
0.0
 40
93.00000000000002
100
AcDbArc
 50
90.0
 51
89.93839163195808
  0
LINE
  5
E1D
330
1F
100
AcDbEntity
  8
0
  6
Continuous
 62
     7
370
    35
100
AcDbLine
 10
208.5941458717116
 20
226.9999442615813
 30
0.0
 11
208.5925329665315
 21
225.4999412217442
 31
0.0
  0
ARC
  5
E1E
330
1F
100
AcDbEntity
  8
AM_0
  6
Continuous
 62
     7
370
    35
100
AcDbCircle
 10
208.4925329836097
 20
132.4999986210162
 30
0.0
 40
94.50000000000001
100
AcDbArc
 50
90.0
 51
89.93839163195808
  0
LINE
  5
E1F
330
1F
100
AcDbEntity
  8
0
  6
Continuous
 62
     7
370
    35
100
AcDbLine
 10
208.4925329836106
 20
226.9999964156452
 30
0.0
 11
208.4925329836106
 21
225.5000008263894
 31
0.0
  0
LINE
  5
E20
330
1F
100
AcDbEntity
  8
AM_0
  6
Continuous
 62
     8
370
    18
100
AcDbLine
 10
305.1131448300566
 20
122.4999988445331
 30
0.0
 11
305.1131448300566
 21
142.499998397499
 31
0.0
  0
LINE
  5
E21
330
1F
100
AcDbEntity
  8
AM_0
  6
Continuous
 62
     8
370
    18
100
AcDbLine
 10
314.5135647209372
 20
122.4999988445331
 30
0.0
 11
314.5135647209372
 21
142.499998397499
 31
0.0
  0
LINE
  5
E22
330
1F
100
AcDbEntity
  8
AM_0
  6
Continuous
 62
     8
370
    18
100
AcDbLine
 10
316.3929513247695
 20
122.4999988445331
 30
0.0
 11
316.3929513247695
 21
142.499998397499
 31
0.0
  0
LINE
  5
E23
330
1F
100
AcDbEntity
  8
AM_0
  6
Continuous
 62
     8
370
    18
100
AcDbLine
 10
198.492533207127
 20
35.87938677456918
 30
0.0
 11
218.4925327600922
 21
35.87938677456918
 31
0.0
  0
LINE
  5
E24
330
1F
100
AcDbEntity
  8
AM_0
  6
Continuous
 62
     8
370
    18
100
AcDbLine
 10
198.492533207127
 20
26.47896688368906
 30
0.0
 11
218.4925327600922
 21
26.47896688368906
 31
0.0
  0
LINE
  5
E25
330
1F
100
AcDbEntity
  8
AM_0
  6
Continuous
 62
     8
370
    18
100
AcDbLine
 10
198.492533207127
 20
24.59958027985726
 30
0.0
 11
218.4925327600922
 21
24.59958027985726
 31
0.0
  0
LINE
  5
E26
330
1F
100
AcDbEntity
  8
AM_0
  6
Continuous
 62
     8
370
    18
100
AcDbLine
 10
218.4925327600922
 20
229.1206104674641
 30
0.0
 11
198.492533207127
 21
229.1206104674641
 31
0.0
  0
LINE
  5
E27
330
1F
100
AcDbEntity
  8
AM_0
  6
Continuous
 62
     8
370
    18
100
AcDbLine
 10
218.4925327600922
 20
238.5210303583453
 30
0.0
 11
198.492533207127
 21
238.5210303583453
 31
0.0
  0
LINE
  5
E28
330
1F
100
AcDbEntity
  8
AM_0
  6
Continuous
 62
     8
370
    18
100
AcDbLine
 10
218.4925327600922
 20
240.4004169621771
 30
0.0
 11
198.492533207127
 21
240.4004169621771
 31
0.0
  0
LINE
  5
E29
330
1F
100
AcDbEntity
  8
AM_0
  6
Continuous
 62
     8
370
    18
100
AcDbLine
 10
111.8719211371627
 20
142.499998397499
 30
0.0
 11
111.8719211371627
 21
122.4999988445331
 31
0.0
  0
LINE
  5
E2A
330
1F
100
AcDbEntity
  8
AM_0
  6
Continuous
 62
     8
370
    18
100
AcDbLine
 10
102.471501246282
 20
142.499998397499
 30
0.0
 11
102.471501246282
 21
122.4999988445331
 31
0.0
  0
LINE
  5
E2B
330
1F
100
AcDbEntity
  8
AM_0
  6
Continuous
 62
     8
370
    18
100
AcDbLine
 10
100.5921146424498
 20
142.499998397499
 30
0.0
 11
100.5921146424498
 21
122.4999988445331
 31
0.0
  0
LINE
  5
E2C
330
1F
100
AcDbEntity
  8
AM_0
  6
Continuous
 62
     7
370
    35
100
AcDbLine
 10
299.2632395179953
 20
348.9297581586802
 30
0.0
 11
117.721826449224
 21
348.9297581586802
 31
0.0
  0
LINE
  5
E2D
330
1F
100
AcDbEntity
  8
AM_0
  6
Continuous
 62
     7
370
    35
100
AcDbLine
 10
114.7425329836097
 20
332.4289507914155
 30
0.0
 11
117.793746903726
 21
332.4289507914155
 31
0.0
  0
LINE
  5
E2E
330
1F
100
AcDbEntity
  8
AM_0
  6
Continuous
 62
     7
370
    35
100
AcDbLine
 10
299.1913190634932
 20
332.4289507914155
 30
0.0
 11
302.2425329836097
 21
332.4289507914155
 31
0.0
  0
LINE
  5
E2F
330
1F
100
AcDbEntity
  8
AM_0
  6
Continuous
 62
     7
370
    35
100
AcDbLine
 10
114.7425329836097
 20
327.9289509851301
 30
0.0
 11
302.2425329836097
 21
327.9289509851301
 31
0.0
  0
LINE
  5
E30
330
1F
100
AcDbEntity
  8
AM_0
  6
Continuous
 62
     7
370
    35
100
AcDbLine
 10
305.221826449224
 20
348.9297581586802
 30
0.0
 11
302.9925307782378
 21
348.9297581586802
 31
0.0
  0
LINE
  5
E31
330
1F
100
AcDbEntity
  8
AM_0
  6
Continuous
 62
     7
370
    35
100
AcDbLine
 10
113.9925351889815
 20
348.9297581586802
 30
0.0
 11
111.7632395179952
 21
348.9297581586802
 31
0.0
  0
LINE
  5
E32
330
1F
100
AcDbEntity
  8
AM_0
  6
Continuous
 62
     7
370
    35
100
AcDbLine
 10
111.7150640638556
 20
331.5958832140832
 30
0.0
 11
111.6749948414054
 21
333.0017681915133
 31
0.0
  0
LINE
  5
E33
330
1F
100
AcDbEntity
  8
AM_0
  6
Continuous
 62
     7
370
    35
100
AcDbLine
 10
305.3100711258139
 20
333.0017681915133
 30
0.0
 11
305.2700019033637
 21
331.5958832140832
 31
0.0
  0
LINE
  5
E34
330
1F
100
AcDbEntity
  8
AM_0
  6
Continuous
 62
     7
370
    35
100
AcDbLine
 10
297.7156719716277
 20
331.5531541343594
 30
0.0
 11
297.5407472403731
 21
337.6912236895232
 31
0.0
  0
LINE
  5
E35
330
1F
100
AcDbEntity
  8
AM_0
  6
Continuous
 62
     7
370
    35
100
AcDbLine
 10
119.4443187268461
 20
337.6912236895232
 30
0.0
 11
119.2693939955916
 21
331.5531541343594
 31
0.0
  0
LINE
  5
E36
330
1F
100
AcDbEntity
  8
AM_0
  6
Continuous
 62
     7
370
    35
100
AcDbLine
 10
119.4443187268461
 20
337.6912236895232
 30
0.0
 11
297.5407472403731
 21
337.6912236895232
 31
0.0
  0
ARC
  5
E37
330
1F
100
AcDbEntity
  8
AM_0
  6
Continuous
 62
     7
370
    35
100
AcDbCircle
 10
295.5904388025615
 20
341.2714195291151
 30
0.0
 40
6.500000000000089
100
AcDbArc
 50
6.960527942350107
 51
45.7698165592782
  0
ARC
  5
E38
330
1F
100
AcDbEntity
  8
AM_0
  6
Continuous
 62
     7
370
    35
100
AcDbCircle
 10
121.3946271646578
 20
341.2714195291151
 30
0.0
 40
6.500000000000089
100
AcDbArc
 50
134.2301834407218
 51
173.0394720576499
  0
ARC
  5
E39
330
1F
100
AcDbEntity
  8
AM_0
  6
Continuous
 62
     7
370
    35
100
AcDbCircle
 10
295.744112728967
 20
339.713357244892
 30
0.0
 40
6.721065864736421
100
AcDbArc
 50
20.42722041663743
 51
50.15688305492991
  0
ARC
  5
E3A
330
1F
100
AcDbEntity
  8
AM_0
  6
Continuous
 62
     7
370
    35
100
AcDbCircle
 10
121.2409532382521
 20
339.713357244892
 30
0.0
 40
6.721065864736421
100
AcDbArc
 50
129.8431169450701
 51
159.5727795833625
  0
LINE
  5
E3B
330
1F
100
AcDbEntity
  8
AM_0
  6
Continuous
 62
     7
370
    35
100
AcDbLine
 10
117.4459314497198
 20
337.6108837297002
 30
0.0
 11
116.9348514230933
 21
344.8738027114232
 31
0.0
  0
LINE
  5
E3C
330
1F
100
AcDbEntity
  8
AM_0
  6
Continuous
 62
     7
370
    35
100
AcDbLine
 10
300.050214544126
 20
344.8738027114232
 30
0.0
 11
299.5391345174994
 21
337.6108837297002
 31
0.0
  0
LINE
  5
E3D
330
1F
100
AcDbEntity
  8
AM_0
  6
Continuous
 62
     7
370
    35
100
AcDbLine
 10
304.3605989368644
 20
345.9289502102692
 30
0.0
 11
304.2226290853705
 21
347.8895881894791
 31
0.0
  0
LINE
  5
E3E
330
1F
100
AcDbEntity
  8
AM_0
  6
Continuous
 62
     7
370
    35
100
AcDbLine
 10
112.624467030355
 20
345.9289502102692
 30
0.0
 11
113.9925351889815
 21
345.9289502102692
 31
0.0
  0
LINE
  5
E3F
330
1F
100
AcDbEntity
  8
AM_0
  6
Continuous
 62
     7
370
    35
100
AcDbLine
 10
302.9925307782378
 20
345.9289502102692
 30
0.0
 11
304.3605989368644
 21
345.9289502102692
 31
0.0
  0
LINE
  5
E40
330
1F
100
AcDbEntity
  8
AM_0
  6
Continuous
 62
     7
370
    35
100
AcDbLine
 10
112.7624368818487
 20
347.8895881894791
 30
0.0
 11
112.624467030355
 21
345.9289502102692
 31
0.0
  0
LINE
  5
E41
330
1F
100
AcDbEntity
  8
AM_0
  6
Continuous
 62
     7
370
    35
100
AcDbLine
 10
112.7624368818487
 20
347.8895881894791
 30
0.0
 11
113.9925351889815
 21
347.8895881894791
 31
0.0
  0
LINE
  5
E42
330
1F
100
AcDbEntity
  8
AM_0
  6
Continuous
 62
     7
370
    35
100
AcDbLine
 10
302.9925307782378
 20
347.8895881894791
 30
0.0
 11
304.2226290853705
 21
347.8895881894791
 31
0.0
  0
ARC
  5
E43
330
1F
100
AcDbEntity
  8
AM_0
  6
Continuous
 62
     7
370
    35
100
AcDbCircle
 10
299.2632407785577
 20
347.9297577370321
 30
0.0
 40
0.9999999999998303
100
AcDbArc
 50
357.6978103208261
 51
177.6978103208261
  0
LINE
  5
E44
330
1F
100
AcDbEntity
  8
AM_0
  6
Continuous
 62
     7
370
    35
100
AcDbLine
 10
118.7210163624967
 20
347.9699278000562
 30
0.0
 11
298.2640496047225
 21
347.9699278000562
 31
0.0
  0
ARC
  5
E45
330
1F
100
AcDbEntity
  8
AM_0
  6
Continuous
 62
     7
370
    35
100
AcDbCircle
 10
117.721825188661
 20
347.9297577370321
 30
0.0
 40
0.9999999999998021
100
AcDbArc
 50
2.302189679173849
 51
182.3021896791738
  0
LINE
  5
E46
330
1F
100
AcDbEntity
  8
AM_0
  6
Continuous
 62
     7
370
    35
100
AcDbLine
 10
116.8605989368644
 20
345.9289502102692
 30
0.0
 11
116.7226290853705
 21
347.8895881894791
 31
0.0
  0
LINE
  5
E47
330
1F
100
AcDbEntity
  8
AM_0
  6
Continuous
 62
     7
370
    35
100
AcDbLine
 10
300.2624368818488
 20
347.8895881894791
 30
0.0
 11
300.124467030355
 21
345.9289502102692
 31
0.0
  0
LINE
  5
E48
330
1F
100
AcDbEntity
  8
AM_0
  6
Continuous
 62
     7
370
    35
100
AcDbLine
 10
304.9459314497199
 20
337.6108837297002
 30
0.0
 11
304.4348514230933
 21
344.8738027114232
 31
0.0
  0
LINE
  5
E49
330
1F
100
AcDbEntity
  8
AM_0
  6
Continuous
 62
     7
370
    35
100
AcDbLine
 10
112.0391345174994
 20
337.6108837297002
 30
0.0
 11
113.9925351889815
 21
337.6108837297002
 31
0.0
  0
LINE
  5
E4A
330
1F
100
AcDbEntity
  8
AM_0
  6
Continuous
 62
     7
370
    35
100
AcDbLine
 10
302.9925307782378
 20
337.6108837297002
 30
0.0
 11
304.9459314497199
 21
337.6108837297002
 31
0.0
  0
LINE
  5
E4B
330
1F
100
AcDbEntity
  8
AM_0
  6
Continuous
 62
     7
370
    35
100
AcDbLine
 10
112.550214544126
 20
344.8738027114232
 30
0.0
 11
112.0391345174994
 21
337.6108837297002
 31
0.0
  0
ARC
  5
E4C
330
1F
100
AcDbEntity
  8
AM_0
  6
Continuous
 62
     7
370
    35
100
AcDbCircle
 10
308.7409532382515
 20
339.713357244892
 30
0.0
 40
6.721065864736947
100
AcDbArc
 50
129.8431169450701
 51
159.5727795833625
  0
ARC
  5
E4D
330
1F
100
AcDbEntity
  8
AM_0
  6
Continuous
 62
     7
370
    35
100
AcDbCircle
 10
108.2441127289672
 20
339.713357244892
 30
0.0
 40
6.721065864736892
100
AcDbArc
 50
20.42722041663743
 51
50.15688305492991
  0
ARC
  5
E4E
330
1F
100
AcDbEntity
  8
AM_0
  6
Continuous
 62
     7
370
    35
100
AcDbCircle
 10
308.8946271646569
 20
341.271419529116
 30
0.0
 40
6.500000000000107
100
AcDbArc
 50
134.2301834407218
 51
173.0394720576499
  0
ARC
  5
E4F
330
1F
100
AcDbEntity
  8
AM_0
  6
Continuous
 62
     7
370
    35
100
AcDbCircle
 10
108.0904388025624
 20
341.271419529116
 30
0.0
 40
6.500000000000107
100
AcDbArc
 50
6.960527942350107
 51
45.7698165592782
  0
ARC
  5
E50
330
1F
100
AcDbEntity
  8
AM_0
  6
Continuous
 62
     7
370
    35
100
AcDbCircle
 10
302.242532983609
 20
340.9289505976945
 30
0.0
 40
8.499999999998307
100
AcDbArc
 50
248.8453474816588
 51
291.1546525183533
  0
ARC
  5
E51
330
1F
100
AcDbEntity
  8
AM_0
  6
Continuous
 62
     7
370
    35
100
AcDbCircle
 10
114.7425329836101
 20
340.9289505976945
 30
0.0
 40
8.499999999998307
100
AcDbArc
 50
248.8453474816467
 51
291.1546525183411
  0
ARC
  5
E52
330
1F
100
AcDbEntity
  8
AM_0
  6
Continuous
 62
     7
370
    35
100
AcDbCircle
 10
300.7144531526683
 20
331.6386126457364
 30
0.0
 40
3.000000000000028
100
AcDbArc
 50
181.6323621952055
 51
220.1783458894655
  0
ARC
  5
E53
330
1F
100
AcDbEntity
  8
AM_0
  6
Continuous
 62
     7
370
    35
100
AcDbCircle
 10
116.270612814551
 20
331.6386126457364
 30
0.0
 40
3.00000000000005
100
AcDbArc
 50
319.8216541105345
 51
358.3676378047945
  0
ARC
  5
E54
330
1F
100
AcDbEntity
  8
AM_0
  6
Continuous
 62
     7
370
    35
100
AcDbCircle
 10
303.7706128145514
 20
331.6386126457373
 30
0.0
 40
1.500000000000284
100
AcDbArc
 50
319.8216541105854
 51
358.3676378048076
  0
ARC
  5
E55
330
1F
100
AcDbEntity
  8
AM_0
  6
Continuous
 62
     7
370
    35
100
AcDbCircle
 10
113.2144531526678
 20
331.6386126457373
 30
0.0
 40
1.500000000000313
100
AcDbArc
 50
181.6323621951924
 51
220.1783458894146
  0
ARC
  5
E56
330
1F
100
AcDbEntity
  8
AM_0
  6
Continuous
 62
     7
370
    35
100
AcDbCircle
 10
302.242532983609
 20
332.9289505976963
 30
0.0
 40
3.499999999999776
100
AcDbArc
 50
220.1783458894146
 51
319.8216541105854
  0
ARC
  5
E57
330
1F
100
AcDbEntity
  8
AM_0
  6
Continuous
 62
     7
370
    35
100
AcDbCircle
 10
114.7425329836097
 20
332.9289505976963
 30
0.0
 40
3.499999999999752
100
AcDbArc
 50
220.1783458894146
 51
319.8216541105854
  0
ARC
  5
E58
330
1F
100
AcDbEntity
  8
AM_0
  6
Continuous
 62
     7
370
    35
100
AcDbCircle
 10
300.7144531526683
 20
331.6386126457364
 30
0.0
 40
1.5000000000001
100
AcDbArc
 50
181.6323621951793
 51
220.1783458893789
  0
ARC
  5
E59
330
1F
100
AcDbEntity
  8
AM_0
  6
Continuous
 62
     7
370
    35
100
AcDbCircle
 10
116.270612814551
 20
331.6386126457364
 30
0.0
 40
1.500000000000129
100
AcDbArc
 50
319.8216541106362
 51
358.3676378048206
  0
LINE
  5
E5A
330
1F
100
AcDbEntity
  8
AM_0
  6
Continuous
 62
     7
370
    35
100
AcDbLine
 10
299.2150640638556
 20
331.5958832140832
 30
0.0
 11
299.1749948414054
 21
333.0017681915133
 31
0.0
  0
LINE
  5
E5B
330
1F
100
AcDbEntity
  8
AM_0
  6
Continuous
 62
     7
370
    35
100
AcDbLine
 10
117.8100711258139
 20
333.0017681915133
 30
0.0
 11
117.7700019033636
 21
331.5958832140832
 31
0.0
  0
ARC
  5
E5C
330
1F
100
AcDbEntity
  8
AM_0
  6
Continuous
 62
     7
370
    35
100
AcDbCircle
 10
302.242532983609
 20
332.9289505976963
 30
0.0
 40
4.999999999999811
100
AcDbArc
 50
220.1783458894655
 51
319.8216541105345
  0
ARC
  5
E5D
330
1F
100
AcDbEntity
  8
AM_0
  6
Continuous
 62
     7
370
    35
100
AcDbCircle
 10
114.7425329836097
 20
332.9289505976963
 30
0.0
 40
4.999999999999811
100
AcDbArc
 50
220.1783458894655
 51
319.8216541105345
  0
ARC
  5
E5E
330
1F
100
AcDbEntity
  8
AM_0
  6
Continuous
 62
     7
370
    35
100
AcDbCircle
 10
304.4463347366204
 20
337.5907987387441
 30
0.0
 40
0.5000000000015265
100
AcDbArc
 50
303.4322414649339
 51
2.302189679304216
  0
ARC
  5
E5F
330
1F
100
AcDbEntity
  8
AM_0
  6
Continuous
 62
     7
370
    35
100
AcDbCircle
 10
112.5387312305989
 20
337.5907987387441
 30
0.0
 40
0.5000000000015265
100
AcDbArc
 50
177.6978103206958
 51
236.5677585350661
  0
ARC
  5
E60
330
1F
100
AcDbEntity
  8
AM_0
  6
Continuous
 62
     7
370
    35
100
AcDbCircle
 10
300.0387312305956
 20
337.5907987387441
 30
0.0
 40
0.4999999999997908
100
AcDbArc
 50
177.6978103206045
 51
236.5677585354599
  0
ARC
  5
E61
330
1F
100
AcDbEntity
  8
AM_0
  6
Continuous
 62
     7
370
    35
100
AcDbCircle
 10
116.9463347366231
 20
337.5907987387441
 30
0.0
 40
0.4999999999997625
100
AcDbArc
 50
303.43224146454
 51
2.302189679395465
  0
ARC
  5
E62
330
1F
100
AcDbEntity
  8
AM_0
  6
Continuous
 62
     7
370
    35
100
AcDbCircle
 10
302.242532983609
 20
340.9289505976945
 30
0.0
 40
4.499999999999811
100
AcDbArc
 50
236.5677585354695
 51
303.4322414645581
  0
ARC
  5
E63
330
1F
100
AcDbEntity
  8
AM_0
  6
Continuous
 62
     7
370
    35
100
AcDbCircle
 10
114.7425329836101
 20
340.9289505976945
 30
0.0
 40
4.499999999999811
100
AcDbArc
 50
236.5677585354419
 51
303.4322414645292
  0
ARC
  5
E64
330
1F
100
AcDbEntity
  8
AM_0
  6
Continuous
 62
     7
370
    35
100
AcDbCircle
 10
303.7706128145514
 20
331.6386126457373
 30
0.0
 40
3.000000000000341
100
AcDbArc
 50
319.821654110502
 51
358.3676378048076
  0
ARC
  5
E65
330
1F
100
AcDbEntity
  8
AM_0
  6
Continuous
 62
     7
370
    35
100
AcDbCircle
 10
113.2144531526678
 20
331.6386126457373
 30
0.0
 40
3.000000000000341
100
AcDbArc
 50
181.6323621951924
 51
220.178345889498
  0
ARC
  5
E66
330
1F
100
AcDbEntity
  8
AM_0
  6
Continuous
 62
     7
370
    35
100
AcDbCircle
 10
305.2218251886616
 20
347.929757737033
 30
0.0
 40
1.000000000000123
100
AcDbArc
 50
2.302189679199948
 51
182.3021896791868
  0
ARC
  5
E67
330
1F
100
AcDbEntity
  8
AM_0
  6
Continuous
 62
     7
370
    35
100
AcDbCircle
 10
111.7632407785572
 20
347.929757737033
 30
0.0
 40
1.000000000000094
100
AcDbArc
 50
357.6978103208131
 51
177.697810320787
  0
LINE
  5
E68
330
1F
100
AcDbEntity
  8
AM_0
  6
Continuous
 62
     7
370
    35
100
AcDbLine
 10
118.7210163624967
 20
347.9699278000562
 30
0.0
 11
119.4443187268461
 21
337.6912236895232
 31
0.0
  0
LINE
  5
E69
330
1F
100
AcDbEntity
  8
AM_0
  6
Continuous
 62
     7
370
    35
100
AcDbLine
 10
297.5407472403731
 20
337.6912236895232
 30
0.0
 11
298.2640496047225
 21
347.9699278000562
 31
0.0
  0
LINE
  5
E6A
330
1F
100
AcDbEntity
  8
AM_0
  6
Continuous
 62
     7
370
    35
100
AcDbLine
 10
306.2210163624968
 20
347.9699278000562
 30
0.0
 11
306.9443187268462
 21
337.6912236895232
 31
0.0
  0
LINE
  5
E6B
330
1F
100
AcDbEntity
  8
AM_0
  6
Continuous
 62
     7
370
    35
100
AcDbLine
 10
306.9443187268462
 20
337.6912236895232
 30
0.0
 11
306.7693939955916
 21
331.5531541343594
 31
0.0
  0
LINE
  5
E6C
330
1F
100
AcDbEntity
  8
AM_0
  6
Continuous
 62
     7
370
    35
100
AcDbLine
 10
110.2156719716276
 20
331.5531541343594
 30
0.0
 11
110.0407472403731
 21
337.6912236895232
 31
0.0
  0
LINE
  5
E6D
330
1F
100
AcDbEntity
  8
AM_0
  6
Continuous
 62
     7
370
    35
100
AcDbLine
 10
110.0407472403731
 20
337.6912236895232
 30
0.0
 11
110.7640496047225
 21
347.9699278000562
 31
0.0
  0
LINE
  5
E6E
330
1F
100
AcDbEntity
  8
AM_0
  6
Continuous
 62
     7
370
    35
100
AcDbLine
 10
78.99253131467955
 20
331.9289507094581
 30
0.0
 11
78.99253131467955
 21
333.9289505716229
 31
0.0
  0
LINE
  5
E6F
330
1F
100
AcDbEntity
  8
AM_0
  6
Continuous
 62
     7
370
    35
100
AcDbLine
 10
84.79232402164598
 20
331.9289507094581
 30
0.0
 11
84.79232402164598
 21
333.9289505716229
 31
0.0
  0
LINE
  5
E70
330
1F
100
AcDbEntity
  8
AM_0
  6
Continuous
 62
     7
370
    35
100
AcDbLine
 10
78.99253131467955
 20
331.9289507094581
 30
0.0
 11
84.79232402164598
 21
331.9289507094581
 31
0.0
  0
LINE
  5
E71
330
1F
100
AcDbEntity
  8
AM_0
  6
Continuous
 62
     7
370
    35
100
AcDbLine
 10
78.99253131467955
 20
333.9289505716229
 30
0.0
 11
84.79232402164598
 21
333.9289505716229
 31
0.0
  0
LINE
  5
E72
330
1F
100
AcDbEntity
  8
AM_0
  6
Continuous
 62
     7
370
    35
100
AcDbLine
 10
102.471501246282
 20
335.2449103008771
 30
0.0
 11
111.8719211371627
 21
361.0723390925491
 31
0.0
  0
ARC
  5
E73
330
1F
100
AcDbEntity
  8
AM_0
  6
Continuous
 62
     7
370
    35
100
AcDbCircle
 10
109.9925329836097
 20
361.7563787536633
 30
0.0
 40
2.000000000000014
100
AcDbArc
 50
339.9999999999963
 51
0.0
  0
LINE
  5
E74
330
1F
100
AcDbEntity
  8
AM_0
  6
Continuous
 62
     7
370
    35
100
AcDbLine
 10
111.9925311358657
 20
361.7563787597983
 30
0.0
 11
111.9925311358657
 21
371.928950746711
 31
0.0
  0
LINE
  5
E75
330
1F
100
AcDbEntity
  8
AM_0
  6
Continuous
 62
     7
370
    35
100
AcDbLine
 10
111.9925311358657
 20
371.928950746711
 30
0.0
 11
113.9925351889815
 21
371.928950746711
 31
0.0
  0
LINE
  5
E76
330
1F
100
AcDbEntity
  8
AM_0
  6
Continuous
 62
     7
370
    35
100
AcDbLine
 10
113.9925351889815
 20
361.7563787597983
 30
0.0
 11
113.9925351889815
 21
371.928950746711
 31
0.0
  0
ARC
  5
E77
330
1F
100
AcDbEntity
  8
AM_0
  6
Continuous
 62
     7
370
    35
100
AcDbCircle
 10
109.9925329836097
 20
361.7563787536633
 30
0.0
 40
4.000000000000006
100
AcDbArc
 50
339.9999999999963
 51
0.0
  0
LINE
  5
E78
330
1F
100
AcDbEntity
  8
AM_0
  6
Continuous
 62
     7
370
    35
100
AcDbLine
 10
104.3508878501143
 20
334.5608699351365
 30
0.0
 11
113.7513002904143
 21
360.3882975626552
 31
0.0
  0
ARC
  5
E79
330
1F
100
AcDbEntity
  8
AM_0
  6
Continuous
 62
     7
370
    35
100
AcDbCircle
 10
100.5921179071902
 20
335.9289505976999
 30
0.0
 40
4.0
100
AcDbArc
 50
270.0
 51
339.9999999999963
  0
LINE
  5
E7A
330
1F
100
AcDbEntity
  8
AM_0
  6
Continuous
 62
     7
370
    35
100
AcDbLine
 10
98.7923225911345
 20
333.9289505716229
 30
0.0
 11
98.7923225911345
 21
331.9289507094581
 31
0.0
  0
ARC
  5
E7B
330
1F
100
AcDbEntity
  8
AM_0
  6
Continuous
 62
     7
370
    35
100
AcDbCircle
 10
100.5921179071902
 20
335.9289505976999
 30
0.0
 40
2.0
100
AcDbArc
 50
270.0
 51
339.9999999999963
  0
LINE
  5
E7C
330
1F
100
AcDbEntity
  8
AM_0
  6
Continuous
 62
     7
370
    35
100
AcDbLine
 10
98.7923225911345
 20
331.9289507094581
 30
0.0
 11
100.5921146424498
 21
331.9289507094581
 31
0.0
  0
LINE
  5
E7D
330
1F
100
AcDbEntity
  8
AM_0
  6
Continuous
 62
     7
370
    35
100
AcDbLine
 10
98.7923225911345
 20
333.9289505716229
 30
0.0
 11
100.5921146424498
 21
333.9289505716229
 31
0.0
  0
LINE
  5
E7E
330
1F
100
AcDbEntity
  8
AM_0
  6
Continuous
 62
     7
370
    35
100
AcDbLine
 10
98.7923225911345
 20
331.9289507094581
 30
0.0
 11
93.79232735950608
 21
331.9289507094581
 31
0.0
  0
LINE
  5
E7F
330
1F
100
AcDbEntity
  8
AM_0
  6
Continuous
 62
     7
370
    35
100
AcDbLine
 10
98.7923225911345
 20
333.9289505716229
 30
0.0
 11
93.79232735950608
 21
333.9289505716229
 31
0.0
  0
LINE
  5
E80
330
1F
100
AcDbEntity
  8
AM_0
  6
Continuous
 62
     7
370
    35
100
AcDbLine
 10
89.79232670385499
 20
331.9289507094581
 30
0.0
 11
84.79232402164598
 21
331.9289507094581
 31
0.0
  0
LINE
  5
E81
330
1F
100
AcDbEntity
  8
AM_0
  6
Continuous
 62
     7
370
    35
100
AcDbLine
 10
89.79232670385499
 20
333.9289505716229
 30
0.0
 11
84.79232402164598
 21
333.9289505716229
 31
0.0
  0
LINE
  5
E82
330
1F
100
AcDbEntity
  8
AM_0
  6
Continuous
 62
     7
370
    35
100
AcDbLine
 10
93.79232735950608
 20
331.9289507094581
 30
0.0
 11
89.79232670385499
 21
331.9289507094581
 31
0.0
  0
LINE
  5
E83
330
1F
100
AcDbEntity
  8
AM_0
  6
Continuous
 62
     7
370
    35
100
AcDbLine
 10
93.79232735950608
 20
333.9289505716229
 30
0.0
 11
89.79232670385499
 21
333.9289505716229
 31
0.0
  0
LINE
  5
E84
330
1F
100
AcDbEntity
  8
AM_0
  6
Continuous
 62
     7
370
    35
100
AcDbLine
 10
337.9925346525397
 20
333.9289505716229
 30
0.0
 11
337.9925346525397
 21
331.9289507094581
 31
0.0
  0
LINE
  5
E85
330
1F
100
AcDbEntity
  8
AM_0
  6
Continuous
 62
     7
370
    35
100
AcDbLine
 10
332.1927419455733
 20
331.9289507094581
 30
0.0
 11
337.9925346525397
 21
331.9289507094581
 31
0.0
  0
LINE
  5
E86
330
1F
100
AcDbEntity
  8
AM_0
  6
Continuous
 62
     7
370
    35
100
AcDbLine
 10
332.1927419455733
 20
333.9289505716229
 30
0.0
 11
332.1927419455733
 21
331.9289507094581
 31
0.0
  0
LINE
  5
E87
330
1F
100
AcDbEntity
  8
AM_0
  6
Continuous
 62
     7
370
    35
100
AcDbLine
 10
332.1927419455733
 20
333.9289505716229
 30
0.0
 11
337.9925346525397
 21
333.9289505716229
 31
0.0
  0
LINE
  5
E88
330
1F
100
AcDbEntity
  8
AM_0
  6
Continuous
 62
     7
370
    35
100
AcDbLine
 10
316.3929513247695
 20
333.9289505716229
 30
0.0
 11
318.1927433760848
 21
333.9289505716229
 31
0.0
  0
LINE
  5
E89
330
1F
100
AcDbEntity
  8
AM_0
  6
Continuous
 62
     7
370
    35
100
AcDbLine
 10
318.1927433760848
 20
331.9289507094581
 30
0.0
 11
318.1927433760848
 21
333.9289505716229
 31
0.0
  0
LINE
  5
E8A
330
1F
100
AcDbEntity
  8
AM_0
  6
Continuous
 62
     7
370
    35
100
AcDbLine
 10
316.3929513247695
 20
331.9289507094581
 30
0.0
 11
318.1927433760848
 21
331.9289507094581
 31
0.0
  0
ARC
  5
E8B
330
1F
100
AcDbEntity
  8
AM_0
  6
Continuous
 62
     7
370
    35
100
AcDbCircle
 10
316.3929480600291
 20
335.9289505976999
 30
0.0
 40
4.0
100
AcDbArc
 50
200.0000000000037
 51
270.0
  0
LINE
  5
E8C
330
1F
100
AcDbEntity
  8
AM_0
  6
Continuous
 62
     7
370
    35
100
AcDbLine
 10
303.233765676805
 20
360.3882975626552
 30
0.0
 11
312.634178117105
 21
334.5608699351365
 31
0.0
  0
ARC
  5
E8D
330
1F
100
AcDbEntity
  8
AM_0
  6
Continuous
 62
     7
370
    35
100
AcDbCircle
 10
306.9925329836095
 20
361.7563787536633
 30
0.0
 40
4.000000000000062
100
AcDbArc
 50
180.0
 51
200.0000000000037
  0
LINE
  5
E8E
330
1F
100
AcDbEntity
  8
AM_0
  6
Continuous
 62
     7
370
    35
100
AcDbLine
 10
302.9925307782378
 20
371.928950746711
 30
0.0
 11
302.9925307782378
 21
361.7563787597983
 31
0.0
  0
LINE
  5
E8F
330
1F
100
AcDbEntity
  8
AM_0
  6
Continuous
 62
     7
370
    35
100
AcDbLine
 10
302.9925307782378
 20
371.928950746711
 30
0.0
 11
304.9925348313536
 21
371.928950746711
 31
0.0
  0
LINE
  5
E90
330
1F
100
AcDbEntity
  8
AM_0
  6
Continuous
 62
     7
370
    35
100
AcDbLine
 10
304.9925348313536
 20
371.928950746711
 30
0.0
 11
304.9925348313536
 21
361.7563787597983
 31
0.0
  0
LINE
  5
E91
330
1F
100
AcDbEntity
  8
AM_0
  6
Continuous
 62
     7
370
    35
100
AcDbLine
 10
305.1131448300566
 20
361.0723390925491
 30
0.0
 11
314.5135647209372
 21
335.2449103008771
 31
0.0
  0
ARC
  5
E92
330
1F
100
AcDbEntity
  8
AM_0
  6
Continuous
 62
     7
370
    35
100
AcDbCircle
 10
316.3929480600291
 20
335.9289505976999
 30
0.0
 40
2.0
100
AcDbArc
 50
200.0000000000037
 51
270.0
  0
ARC
  5
E93
330
1F
100
AcDbEntity
  8
AM_0
  6
Continuous
 62
     7
370
    35
100
AcDbCircle
 10
306.9925329836095
 20
361.7563787536633
 30
0.0
 40
2.000000000000065
100
AcDbArc
 50
180.0
 51
200.0000000000037
  0
LINE
  5
E94
330
1F
100
AcDbEntity
  8
AM_0
  6
Continuous
 62
     7
370
    35
100
AcDbLine
 10
323.1927386077132
 20
333.9289505716229
 30
0.0
 11
318.1927433760848
 21
333.9289505716229
 31
0.0
  0
LINE
  5
E95
330
1F
100
AcDbEntity
  8
AM_0
  6
Continuous
 62
     7
370
    35
100
AcDbLine
 10
323.1927386077132
 20
331.9289507094581
 30
0.0
 11
318.1927433760848
 21
331.9289507094581
 31
0.0
  0
LINE
  5
E96
330
1F
100
AcDbEntity
  8
AM_0
  6
Continuous
 62
     7
370
    35
100
AcDbLine
 10
332.1927419455733
 20
333.9289505716229
 30
0.0
 11
327.1927392633643
 21
333.9289505716229
 31
0.0
  0
LINE
  5
E97
330
1F
100
AcDbEntity
  8
AM_0
  6
Continuous
 62
     7
370
    35
100
AcDbLine
 10
332.1927419455733
 20
331.9289507094581
 30
0.0
 11
327.1927392633643
 21
331.9289507094581
 31
0.0
  0
LINE
  5
E98
330
1F
100
AcDbEntity
  8
AM_0
  6
Continuous
 62
     7
370
    35
100
AcDbLine
 10
323.1927386077132
 20
333.9289505716229
 30
0.0
 11
327.1927392633643
 21
333.9289505716229
 31
0.0
  0
LINE
  5
E99
330
1F
100
AcDbEntity
  8
AM_0
  6
Continuous
 62
     7
370
    35
100
AcDbLine
 10
323.1927386077132
 20
331.9289507094581
 30
0.0
 11
327.1927392633643
 21
331.9289507094581
 31
0.0
  0
LINE
  5
E9A
330
1F
100
AcDbEntity
  8
AM_0
  6
Continuous
 62
     7
370
    35
100
AcDbLine
 10
115.4925307782378
 20
336.9289505976999
 30
0.0
 11
113.9925351889815
 21
336.9289505976999
 31
0.0
  0
LINE
  5
E9B
330
1F
100
AcDbEntity
  8
AM_0
  6
Continuous
 62
     7
370
    35
100
AcDbLine
 10
113.9925351889815
 20
371.928950746711
 30
0.0
 11
113.9925351889815
 21
336.9289505976999
 31
0.0
  0
LINE
  5
E9C
330
1F
100
AcDbEntity
  8
AM_0
  6
Continuous
 62
     7
370
    35
100
AcDbLine
 10
113.9925351889815
 20
371.928950746711
 30
0.0
 11
115.4925307782378
 21
371.928950746711
 31
0.0
  0
LINE
  5
E9D
330
1F
100
AcDbEntity
  8
AM_0
  6
Continuous
 62
     7
370
    35
100
AcDbLine
 10
115.4925307782378
 20
371.928950746711
 30
0.0
 11
115.4925307782378
 21
336.9289505976999
 31
0.0
  0
LINE
  5
E9E
330
1F
100
AcDbEntity
  8
0
  6
Continuous
 62
     7
370
    35
100
AcDbLine
 10
208.5925329665315
 20
371.928950746711
 30
0.0
 11
208.5925329665315
 21
348.9297581586802
 31
0.0
  0
LINE
  5
E9F
330
1F
100
AcDbEntity
  8
AM_0
  6
Continuous
 62
     7
370
    35
100
AcDbLine
 10
301.4925351889815
 20
371.928950746711
 30
0.0
 11
208.5925329665315
 21
371.928950746711
 31
0.0
  0
LINE
  5
EA0
330
1F
100
AcDbEntity
  8
AM_0
  6
Continuous
 62
     7
370
    35
100
AcDbLine
 10
301.4925351889815
 20
336.9289505976999
 30
0.0
 11
301.4925351889815
 21
371.928950746711
 31
0.0
  0
LINE
  5
EA1
330
1F
100
AcDbEntity
  8
AM_0
  6
Continuous
 62
     7
370
    35
100
AcDbLine
 10
300.1809796841826
 20
336.9289505976999
 30
0.0
 11
301.4925351889815
 21
336.9289505976999
 31
0.0
  0
LINE
  5
EA2
330
1F
100
AcDbEntity
  8
AM_0
  6
Continuous
 62
     7
370
    35
100
AcDbLine
 10
302.9925307782378
 20
336.9289505976999
 30
0.0
 11
302.9925307782378
 21
371.928950746711
 31
0.0
  0
LINE
  5
EA3
330
1F
100
AcDbEntity
  8
AM_0
  6
Continuous
 62
     7
370
    35
100
AcDbLine
 10
302.9925307782378
 20
336.9289505976999
 30
0.0
 11
301.4925351889815
 21
336.9289505976999
 31
0.0
  0
LINE
  5
EA4
330
1F
100
AcDbEntity
  8
AM_0
  6
Continuous
 62
     7
370
    35
100
AcDbLine
 10
301.4925351889815
 20
371.928950746711
 30
0.0
 11
302.9925307782378
 21
371.928950746711
 31
0.0
  0
LINE
  5
EA5
330
1F
100
AcDbEntity
  8
0
  6
Continuous
 62
     7
370
    35
100
AcDbLine
 10
208.4925329836106
 20
348.9297581586802
 30
0.0
 11
208.4925329836106
 21
371.928950746711
 31
0.0
  0
LINE
  5
EA6
330
1F
100
AcDbEntity
  8
AM_0
  6
Continuous
 62
     7
370
    35
100
AcDbLine
 10
208.4925329836106
 20
371.928950746711
 30
0.0
 11
115.4925307782378
 21
371.928950746711
 31
0.0
  0
LINE
  5
EA7
330
1F
100
AcDbEntity
  8
AM_0
  6
Continuous
 62
     7
370
    35
100
AcDbLine
 10
115.4925307782378
 20
336.9289505976999
 30
0.0
 11
116.8040862830366
 21
336.9289505976999
 31
0.0
  0
LINE
  5
EA8
330
1F
100
AcDbEntity
  8
0
  6
Continuous
 62
     7
370
    35
100
AcDbLine
 10
208.5925329665315
 20
371.928950746711
 30
0.0
 11
208.4925329836106
 21
371.928950746711
 31
0.0
  0
LINE
  5
EA9
330
1F
100
AcDbEntity
  8
AM_0
  6
Continuous
 62
     8
370
    18
100
AcDbLine
 10
111.7150640638556
 20
331.5958832140832
 30
0.0
 11
117.7700019033636
 21
331.5958832140832
 31
0.0
  0
LINE
  5
EAA
330
1F
100
AcDbEntity
  8
AM_0
  6
Continuous
 62
     8
370
    18
100
AcDbLine
 10
299.2150640638556
 20
331.5958832140832
 30
0.0
 11
305.2700019033637
 21
331.5958832140832
 31
0.0
  0
LINE
  5
EAB
330
1F
100
AcDbEntity
  8
AM_0
  6
Continuous
 62
     8
370
    18
100
AcDbLine
 10
119.2693939955916
 20
331.5531541343594
 30
0.0
 11
297.7156719716277
 21
331.5531541343594
 31
0.0
  0
LINE
  5
EAC
330
1F
100
AcDbEntity
  8
AM_0
  6
Continuous
 62
     8
370
    18
100
AcDbLine
 10
118.5627362282957
 20
329.7031055886114
 30
0.0
 11
298.4223297389235
 21
329.7031055886114
 31
0.0
  0
LINE
  5
EAD
330
1F
100
AcDbEntity
  8
AM_0
  6
Continuous
 62
     8
370
    18
100
AcDbLine
 10
112.0683929475035
 20
330.6708591740394
 30
0.0
 11
117.4166730197157
 21
330.6708591740394
 31
0.0
  0
LINE
  5
EAE
330
1F
100
AcDbEntity
  8
AM_0
  6
Continuous
 62
     8
370
    18
100
AcDbLine
 10
299.5683929475035
 20
330.6708591740394
 30
0.0
 11
304.9166730197157
 21
330.6708591740394
 31
0.0
  0
LINE
  5
EAF
330
1F
100
AcDbEntity
  8
AM_0
  6
Continuous
 62
     8
370
    18
100
AcDbLine
 10
112.2632554324355
 20
337.1735297592172
 30
0.0
 11
113.9925351889815
 21
337.1735297592172
 31
0.0
  0
LINE
  5
EB0
330
1F
100
AcDbEntity
  8
AM_0
  6
Continuous
 62
     8
370
    18
100
AcDbLine
 10
302.9925307782378
 20
337.1735297592172
 30
0.0
 11
304.7218105347838
 21
337.1735297592172
 31
0.0
  0
LINE
  5
EB1
330
1F
100
AcDbEntity
  8
AM_0
  6
Continuous
 62
     8
370
    18
100
AcDbLine
 10
93.79232735950608
 20
331.9289507094581
 30
0.0
 11
93.79232735950608
 21
333.9289505716229
 31
0.0
  0
LINE
  5
EB2
330
1F
100
AcDbEntity
  8
AM_0
  6
Continuous
 62
     8
370
    18
100
AcDbLine
 10
89.79232670385499
 20
331.9289507094581
 30
0.0
 11
89.79232670385499
 21
333.9289505716229
 31
0.0
  0
LINE
  5
EB3
330
1F
100
AcDbEntity
  8
AM_0
  6
Continuous
 62
     8
370
    18
100
AcDbLine
 10
323.1927386077132
 20
331.9289507094581
 30
0.0
 11
323.1927386077132
 21
333.9289505716229
 31
0.0
  0
LINE
  5
EB4
330
1F
100
AcDbEntity
  8
AM_0
  6
Continuous
 62
     8
370
    18
100
AcDbLine
 10
327.1927392633643
 20
331.9289507094581
 30
0.0
 11
327.1927392633643
 21
333.9289505716229
 31
0.0
  0
LINE
  5
EB5
330
1F
100
AcDbEntity
  8
0
  6
Continuous
 62
     8
370
    18
100
AcDbLine
 10
208.5925329665315
 20
361.7563787597983
 30
0.0
 11
208.4925329836106
 21
361.7563787597983
 31
0.0
  0
LINE
  5
EB6
330
1F
100
AcDbEntity
  8
0
  6
Continuous
 62
     8
370
    18
100
AcDbLine
 10
208.5925329665315
 20
360.3882975626552
 30
0.0
 11
208.4925329836106
 21
360.3882975626552
 31
0.0
  0
HATCH
  5
EB7
330
1F
100
AcDbEntity
  8
AM_0
  6
Continuous
 62
     7
370
    18
100
AcDbHatch
 10
0.0
 20
0.0
 30
0.0
210
0.0
220
0.0
230
1.0
  2
DIN 201 STEEL AND STEEL CAST IRON
 70
     0
 71
     0
 91
        1
 92
        0
 93
        4
 72
     1
 10
115.4925329836095
 20
336.9289505976999
 11
115.4925329836095
 21
371.9289505976999
 72
     1
 10
115.4925329836095
 20
371.9289505976999
 11
113.9925329836097
 21
371.9289505976999
 72
     1
 10
113.9925329836097
 20
371.9289505976999
 11
113.9925329836097
 21
336.9289505976999
 72
     1
 10
113.9925329836097
 20
336.9289505976999
 11
115.4925329836095
 21
336.9289505976999
 97
        0
 75
     0
 76
     2
 52
0.0
 41
2.0
 77
     0
 78
     4
 53
45.00000209717174
 43
-38.77994305397939
 44
-105.3217860458237
 45
-26.94076934930831
 46
26.94076737710658
 79
     0
 53
45.00000209717174
 43
-29.79968705397963
 44
-105.3217860458237
 45
-26.94076934930831
 46
26.94076737710658
 79
     0
 53
45.00000209717174
 43
-20.81943105397932
 44
-105.3217860458237
 45
-26.94076934930831
 46
26.94076737710658
 79
     0
 53
45.00000209717174
 43
-11.83918305397952
 44
-105.3217860458237
 45
-26.94076934930831
 46
26.94076737710658
 79
     0
 98
        1
 10
-38.77994305397939
 20
-105.3217860458237
  0
HATCH
  5
EB8
330
1F
100
AcDbEntity
  8
AM_0
  6
Continuous
 62
     7
370
    18
100
AcDbHatch
 10
0.0
 20
0.0
 30
0.0
210
0.0
220
0.0
230
1.0
  2
DIN 201 STEEL AND STEEL CAST IRON
 70
     0
 71
     0
 91
        1
 92
        0
 93
        4
 72
     1
 10
301.4925329836095
 20
371.9289505976999
 11
301.4925329836095
 21
336.9289505976999
 72
     1
 10
301.4925329836095
 20
336.9289505976999
 11
302.9925329836095
 21
336.9289505976999
 72
     1
 10
302.9925329836095
 20
336.9289505976999
 11
302.9925329836095
 21
371.9289505976999
 72
     1
 10
302.9925329836095
 20
371.9289505976999
 11
301.4925329836095
 21
371.9289505976999
 97
        0
 75
     0
 76
     2
 52
0.0
 41
2.0
 77
     0
 78
     4
 53
45.00000209717174
 43
-38.77994305397939
 44
-105.3217860458237
 45
-26.94076934930831
 46
26.94076737710658
 79
     0
 53
45.00000209717174
 43
-29.79968705397963
 44
-105.3217860458237
 45
-26.94076934930831
 46
26.94076737710658
 79
     0
 53
45.00000209717174
 43
-20.81943105397932
 44
-105.3217860458237
 45
-26.94076934930831
 46
26.94076737710658
 79
     0
 53
45.00000209717174
 43
-11.83918305397952
 44
-105.3217860458237
 45
-26.94076934930831
 46
26.94076737710658
 79
     0
 98
        1
 10
-38.77994305397939
 20
-105.3217860458237
  0
HATCH
  5
EB9
330
1F
100
AcDbEntity
  8
AM_0
  6
Continuous
 62
     7
370
    18
100
AcDbHatch
 10
0.0
 20
0.0
 30
0.0
210
0.0
220
0.0
230
1.0
  2
DIN 201 STEEL AND STEEL CAST IRON
 70
     0
 71
     0
 91
        1
 92
        0
 93
       12
 72
     2
 10
316.3929480600291
 20
335.9289505976999
 40
2.0
 50
90.0
 51
159.9999999999999
 73
     0
 72
     1
 10
314.5135628184571
 20
335.2449103110489
 11
305.1131477420376
 21
361.0723384670123
 72
     2
 10
306.9925329836095
 20
361.7563787536633
 40
2.0
 50
160.0000000000005
 51
180.0
 73
     0
 72
     1
 10
304.9925329836095
 20
361.7563787536633
 11
304.9925329836095
 21
371.9289505976999
 72
     1
 10
304.9925329836095
 20
371.9289505976999
 11
302.9925329836095
 21
371.9289505976999
 72
     1
 10
302.9925329836095
 20
371.9289505976999
 11
302.9925329836095
 21
361.7563787536633
 72
     2
 10
306.9925329836095
 20
361.7563787536633
 40
4.0
 50
180.0
 51
200.0000000000006
 73
     1
 72
     1
 10
303.2337625004661
 20
360.3882981803604
 11
312.6341775768856
 21
334.560870024397
 72
     2
 10
316.3929480600291
 20
335.9289505976999
 40
4.0
 50
200.0000000000009
 51
270.0000000000008
 73
     1
 72
     1
 10
316.3929480600291
 20
331.9289505976999
 11
318.1927405218193
 21
331.9289505976999
 72
     1
 10
318.1927405218193
 20
331.9289505976999
 11
318.1927405218193
 21
333.9289505976999
 72
     1
 10
318.1927405218193
 20
333.9289505976999
 11
316.3929480600291
 21
333.9289505976999
 97
        0
 75
     0
 76
     2
 52
90.00000000000019
 41
2.0
 77
     0
 78
     4
 53
135.0000020971719
 43
-38.77994305397939
 44
-105.3217860458237
 45
-26.94076737710648
 46
-26.9407693493084
 79
     0
 53
135.0000020971719
 43
-38.77994305397939
 44
-96.3415300458239
 45
-26.94076737710648
 46
-26.9407693493084
 79
     0
 53
135.0000020971719
 43
-38.77994305397939
 44
-87.36127404582385
 45
-26.94076737710648
 46
-26.9407693493084
 79
     0
 53
135.0000020971719
 43
-38.77994305397939
 44
-78.38102604582378
 45
-26.94076737710648
 46
-26.9407693493084
 79
     0
 98
        1
 10
-38.77994305397939
 20
-105.3217860458237
  0
HATCH
  5
EBA
330
1F
100
AcDbEntity
  8
AM_0
  6
Continuous
 62
     7
370
    18
100
AcDbHatch
 10
0.0
 20
0.0
 30
0.0
210
0.0
220
0.0
230
1.0
  2
DIN 201 STEEL AND STEEL CAST IRON
 70
     0
 71
     0
 91
        1
 92
        0
 93
        4
 72
     1
 10
78.99253298360969
 20
331.9289505976999
 11
84.79232544539991
 21
331.9289505976999
 72
     1
 10
84.79232544539991
 20
331.9289505976999
 11
84.79232544539991
 21
333.9289505976999
 72
     1
 10
84.79232544539991
 20
333.9289505976999
 11
78.99253298360969
 21
333.9289505976999
 72
     1
 10
78.99253298360969
 20
333.9289505976999
 11
78.99253298360969
 21
331.9289505976999
 97
        0
 75
     0
 76
     2
 52
90.00000000000019
 41
2.0
 77
     0
 78
     4
 53
135.0000020971719
 43
-38.77994305397939
 44
-105.3217860458237
 45
-26.94076737710648
 46
-26.9407693493084
 79
     0
 53
135.0000020971719
 43
-38.77994305397939
 44
-96.3415300458239
 45
-26.94076737710648
 46
-26.9407693493084
 79
     0
 53
135.0000020971719
 43
-38.77994305397939
 44
-87.36127404582385
 45
-26.94076737710648
 46
-26.9407693493084
 79
     0
 53
135.0000020971719
 43
-38.77994305397939
 44
-78.38102604582378
 45
-26.94076737710648
 46
-26.9407693493084
 79
     0
 98
        1
 10
-38.77994305397939
 20
-105.3217860458237
  0
HATCH
  5
EBB
330
1F
100
AcDbEntity
  8
AM_0
  6
Continuous
 62
     7
370
    18
100
AcDbHatch
 10
0.0
 20
0.0
 30
0.0
210
0.0
220
0.0
230
1.0
  2
DIN 201 STEEL AND STEEL CAST IRON
 70
     0
 71
     0
 91
        1
 92
        0
 93
       12
 72
     2
 10
100.5921179071902
 20
335.9289505976999
 40
2.0
 50
20.00000000000009
 51
90.0
 73
     0
 72
     1
 10
100.5921179071902
 20
333.9289505976999
 11
98.79232544539991
 21
333.9289505976999
 72
     1
 10
98.79232544539991
 20
333.9289505976999
 11
98.79232544539991
 21
331.9289505976999
 72
     1
 10
98.79232544539991
 20
331.9289505976999
 11
100.5921179071902
 21
331.9289505976999
 72
     2
 10
100.5921179071902
 20
335.9289505976999
 40
4.0
 50
270.0000000000008
 51
340.0000000000007
 73
     1
 72
     1
 10
104.3508883903337
 20
334.5608700243979
 11
113.7513034667532
 21
360.3882981803613
 72
     2
 10
109.9925329836097
 20
361.7563787536633
 40
4.0
 50
340.0000000000007
 51
360.0000000000008
 73
     1
 72
     1
 10
113.9925329836097
 20
361.7563787536633
 11
113.9925329836097
 21
371.9289505976999
 72
     1
 10
113.9925329836097
 20
371.9289505976999
 11
111.9925329836097
 21
371.9289505976999
 72
     1
 10
111.9925329836097
 20
371.9289505976999
 11
111.9925329836097
 21
361.7563787536633
 72
     2
 10
109.9925329836097
 20
361.7563787536633
 40
2.0
 50
0.0
 51
20.00000000000009
 73
     0
 72
     1
 10
111.8719182251811
 20
361.0723384670114
 11
102.4715031487617
 21
335.244910311048
 97
        0
 75
     0
 76
     2
 52
90.00000000000019
 41
2.0
 77
     0
 78
     4
 53
135.0000020971719
 43
-38.77994305397939
 44
-105.3217860458237
 45
-26.94076737710648
 46
-26.9407693493084
 79
     0
 53
135.0000020971719
 43
-38.77994305397939
 44
-96.3415300458239
 45
-26.94076737710648
 46
-26.9407693493084
 79
     0
 53
135.0000020971719
 43
-38.77994305397939
 44
-87.36127404582385
 45
-26.94076737710648
 46
-26.9407693493084
 79
     0
 53
135.0000020971719
 43
-38.77994305397939
 44
-78.38102604582378
 45
-26.94076737710648
 46
-26.9407693493084
 79
     0
 98
        1
 10
-38.77994305397939
 20
-105.3217860458237
  0
HATCH
  5
EBC
330
1F
100
AcDbEntity
  8
AM_0
  6
Continuous
 62
     7
370
    18
100
AcDbHatch
 10
0.0
 20
0.0
 30
0.0
210
0.0
220
0.0
230
1.0
  2
ANSI31
 70
     0
 71
     0
 91
        2
 92
        0
 93
       20
 72
     2
 10
305.2218251886616
 20
347.929757737033
 40
1.000000000000065
 50
2.302189679206259
 51
182.3021896791907
 73
     1
 72
     1
 10
304.2226323279978
 20
347.8895877582063
 11
304.3605997777526
 21
345.9289505976972
 72
     2
 10
308.8946271646569
 20
341.271419529116
 40
6.499999999999982
 50
134.2301834407253
 51
173.0394720576489
 73
     1
 72
     2
 10
308.7409532382515
 20
339.713357244892
 40
6.721065864736901
 50
200.4272204166385
 51
230.1568830549289
 73
     0
 72
     1
 10
304.4348491649544
 20
344.8738023873252
 11
304.9459311669533
 21
337.6108837281581
 72
     2
 10
304.4463347366204
 20
337.5907987387441
 40
0.5000000000014918
 50
357.6978103206906
 51
416.5677585350733
 73
     0
 72
     2
 10
302.242532983609
 20
340.9289505976945
 40
4.499999999999816
 50
56.56775853544471
 51
123.4322414645312
 73
     0
 72
     2
 10
300.0387312305956
 20
337.5907987387441
 40
0.499999999999739
 50
123.4322414645381
 51
182.302189679384
 73
     0
 72
     1
 10
299.5391348002643
 20
337.6108837281581
 11
300.0502168022644
 21
344.8738023873252
 72
     2
 10
295.744112728967
 20
339.713357244892
 40
6.721065864736422
 50
309.8431169450748
 51
339.5727795833603
 73
     0
 72
     2
 10
295.5904388025615
 20
341.2714195291151
 40
6.5
 50
6.9605279423552
 51
45.76981655927464
 73
     1
 72
     1
 10
300.1244661894656
 20
345.9289505976972
 11
300.2624336392214
 21
347.8895877582063
 72
     2
 10
299.2632407785577
 20
347.9297577370321
 40
0.9999999999997754
 50
357.6978103208199
 51
537.6978103208265
 73
     1
 72
     1
 10
298.2640479178945
 20
347.9699277158593
 11
297.5407490789374
 21
337.6912236858111
 72
     1
 10
297.5407490789374
 20
337.6912236858111
 11
297.7156705985767
 21
331.5531539230901
 72
     2
 10
300.7144531526683
 20
331.6386126457355
 40
2.999999999999995
 50
181.6323621952063
 51
220.1783458894671
 73
     1
 72
     2
 10
302.242532983609
 20
332.9289505976963
 40
4.999999999999745
 50
220.1783458894633
 51
319.8216541105336
 73
     1
 72
     2
 10
303.7706128145514
 20
331.6386126457373
 40
3.000000000000343
 50
319.8216541105056
 51
358.3676378048053
 73
     1
 72
     1
 10
306.7693953686434
 20
331.5531539230924
 11
306.9443168882825
 21
337.6912236858129
 72
     1
 10
306.9443168882821
 20
337.6912236858129
 11
306.2210180493253
 21
347.9699277158593
 97
        0
 92
        0
 93
        6
 72
     2
 10
302.242532983609
 20
340.9289505976945
 40
8.499999999998323
 50
248.8453474816584
 51
291.154652518354
 73
     1
 72
     1
 10
305.3100687200775
 20
333.001767964156
 11
305.2700040915975
 21
331.5958832844144
 72
     2
 10
303.7706128145514
 20
331.6386126457373
 40
1.500000000000293
 50
1.632362195194315
 51
40.17834588941704
 73
     0
 72
     2
 10
302.242532983609
 20
332.9289505976963
 40
3.499999999999725
 50
40.17834588942167
 51
139.8216541105804
 73
     0
 72
     2
 10
300.7144531526683
 20
331.6386126457355
 40
1.50000000000011
 50
139.8216541106299
 51
178.3676378048206
 73
     0
 72
     1
 10
299.2150618756221
 20
331.5958832844144
 11
299.174997247142
 21
333.001767964156
 97
        0
 75
     0
 76
     1
 52
90.00000000000019
 41
2.0
 77
     0
 78
     1
 53
135.0000000000002
 43
-38.77994305397939
 44
-105.3217860458237
 45
-4.490128060534561
 46
-4.490128060534591
 79
     0
 98
        1
 10
-38.77994305397939
 20
-105.3217860458237
  0
HATCH
  5
EBD
330
1F
100
AcDbEntity
  8
AM_0
  6
Continuous
 62
     7
370
    18
100
AcDbHatch
 10
0.0
 20
0.0
 30
0.0
210
0.0
220
0.0
230
1.0
  2
ANSI31
 70
     0
 71
     0
 91
        2
 92
        0
 93
       20
 72
     2
 10
111.7632407785572
 20
347.929757737033
 40
1.000000000000065
 50
357.6978103208109
 51
537.697810320791
 73
     1
 72
     1
 10
110.7640479178935
 20
347.9699277158593
 11
110.0407490789366
 21
337.6912236858129
 72
     1
 10
110.0407490789366
 20
337.6912236858129
 11
110.2156705985758
 21
331.5531539230933
 72
     2
 10
113.2144531526678
 20
331.6386126457373
 40
3.000000000000343
 50
181.6323621951963
 51
220.1783458894956
 73
     1
 72
     2
 10
114.7425329836097
 20
332.9289505976963
 40
4.999999999999745
 50
220.178345889468
 51
319.8216541105384
 73
     1
 72
     2
 10
116.270612814551
 20
331.6386126457355
 40
2.999999999999995
 50
319.8216541105348
 51
358.3676378047953
 73
     1
 72
     1
 10
119.2693953686425
 20
331.5531539230915
 11
119.4443168882818
 21
337.691223685812
 72
     1
 10
119.4443168882818
 20
337.6912236858111
 11
118.7210180493247
 21
347.9699277158593
 72
     2
 10
117.721825188661
 20
347.9297577370321
 40
0.9999999999997754
 50
2.302189679174305
 51
182.3021896791816
 73
     1
 72
     1
 10
116.7226323279978
 20
347.8895877582063
 11
116.8605997777536
 21
345.9289505976972
 72
     2
 10
121.3946271646578
 20
341.2714195291151
 40
6.5
 50
134.2301834407253
 51
173.0394720576448
 73
     1
 72
     2
 10
121.2409532382521
 20
339.713357244892
 40
6.721065864736422
 50
200.4272204166414
 51
230.1568830549267
 73
     0
 72
     1
 10
116.9348491649547
 20
344.8738023873252
 11
117.4459311669548
 21
337.6108837281595
 72
     2
 10
116.9463347366231
 20
337.5907987387441
 40
0.499999999999739
 50
357.6978103206172
 51
416.5677585354627
 73
     0
 72
     2
 10
114.7425329836101
 20
340.9289505976945
 40
4.499999999999816
 50
56.56775853546847
 51
123.4322414645553
 73
     0
 72
     2
 10
112.5387312305989
 20
337.5907987387441
 40
0.5000000000014918
 50
123.4322414649302
 51
182.302189679311
 73
     0
 72
     1
 10
112.0391348002654
 20
337.6108837281581
 11
112.5502168022645
 21
344.8738023873252
 72
     2
 10
108.2441127289672
 20
339.713357244892
 40
6.721065864736901
 50
309.8431169450722
 51
339.572779583363
 73
     0
 72
     2
 10
108.0904388025624
 20
341.271419529116
 40
6.499999999999982
 50
6.960527942351101
 51
45.76981655927485
 73
     1
 72
     1
 10
112.6244661894662
 20
345.9289505976972
 11
112.762433639221
 21
347.8895877582063
 97
        0
 92
        0
 93
        6
 72
     2
 10
113.2144531526678
 20
331.6386126457373
 40
1.500000000000293
 50
139.8216541105829
 51
178.3676378048056
 73
     0
 72
     1
 10
111.7150618756217
 20
331.5958832844144
 11
111.6749972471416
 21
333.001767964156
 72
     2
 10
114.7425329836101
 20
340.9289505976945
 40
8.499999999998323
 50
248.8453474816476
 51
291.1546525183431
 73
     1
 72
     1
 10
117.8100687200767
 20
333.001767964156
 11
117.7700040915965
 21
331.5958832844144
 72
     2
 10
116.270612814551
 20
331.6386126457355
 40
1.50000000000011
 50
1.632362195179279
 51
40.17834588936874
 73
     0
 72
     2
 10
114.7425329836097
 20
332.9289505976963
 40
3.499999999999725
 50
40.17834588941925
 51
139.821654110578
 73
     0
 97
        0
 75
     0
 76
     1
 52
90.00000000000019
 41
2.0
 77
     0
 78
     1
 53
135.0000000000002
 43
-38.77994305397939
 44
-105.3217860458237
 45
-4.490128060534561
 46
-4.490128060534591
 79
     0
 98
        1
 10
-38.77994305397939
 20
-105.3217860458237
  0
DIMENSION
  5
EBE
330
1F
100
AcDbEntity
  8
AM_0
100
AcDbDimension
280
     0
  2
*D8
 10
337.9925329836095
 20
432.1566103628184
 30
0.0
 11
208.4925329836097
 21
432.1566103628184
 31
0.0
 70
   160
  1
%%C<>
 71
     2
 42
258.9999999999998
 73
     0
 74
     0
 75
     0
  3
SLDDIMSTYLE0
100
AcDbAlignedDimension
 13
78.99253298360969
 23
333.9289505976999
 33
0.0
 14
337.9925329836095
 24
333.9289505976999
 34
0.0
100
AcDbRotatedDimension
1001
ACAD_DSTYLE_DIMINSPECT
1070
   396
1000
100%
1070
   395
1000

1070
   394
1070
    33
1070
   393
1070
     0
1001
ACAD
1000
DSTYLE
1002
{
1070
     3
1000

1002
}
  0
DIMENSION
  5
EBF
330
1F
100
AcDbEntity
  8
AM_0
100
AcDbDimension
280
     0
  2
*D9
 10
302.9925329836095
 20
386.2967873302691
 30
0.0
 11
203.5416856919255
 21
386.2967873302691
 31
0.0
 70
   160
  1
%%c<>
 71
     2
 42
188.9999999999998
 73
     0
 74
     0
 75
     0
  3
SLDDIMSTYLE0
100
AcDbAlignedDimension
 13
113.9925329836097
 23
371.9289505976999
 33
0.0
 14
302.9925329836095
 24
371.9289505976999
 34
0.0
100
AcDbRotatedDimension
1001
ACAD_DSTYLE_DIMINSPECT
1070
   396
1000
100%
1070
   395
1000

1070
   394
1070
    33
1070
   393
1070
     0
  0
DIMENSION
  5
EC0
330
1F
100
AcDbEntity
  8
AM_0
100
AcDbDimension
280
     0
  2
*D10
 10
55.04183699381739
 20
327.9289505976964
 30
0.0
 11
55.04183699381747
 21
352.4589523234054
 31
0.0
 70
   160
  1
<>
 71
     2
 42
44.00000000000363
 73
     0
 74
     0
 75
     0
  3
SLDDIMSTYLE0
100
AcDbAlignedDimension
 13
115.4925329836095
 23
371.9289505976999
 33
0.0
 14
114.7425329836097
 24
327.9289505976962
 34
0.0
 50
90.0
100
AcDbRotatedDimension
1001
ACAD_DSTYLE_DIMINSPECT
1070
   396
1000
100%
1070
   395
1000

1070
   394
1070
    33
1070
   393
1070
     0
  0
DIMENSION
  5
EC1
330
1F
100
AcDbEntity
  8
AM_0
100
AcDbDimension
280
     0
  2
*D11
 10
325.1927405218193
 20
412.890649215843
 30
0.0
 11
207.8282997141011
 21
412.890649215843
 31
0.0
 70
   160
  1
%%C233,5
 71
     2
 42
233.4004150764195
 73
     0
 74
     0
 75
     0
  3
SLDDIMSTYLE0
100
AcDbAlignedDimension
 13
91.7923254453999
 23
337.9289505976999
 33
0.0
 14
325.1927405218193
 24
337.9289505976999
 34
0.0
100
AcDbRotatedDimension
1001
ACAD_DSTYLE_DIMINSPECT
1070
   396
1000
100%
1070
   395
1000

1070
   394
1070
    33
1070
   393
1070
     0
1001
ACAD
1000
DSTYLE
1002
{
1070
     3
1000

1070
   271
1070
     1
1002
}
  0
LINE
  5
EC2
330
1F
100
AcDbEntity
  8
AM_0
  6
CENTERX2
 62
     7
 48
2.5
370
    18
100
AcDbLine
 10
325.1927405218193
 20
337.9289505976999
 30
0.0
 11
325.1927405218193
 21
327.9289505976999
 31
0.0
  0
LINE
  5
EC3
330
1F
100
AcDbEntity
  8
AM_0
  6
CENTERX2
 62
     7
 48
2.5
370
    18
100
AcDbLine
 10
91.7923254453999
 20
327.9289505976999
 30
0.0
 11
91.7923254453999
 21
337.9289505976999
 31
0.0
  0
LINE
  5
EC4
330
1F
100
AcDbEntity
  8
AM_7
100
AcDbLine
 10
208.4925329836097
 20
132.4999986210162
 30
0.0
 11
340.9925329836105
 21
132.4999986210162
 31
0.0
1001
GENIUS_GENOREF_13
1005
EC9
  0
LINE
  5
EC5
330
1F
100
AcDbEntity
  8
AM_7
100
AcDbLine
 10
208.4925329836097
 20
132.4999986210162
 30
0.0
 11
208.4925329836097
 21
264.9999986210173
 31
0.0
1001
GENIUS_GENOREF_13
1005
EC9
  0
LINE
  5
EC6
330
1F
100
AcDbEntity
  8
AM_7
100
AcDbLine
 10
208.4857148205279
 20
324.9289587330313
 30
0.0
 11
208.5993511296132
 21
374.9289429988103
 31
0.0
1001
GENIUS_GENODEF_13
1002
{
1000
HIER
1070
     0
1002
}
1002
{
1000
MANEDIT
1070
     0
1002
}
1002
{
1000
NOSEL
1070
     0
1002
}
1002
{
1000
BEHIND
1070
     0
1002
}
1002
{
1000
OTHER
1070
     0
1002
}
1002
{
1000
REACTOR
1002
}
1001
GENIUS_GENOBJ-N-CEN_13
1002
{
1000
OWNER
1000
GEN
1002
}
1001
GENIUS_GENCEN_19
1002
{
1040
3.0
1002
}
  0
LINE
  5
EC7
330
1F
100
AcDbEntity
  8
AM_7
100
AcDbLine
 10
208.4925329836097
 20
132.4999986210162
 30
0.0
 11
208.4925329836097
 21
-0.0000013789847344
 31
0.0
1001
GENIUS_GENOREF_13
1005
EC9
  0
LINE
  5
EC8
330
1F
100
AcDbEntity
  8
AM_7
100
AcDbLine
 10
208.4925329836097
 20
132.4999986210162
 30
0.0
 11
75.99253298360878
 21
132.4999986210162
 31
0.0
1001
GENIUS_GENOREF_13
1005
EC9
  0
POINT
  5
EC9
330
1F
100
AcDbEntity
  8
0
 60
     1
100
AcDbPoint
 10
-176.4148441861016
 20
-1815.692026841991
 30
0.0
1001
GENIUS_GENODEF_13
1002
{
1000
HIER
1070
    10
1002
}
1002
{
1000
MANEDIT
1070
     0
1002
}
1002
{
1000
NOSEL
1070
     0
1002
}
1002
{
1000
BEHIND
1070
     0
1002
}
1002
{
1000
OTHER
1070
     0
1002
}
1002
{
1000
REACTOR
1002
}
1001
GENIUS_GENOENT_13
1002
{
1000
MYREF
1005
EC9
1002
}
1002
{
1000
GRP
1005
0
1002
}
1001
GENIUS_GENOBJ-N-CRS_13
1002
{
1000
OWNER
1000
GEN
1002
}
1001
GENIUS_GENOLIS_13
1002
{
1000
ENT
1005
EC5
1005
EC4
1005
EC7
1005
EC8
1002
}
1001
GENIUS_GENCRS_20
1002
{
1070
     0
1002
}
  0
VIEWPORT
  5
BB0
102
{ACAD_XDICTIONARY
360
BB1
102
}
330
D2
100
AcDbEntity
 67
     1
  8
0
100
AcDbViewport
 10
210.0
 20
155.844885817117
 30
0.0
 40
774.9315077841839
 41
310.1358324991995
 68
     1
 69
     1
 12
210.0
 22
155.844885817117
 13
0.0
 23
0.0
 14
10.0
 24
10.0
 15
10.0
 25
10.0
 16
0.0
 26
0.0
 36
1.0
 17
0.0
 27
0.0
 37
0.0
 42
50.0
 43
0.0
 44
0.0
 45
310.1358324991995
 50
0.0
 51
0.0
 72
  1000
 90
   819232
  1

281
     0
 71
     1
 74
     0
110
0.0
120
0.0
130
0.0
111
1.0
121
0.0
131
0.0
112
0.0
122
1.0
132
0.0
 79
     0
146
0.0
170
     0
 61
     5
348
F5
292
     1
282
     0
141
0.0
142
0.0
 63
   250
421
  3355443
  0
ENDSEC
  0
SECTION
  2
OBJECTS
  0
DICTIONARY
  5
C
330
0
100
AcDbDictionary
281
     1
  3
ACAD_BGPLOT_KEY
350
6EF
  3
ACAD_CIP_PREVIOUS_PRODUCT_INFO
350
216
  3
ACAD_COLOR
350
6B
  3
ACAD_DETAILVIEWSTYLE
350
21B
  3
ACAD_FIELDLIST
350
2D4
  3
ACAD_GROUP
350
D
  3
ACAD_IMAGE_DICT
350
670
  3
ACAD_LAYOUT
350
1A
  3
ACAD_MATERIAL
350
6A
  3
ACAD_MLEADERSTYLE
350
12D
  3
ACAD_MLINESTYLE
350
17
  3
ACAD_PLOTSETTINGS
350
19
  3
ACAD_PLOTSTYLENAME
350
E
  3
ACAD_RENDER_RAPIDRT_SETTINGS
350
88D
  3
ACAD_SCALELIST
350
10C
  3
ACAD_SECTIONVIEWSTYLE
350
219
  3
ACAD_TABLESTYLE
350
7E
  3
ACAD_VISUALSTYLE
350
EF
  3
ACDB_RECOMPOSE_DATA
350
F23
  3
AcDbVariableDictionary
350
5E
  3
AcmDictionary
350
296
  3
AMG
350
26A
  3
AMGSNAPSETTINGS
350
349
  3
SY_ROOT_DICTIONARY
350
305
  0
DICTIONARY
  5
1FF
330
2
100
AcDbDictionary
280
     1
281
     1
  3
ACAD_LAYERSTATES
360
200
  3
AMLAYER_GROUPCOLORS
360
2DF
  3
AMLAYER_GROUPLINETYPES
360
2E0
  3
AMLAYER_GROUPLINEWEIGHTS
360
2E1
  0
DICTIONARY
  5
13C
330
10
100
AcDbDictionary
280
     1
281
     1
  3
ADSK_XREC_LAYER_RECONCILED
360
F1E
  0
DICTIONARY
  5
38B
330
2DD
100
AcDbDictionary
280
     1
281
     1
  3
ADSK_XREC_LAYER_RECONCILED
360
F1F
  0
DICTIONARY
  5
CAA
330
CA9
100
AcDbDictionary
280
     1
281
     1
  3
ADSK_XREC_LAYER_RECONCILED
360
F20
  0
DICTIONARY
  5
CAC
330
CAB
100
AcDbDictionary
280
     1
281
     1
  3
ADSK_XREC_LAYER_RECONCILED
360
F21
  0
DICTIONARY
  5
1CE
330
1F
100
AcDbDictionary
280
     1
281
     1
  0
DICTIONARY
  5
BB1
330
BB0
100
AcDbDictionary
280
     1
281
     1
  3
ASDK_XREC_ANNOTATION_SCALE_INFO
360
BB2
  0
DICTIONARY
  5
6EF
102
{ACAD_REACTORS
330
C
102
}
330
C
100
AcDbDictionary
280
     1
281
     1
  0
XRECORD
  5
216
102
{ACAD_REACTORS
330
C
102
}
330
C
100
AcDbXrecord
280
     1
300
AMECH_PP
300
2019
300
87089AMECH_PP_2019_0F
  0
DICTIONARY
  5
6B
102
{ACAD_REACTORS
330
C
102
}
330
C
100
AcDbDictionary
281
     1
  0
DICTIONARY
  5
21B
102
{ACAD_REACTORS
330
C
102
}
330
C
100
AcDbDictionary
281
     1
  3
Imperial24
350
4D3
  3
Metric50
350
21C
  0
FIELDLIST
  5
2D4
102
{ACAD_REACTORS
330
C
102
}
330
C
100
AcDbIdSet
 90
        3
330
2D2
330
2D3
330
2D5
100
AcDbFieldList
  0
DICTIONARY
  5
D
102
{ACAD_REACTORS
330
C
102
}
330
C
100
AcDbDictionary
281
     1
  0
DICTIONARY
  5
670
102
{ACAD_REACTORS
330
C
102
}
330
C
100
AcDbDictionary
281
     1
  0
DICTIONARY
  5
1A
102
{ACAD_REACTORS
330
C
102
}
330
C
100
AcDbDictionary
281
     1
  3
Layout1
350
D3
  3
Model
350
22
  0
DICTIONARY
  5
6A
102
{ACAD_REACTORS
330
C
102
}
330
C
100
AcDbDictionary
281
     1
  3
ByBlock
350
ED
  3
ByLayer
350
EC
  3
Global
350
EE
  0
DICTIONARY
  5
12D
102
{ACAD_REACTORS
330
C
102
}
330
C
100
AcDbDictionary
281
     1
  3
Balloon
350
CB5
  3
Standard
350
12E
  0
DICTIONARY
  5
17
102
{ACAD_REACTORS
330
C
102
}
330
C
100
AcDbDictionary
281
     1
  3
Standard
350
18
  0
DICTIONARY
  5
19
102
{ACAD_REACTORS
330
C
102
}
330
C
100
AcDbDictionary
281
     1
  3
Layout A0L
350
BD2
  3
Layout A1L
350
BDB
  3
Layout A2L
350
BE4
  3
Layout A3L
350
BED
  3
Layout A4P
350
BF6
  3
TC A0L
350
8AF
  3
TC A1L
350
8A6
  3
TC A2L
350
89D
  3
TC A3L
350
4A5
  3
TC A4P
350
433
  0
ACDBDICTIONARYWDFLT
  5
E
102
{ACAD_REACTORS
330
C
102
}
330
C
100
AcDbDictionary
281
     1
  3
Normal
350
F
100
AcDbDictionaryWithDefault
340
F
  0
DICTIONARY
  5
88D
102
{ACAD_REACTORS
330
C
102
}
330
C
100
AcDbDictionary
281
     1
  3
Coffee-Break Quality
350
891
  3
High
350
890
  3
Low
350
88E
  3
Lunch Quality
350
892
  3
Medium
350
88F
  3
Overnight Quality
350
893
  0
DICTIONARY
  5
10C
102
{ACAD_REACTORS
330
C
102
}
330
C
100
AcDbDictionary
281
     1
  3
A0
350
10D
  3
A1
350
1BE
  3
A2
350
1BF
  3
A3
350
1C0
  3
A4
350
1C1
  3
A5
350
1C2
  3
A6
350
1C3
  3
A7
350
1C4
  3
A8
350
1C5
  3
A9
350
1C6
  3
B0
350
1C7
  3
B1
350
1C8
  3
B2
350
1C9
  3
B3
350
1CA
  3
B4
350
1CB
  3
B5
350
1CC
  3
B6
350
1CD
  0
DICTIONARY
  5
219
102
{ACAD_REACTORS
330
C
102
}
330
C
100
AcDbDictionary
281
     1
  3
Imperial24
350
4CF
  3
Metric50
350
21A
  0
DICTIONARY
  5
7E
102
{ACAD_REACTORS
330
C
102
}
330
C
100
AcDbDictionary
281
     1
  3
Standard
350
7F
  0
DICTIONARY
  5
EF
102
{ACAD_REACTORS
330
C
102
}
330
C
100
AcDbDictionary
281
     1
  3
2dWireframe
350
F5
  3
3D Hidden
350
590
  3
3dWireframe
350
591
  3
Basic
350
F4
  3
Brighten
350
FB
  3
ColorChange
350
FF
  3
Conceptual
350
F8
  3
Dim
350
FA
  3
EdgeColorOff
350
1E6
  3
Facepattern
350
FE
  3
Flat
350
F0
  3
FlatWithEdges
350
F1
  3
Gouraud
350
F2
  3
GouraudWithEdges
350
F3
  3
Hidden
350
F7
  3
JitterOff
350
1E4
  3
Linepattern
350
FD
  3
OverhangOff
350
1E5
  3
Realistic
350
F9
  3
Shaded
350
1F3
  3
Shaded with edges
350
1F2
  3
Shades of Gray
350
1EF
  3
Sketchy
350
1F0
  3
Thicken
350
FC
  3
Wireframe
350
F6
  3
X-Ray
350
1F1
  0
XRECORD
  5
F23
102
{ACAD_REACTORS
330
C
102
}
330
C
100
AcDbXrecord
280
     1
 90
        1
330
7F
  0
DICTIONARY
  5
5E
102
{ACAD_REACTORS
330
C
102
}
330
C
100
AcDbDictionary
281
     1
  3
CANNOSCALE
350
146
  3
CENTEREXE
350
259
  3
CENTERLTYPEFILE
350
25A
  3
CMLEADERSTYLE
350
145
  3
CTABLESTYLE
350
84
  3
CVIEWDETAILSTYLE
350
227
  3
CVIEWSECTIONSTYLE
350
228
  3
DIMASSOC
350
5F
  3
EXPORTMODELSPACE
350
395
  3
FIELDEVAL
350
82B
  3
HIDETEXT
350
63
  3
LAYEREVAL
350
1AE
  3
LAYERNOTIFY
350
1AF
  3
LIGHTINGUNITS
350
30F
  3
MSLTSCALE
350
30E
  0
DICTIONARY
  5
296
102
{ACAD_REACTORS
330
C
102
}
330
C
100
AcDbDictionary
281
     1
  3
AcmStdDictionary
350
29D
  3
AMDTSECTSYM_ARROWCOLOR
350
304
  0
DICTIONARY
  5
26A
102
{ACAD_REACTORS
330
C
102
}
330
C
100
AcDbDictionary
281
     1
  0
DICTIONARY
  5
349
102
{ACAD_REACTORS
330
C
102
}
330
C
100
AcDbDictionary
281
     1
  0
DICTIONARY
  5
305
102
{ACAD_REACTORS
330
C
102
}
330
C
100
AcDbDictionary
281
     1
  3
SY_VIEWSTD
350
306
  0
DICTIONARY
  5
200
102
{ACAD_REACTORS
330
1FF
102
}
330
1FF
100
AcDbDictionary
281
     1
  0
DICTIONARY
  5
2DF
102
{ACAD_REACTORS
330
1FF
102
}
330
1FF
100
AcDbDictionary
280
     1
281
     1
  0
DICTIONARY
  5
2E0
102
{ACAD_REACTORS
330
1FF
102
}
330
1FF
100
AcDbDictionary
280
     1
281
     1
  0
DICTIONARY
  5
2E1
102
{ACAD_REACTORS
330
1FF
102
}
330
1FF
100
AcDbDictionary
280
     1
281
     1
  0
XRECORD
  5
F1E
102
{ACAD_REACTORS
330
13C
102
}
330
13C
100
AcDbXrecord
280
     1
290
     1
  0
XRECORD
  5
F1F
102
{ACAD_REACTORS
330
38B
102
}
330
38B
100
AcDbXrecord
280
     1
290
     1
  0
XRECORD
  5
F20
102
{ACAD_REACTORS
330
CAA
102
}
330
CAA
100
AcDbXrecord
280
     1
290
     1
  0
XRECORD
  5
F21
102
{ACAD_REACTORS
330
CAC
102
}
330
CAC
100
AcDbXrecord
280
     1
290
     1
  0
XRECORD
  5
BB2
102
{ACAD_REACTORS
330
BB1
102
}
330
BB1
100
AcDbXrecord
280
     1
 90
        1
340
10D
  0
ACDBDETAILVIEWSTYLE
  5
4D3
102
{ACAD_REACTORS
330
531
330
21B
330
545
102
}
330
21B
100
AcDbModelDocViewStyle
 70
     0
  3
Imperial24
290
     0
300
Imperial24
 90
        0
100
AcDbDetailViewStyle
 70
     0
 71
     0
 90
        3
 71
     1
340
11
 62
   256
 40
0.24
340
0
 62
   256
 40
0.24
300

 40
0.36
280
     3
 71
     2
340
16
 90
       25
 62
   256
 71
     3
340
11
 62
   256
 40
0.24
 90
        1
 40
0.75
 90
        1
300
%<\AcVar ViewType \f "%tc1">% %<\AcVar ViewDetailId>%\PSCALE %<\AcVar ViewScale \f "%sn">%
 71
     4
340
16
 90
       25
 62
   256
340
16
 90
       25
 62
   256
280
     0
  0
ACDBDETAILVIEWSTYLE
  5
21C
102
{ACAD_REACTORS
330
21B
330
2C8
330
547
102
}
330
21B
100
AcDbModelDocViewStyle
 70
     0
  3
Metric50
290
     0
300
Metric50
 90
        0
100
AcDbDetailViewStyle
 70
     0
 71
     0
 90
        3
 71
     1
340
11
 62
   256
 40
5.0
340
0
 62
   256
 40
5.0
300

 40
0.0
280
     1
 71
     2
340
16
 90
       25
 62
   256
 71
     3
340
11
 62
   256
 40
5.0
 90
        0
 40
15.0
 90
        1
300
%<\AcVar ViewDetailId>% (%<\AcVar ViewScale \f "%sn">%)
 71
     4
340
16
 90
       25
 62
   256
340
16
 90
       25
 62
   256
280
     0
  0
LAYOUT
  5
D3
102
{ACAD_REACTORS
330
1A
102
}
330
1A
100
AcDbPlotSettings
  1
Layout A3L
  2
DWG To PDF.pc3
  4
ISO_full_bleed_A3_(420.00_x_297.00_MM)
  6

 40
0.0
 41
0.0
 42
0.0
 43
0.0
 44
420.0
 45
297.0
 46
0.0
 47
0.0
 48
0.0
 49
0.0
140
0.0
141
0.0
142
1.0
143
1.0
 70
   688
 72
     1
 73
     0
 74
     5
  7

 75
    16
147
1.0
 76
     0
 77
     2
 78
   300
148
0.0
149
0.0
100
AcDbLayout
  1
Layout1
 70
     1
 71
     1
 10
0.0
 20
0.0
 11
420.0
 21
297.0
 12
0.0
 22
0.0
 32
0.0
 14
1.000000000000000E+20
 24
1.000000000000000E+20
 34
1.000000000000000E+20
 15
-1.000000000000000E+20
 25
-1.000000000000000E+20
 35
-1.000000000000000E+20
146
0.0
 13
0.0
 23
0.0
 33
0.0
 16
1.0
 26
0.0
 36
0.0
 17
0.0
 27
1.0
 37
0.0
 76
     0
330
D2
331
BB0
1001
ACAD_PSEXT
1000
DWG To PDF.pc3
1000
DWG To PDF
1000
File
1000

1070
     0
  0
LAYOUT
  5
22
102
{ACAD_XDICTIONARY
360
205
102
}
102
{ACAD_REACTORS
330
1A
102
}
330
1A
100
AcDbPlotSettings
  1
TC A3L
  2
DWG To PDF.pc3
  4
ISO_full_bleed_A3_(420.00_x_297.00_MM)
  6

 40
0.0
 41
0.0
 42
0.0
 43
0.0
 44
420.0
 45
297.0
 46
0.0
 47
18.77848101265826
 48
0.0
 49
0.0
140
0.0
141
0.0
142
1.0
143
1.270492726601219
 70
 11956
 72
     1
 73
     0
 74
     0
  7

 75
     0
147
0.7870962021759597
 76
     0
 77
     2
 78
   300
148
161.8034725862562
149
-3.660850247788033
100
AcDbLayout
  1
Model
 70
     1
 71
     0
 10
0.0
 20
0.0
 11
12.0
 21
9.0
 12
0.0
 22
0.0
 32
0.0
 14
0.0
 24
0.0
 34
0.0
 15
0.0
 25
0.0
 35
0.0
146
0.0
 13
0.0
 23
0.0
 33
0.0
 16
1.0
 26
0.0
 36
0.0
 17
0.0
 27
1.0
 37
0.0
 76
     0
330
1F
331
EA
1001
ACAD_PSEXT
1000
DWG To PDF.pc3
1000
DWG To PDF
1000
File
1000

1070
     0
  0
MATERIAL
  5
ED
102
{ACAD_XDICTIONARY
360
1F9
102
}
102
{ACAD_REACTORS
330
6A
102
}
330
6A
100
AcDbMaterial
  1
ByBlock
 94
       63
  0
MATERIAL
  5
EC
102
{ACAD_XDICTIONARY
360
1F7
102
}
102
{ACAD_REACTORS
330
6A
102
}
330
6A
100
AcDbMaterial
  1
ByLayer
 94
       63
  0
MATERIAL
  5
EE
102
{ACAD_XDICTIONARY
360
173
102
}
102
{ACAD_REACTORS
330
6A
102
}
330
6A
100
AcDbMaterial
  1
Global
 43
0.0007999999797903
 43
0.0
 43
0.0
 43
0.0
 43
0.0
 43
0.0007999999797903
 43
0.0
 43
0.0
 43
0.0
 43
0.0
 43
1.0
 43
0.0
 43
0.0
 43
0.0
 43
0.0
 43
1.0
 49
0.0007999999797903
 49
0.0
 49
0.0
 49
0.0
 49
0.0
 49
0.0007999999797903
 49
0.0
 49
0.0
 49
0.0
 49
0.0
 49
1.0
 49
0.0
 49
0.0
 49
0.0
 49
0.0
 49
1.0
142
0.0007999999797903
142
0.0
142
0.0
142
0.0
142
0.0
142
0.0007999999797903
142
0.0
142
0.0
142
0.0
142
0.0
142
1.0
142
0.0
142
0.0
142
0.0
142
0.0
142
1.0
144
0.0007999999797903
144
0.0
144
0.0
144
0.0
144
0.0
144
0.0007999999797903
144
0.0
144
0.0
144
0.0
144
0.0
144
1.0
144
0.0
144
0.0
144
0.0
144
0.0
144
1.0
 94
       63
1001
ACAD
1070
    -1
1070
     3
1070
     0
1000

1071
        0
1070
     0
  0
MLEADERSTYLE
  5
CB5
102
{ACAD_REACTORS
330
CB7
330
CB8
330
12D
102
}
330
12D
100
AcDbMLeaderStyle
179
     2
170
     1
171
     1
172
     0
 90
        2
 40
0.0
 41
0.0
173
     1
 91
-1056964608
340
14
 92
       -2
290
     1
 42
2.0
291
     1
 43
8.0
  3
Standard
 44
4.0
300

342
11
174
     1
178
     1
175
     1
176
     0
 93
-1056964608
 45
4.0
292
     0
297
     0
 46
4.0
343
C6E
 94
-1056964608
 47
1.333333333333329
 49
1.333333333333329
140
1.333333333333329
293
     1
141
0.0
294
     1
177
     0
142
1.0
295
     0
296
     0
143
3.75
271
     0
272
     9
273
     9
298
     0
  0
MLEADERSTYLE
  5
12E
102
{ACAD_REACTORS
330
12D
102
}
330
12D
100
AcDbMLeaderStyle
179
     2
170
     2
171
     1
172
     0
 90
        2
 40
0.0
 41
0.0
173
     1
 91
-1056964608
340
14
 92
       -2
290
     1
 42
2.0
291
     1
 43
8.0
  3
Standard
 44
4.0
300

342
11
174
     1
178
     1
175
     1
176
     0
 93
-1056964608
 45
4.0
292
     0
297
     0
 46
4.0
 94
-1056964608
 47
1.0
 49
1.0
140
1.0
293
     1
141
0.0
294
     1
177
     0
142
1.0
295
     0
296
     0
143
3.75
271
     0
272
     9
273
     9
298
     0
  0
MLINESTYLE
  5
18
102
{ACAD_REACTORS
330
17
102
}
330
17
100
AcDbMlineStyle
  2
STANDARD
 70
     0
  3

 62
   256
 51
90.0
 52
90.0
 71
     2
 49
0.5
 62
   256
  6
BYLAYER
 49
-0.5
 62
   256
  6
BYLAYER
  0
PLOTSETTINGS
  5
BD2
102
{ACAD_REACTORS
330
19
102
}
330
19
100
AcDbPlotSettings
  1
Layout A0L
  2
DWG To PDF.pc3
  4
UserDefinedMetric (1189.00 x 841.00MM)
  6

 40
0.0
 41
0.0
 42
0.0
 43
0.0
 44
1189.0
 45
841.0
 46
0.0
 47
0.0
 48
0.0
 49
0.0
140
0.0
141
0.0
142
1.0
143
1.0
 70
 15024
 72
     1
 73
     0
 74
     5
  7

 75
    16
147
1.0
 76
     0
 77
     2
 78
   300
148
0.0
149
0.0
1001
ACAD_PSEXT
1000
DWG To PDF.pc3
1000
DWG To PDF
1000
File
1000

1070
     0
  0
PLOTSETTINGS
  5
BDB
102
{ACAD_REACTORS
330
19
102
}
330
19
100
AcDbPlotSettings
  1
Layout A1L
  2
DWG To PDF.pc3
  4
ISO_full_bleed_A1_(841.00_x_594.00_MM)
  6

 40
0.0
 41
0.0
 42
0.0
 43
0.0
 44
841.0
 45
594.0
 46
0.0
 47
0.0
 48
0.0
 49
0.0
140
0.0
141
0.0
142
1.0
143
1.0
 70
 15024
 72
     1
 73
     0
 74
     5
  7

 75
    16
147
1.0
 76
     0
 77
     2
 78
   300
148
0.0
149
0.0
1001
ACAD_PSEXT
1000
DWG To PDF.pc3
1000
DWG To PDF
1000
File
1000

1070
     0
  0
PLOTSETTINGS
  5
BE4
102
{ACAD_REACTORS
330
19
102
}
330
19
100
AcDbPlotSettings
  1
Layout A2L
  2
DWG To PDF.pc3
  4
ISO_full_bleed_A2_(594.00_x_420.00_MM)
  6

 40
0.0
 41
0.0
 42
0.0
 43
0.0
 44
594.0
 45
420.0
 46
0.0
 47
0.0
 48
0.0
 49
0.0
140
0.0
141
0.0
142
1.0
143
1.0
 70
 15024
 72
     1
 73
     0
 74
     5
  7

 75
    16
147
1.0
 76
     0
 77
     2
 78
   300
148
0.0
149
0.0
1001
ACAD_PSEXT
1000
DWG To PDF.pc3
1000
DWG To PDF
1000
File
1000

1070
     0
  0
PLOTSETTINGS
  5
BED
102
{ACAD_REACTORS
330
19
102
}
330
19
100
AcDbPlotSettings
  1
Layout A3L
  2
DWG To PDF.pc3
  4
ISO_full_bleed_A3_(420.00_x_297.00_MM)
  6

 40
0.0
 41
0.0
 42
0.0
 43
0.0
 44
420.0
 45
297.0
 46
0.0
 47
0.0
 48
0.0
 49
0.0
140
0.0
141
0.0
142
1.0
143
1.0
 70
 15024
 72
     1
 73
     0
 74
     5
  7

 75
    16
147
1.0
 76
     0
 77
     2
 78
   300
148
0.0
149
0.0
1001
ACAD_PSEXT
1000
DWG To PDF.pc3
1000
DWG To PDF
1000
File
1000

1070
     0
  0
PLOTSETTINGS
  5
BF6
102
{ACAD_REACTORS
330
19
102
}
330
19
100
AcDbPlotSettings
  1
Layout A4P
  2
DWG To PDF.pc3
  4
ISO_full_bleed_A4_(210.00_x_297.00_MM)
  6

 40
0.0
 41
0.0
 42
0.0
 43
0.0
 44
210.0
 45
297.0
 46
0.0
 47
0.0
 48
0.0
 49
0.0
140
0.0
141
0.0
142
1.0
143
1.0
 70
 15024
 72
     1
 73
     0
 74
     5
  7

 75
    16
147
1.0
 76
     0
 77
     2
 78
   300
148
0.0
149
0.0
1001
ACAD_PSEXT
1000
DWG To PDF.pc3
1000
DWG To PDF
1000
File
1000

1070
     0
  0
PLOTSETTINGS
  5
8AF
102
{ACAD_REACTORS
330
19
102
}
330
19
100
AcDbPlotSettings
  1
TC A0L
  2
DWG To PDF.pc3
  4
UserDefinedMetric (1189.00 x 841.00MM)
  6

 40
0.0
 41
0.0
 42
0.0
 43
0.0
 44
1189.0
 45
841.0
 46
0.0
 47
177.5927187008905
 48
0.0
 49
0.0
140
0.0
141
0.0
142
1.0
143
0.6855995496162038
 70
 11956
 72
     1
 73
     0
 74
     0
  7

 75
     0
147
1.458577387572375
 76
     0
 77
     2
 78
   300
148
39.00427060023787
149
-20.30045332276586
1001
ACAD_PSEXT
1000
DWG To PDF.pc3
1000
DWG To PDF
1000
File
1000

1070
     0
  0
PLOTSETTINGS
  5
8A6
102
{ACAD_REACTORS
330
19
102
}
330
19
100
AcDbPlotSettings
  1
TC A1L
  2
DWG To PDF.pc3
  4
ISO_full_bleed_A1_(841.00_x_594.00_MM)
  6

 40
0.0
 41
0.0
 42
0.0
 43
0.0
 44
841.0
 45
594.0
 46
0.0
 47
37.24810126582281
 48
0.0
 49
0.0
140
0.0
141
0.0
142
1.0
143
0.6344910168519766
 70
 11956
 72
     1
 73
     0
 74
     0
  7

 75
     0
147
1.576066442928528
 76
     0
 77
     2
 78
   300
148
161.8034725862562
149
-3.660850247788033
1001
ACAD_PSEXT
1000
DWG To PDF.pc3
1000
DWG To PDF
1000
File
1000

1070
     0
  0
PLOTSETTINGS
  5
89D
102
{ACAD_REACTORS
330
19
102
}
330
19
100
AcDbPlotSettings
  1
TC A2L
  2
DWG To PDF.pc3
  4
ISO_full_bleed_A2_(594.00_x_420.00_MM)
  6

 40
0.0
 41
0.0
 42
0.0
 43
0.0
 44
594.0
 45
420.0
 46
0.0
 47
26.53670886075955
 48
0.0
 49
0.0
140
0.0
141
0.0
142
1.0
143
0.8983281905261151
 70
 11956
 72
     1
 73
     0
 74
     0
  7

 75
     0
147
1.113178914506
 76
     0
 77
     2
 78
   300
148
161.8034725862562
149
-3.660850247788033
1001
ACAD_PSEXT
1000
DWG To PDF.pc3
1000
DWG To PDF
1000
File
1000

1070
     0
  0
PLOTSETTINGS
  5
4A5
102
{ACAD_REACTORS
330
19
102
}
330
19
100
AcDbPlotSettings
  1
TC A3L
  2
DWG To PDF.pc3
  4
ISO_full_bleed_A3_(420.00_x_297.00_MM)
  6

 40
0.0
 41
0.0
 42
0.0
 43
0.0
 44
420.0
 45
297.0
 46
0.0
 47
24.09493670886079
 48
0.0
 49
0.0
140
0.0
141
0.0
142
1.0
143
1.193607571323033
 70
 11956
 72
     1
 73
     0
 74
     0
  7

 75
     0
147
0.8377962942138236
 76
     0
 77
     2
 78
   300
148
40.65758997783709
149
-0.0091745447750213
1001
ACAD_PSEXT
1000
DWG To PDF.pc3
1000
DWG To PDF
1000
File
1000

1070
     0
  0
PLOTSETTINGS
  5
433
102
{ACAD_REACTORS
330
19
102
}
330
19
100
AcDbPlotSettings
  1
TC A4P
  2
DWG To PDF.pc3
  4
ISO_full_bleed_A4_(210.00_x_297.00_MM)
  6

 40
0.0
 41
0.0
 42
0.0
 43
0.0
 44
210.0
 45
297.0
 46
0.0
 47
86.29746835443038
 48
0.0
 49
0.0
140
0.0
141
0.0
142
1.0
143
2.330706348122897
 70
 11956
 72
     1
 73
     0
 74
     0
  7

 75
     0
147
0.4290544799027897
 76
     0
 77
     2
 78
   300
148
-10.19582157521341
149
-3.524164624355478
1001
ACAD_PSEXT
1000
DWG To PDF.pc3
1000
DWG To PDF
1000
File
1000

1070
     0
  0
ACDBPLACEHOLDER
  5
F
102
{ACAD_REACTORS
330
E
102
}
330
E
  0
RAPIDRTRENDERSETTINGS
  5
891
102
{ACAD_REACTORS
330
88D
102
}
330
88D
100
AcDbRenderSettings
 90
        2
  1
Coffee-Break Quality
290
     1
290
     0
290
     1
290
     1
  1

  1
Renders for 10 minutes
 90
        3
100
AcDbRapidRTRenderSettings
 90
        3
 70
     1
 90
        1
 90
       10
 70
     1
 70
     2
 40
3.0
 40
3.0
290
     1
  0
RAPIDRTRENDERSETTINGS
  5
890
102
{ACAD_REACTORS
330
88D
102
}
330
88D
100
AcDbRenderSettings
 90
        2
  1
High
290
     1
290
     0
290
     1
290
     1
  1

  1
Applies 10 rendering levels
 90
        2
100
AcDbRapidRTRenderSettings
 90
        3
 70
     0
 90
       10
 90
        1
 70
     2
 70
     2
 40
3.0
 40
3.0
290
     1
  0
RAPIDRTRENDERSETTINGS
  5
88E
102
{ACAD_REACTORS
330
88D
102
}
330
88D
100
AcDbRenderSettings
 90
        2
  1
Low
290
     1
290
     0
290
     1
290
     1
  1

  1
Applies 1 rendering level
 90
        0
100
AcDbRapidRTRenderSettings
 90
        3
 70
     0
 90
        1
 90
        1
 70
     0
 70
     2
 40
3.0
 40
3.0
290
     1
  0
RAPIDRTRENDERSETTINGS
  5
892
102
{ACAD_REACTORS
330
88D
102
}
330
88D
100
AcDbRenderSettings
 90
        2
  1
Lunch Quality
290
     1
290
     0
290
     1
290
     1
  1

  1
Renders for 60 minutes
 90
        4
100
AcDbRapidRTRenderSettings
 90
        3
 70
     1
 90
        1
 90
       60
 70
     2
 70
     2
 40
3.0
 40
3.0
290
     1
  0
RAPIDRTRENDERSETTINGS
  5
88F
102
{ACAD_REACTORS
330
88D
102
}
330
88D
100
AcDbRenderSettings
 90
        2
  1
Medium
290
     1
290
     0
290
     1
290
     1
  1

  1
Applies 5 rendering levels
 90
        1
100
AcDbRapidRTRenderSettings
 90
        3
 70
     0
 90
        5
 90
        1
 70
     1
 70
     2
 40
3.0
 40
3.0
290
     1
  0
RAPIDRTRENDERSETTINGS
  5
893
102
{ACAD_REACTORS
330
88D
102
}
330
88D
100
AcDbRenderSettings
 90
        2
  1
Overnight Quality
290
     1
290
     0
290
     1
290
     1
  1

  1
Renders for 12 hours
 90
        5
100
AcDbRapidRTRenderSettings
 90
        3
 70
     1
 90
        1
 90
      720
 70
     2
 70
     2
 40
3.0
 40
3.0
290
     1
  0
SCALE
  5
10D
102
{ACAD_REACTORS
330
10C
102
}
330
10C
100
AcDbScale
 70
     0
300
1:1
140
1.0
141
1.0
290
     1
  0
SCALE
  5
1BE
102
{ACAD_REACTORS
330
10C
102
}
330
10C
100
AcDbScale
 70
     0
300
1:2
140
1.0
141
2.0
290
     0
  0
SCALE
  5
1BF
102
{ACAD_REACTORS
330
10C
102
}
330
10C
100
AcDbScale
 70
     0
300
1:4
140
1.0
141
4.0
290
     0
  0
SCALE
  5
1C0
102
{ACAD_REACTORS
330
10C
102
}
330
10C
100
AcDbScale
 70
     0
300
1:5
140
1.0
141
5.0
290
     0
  0
SCALE
  5
1C1
102
{ACAD_REACTORS
330
10C
102
}
330
10C
100
AcDbScale
 70
     0
300
1:8
140
1.0
141
8.0
290
     0
  0
SCALE
  5
1C2
102
{ACAD_REACTORS
330
10C
102
}
330
10C
100
AcDbScale
 70
     0
300
1:10
140
1.0
141
10.0
290
     0
  0
SCALE
  5
1C3
102
{ACAD_REACTORS
330
10C
102
}
330
10C
100
AcDbScale
 70
     0
300
1:16
140
1.0
141
16.0
290
     0
  0
SCALE
  5
1C4
102
{ACAD_REACTORS
330
10C
102
}
330
10C
100
AcDbScale
 70
     0
300
1:20
140
1.0
141
20.0
290
     0
  0
SCALE
  5
1C5
102
{ACAD_REACTORS
330
10C
102
}
330
10C
100
AcDbScale
 70
     0
300
1:30
140
1.0
141
30.0
290
     0
  0
SCALE
  5
1C6
102
{ACAD_REACTORS
330
10C
102
}
330
10C
100
AcDbScale
 70
     0
300
1:40
140
1.0
141
40.0
290
     0
  0
SCALE
  5
1C7
102
{ACAD_REACTORS
330
10C
102
}
330
10C
100
AcDbScale
 70
     0
300
1:50
140
1.0
141
50.0
290
     0
  0
SCALE
  5
1C8
102
{ACAD_REACTORS
330
10C
102
}
330
10C
100
AcDbScale
 70
     0
300
1:100
140
1.0
141
100.0
290
     0
  0
SCALE
  5
1C9
102
{ACAD_REACTORS
330
10C
102
}
330
10C
100
AcDbScale
 70
     0
300
2:1
140
2.0
141
1.0
290
     0
  0
SCALE
  5
1CA
102
{ACAD_REACTORS
330
10C
102
}
330
10C
100
AcDbScale
 70
     0
300
4:1
140
4.0
141
1.0
290
     0
  0
SCALE
  5
1CB
102
{ACAD_REACTORS
330
10C
102
}
330
10C
100
AcDbScale
 70
     0
300
8:1
140
8.0
141
1.0
290
     0
  0
SCALE
  5
1CC
102
{ACAD_REACTORS
330
10C
102
}
330
10C
100
AcDbScale
 70
     0
300
10:1
140
10.0
141
1.0
290
     0
  0
SCALE
  5
1CD
102
{ACAD_REACTORS
330
10C
102
}
330
10C
100
AcDbScale
 70
     0
300
100:1
140
100.0
141
1.0
290
     0
  0
ACDBSECTIONVIEWSTYLE
  5
4CF
102
{ACAD_REACTORS
330
533
330
219
330
544
102
}
330
219
100
AcDbModelDocViewStyle
 70
     0
  3
Imperial24
290
     0
300
Imperial24
 90
        0
100
AcDbSectionViewStyle
 70
     0
 71
     0
 90
       78
 71
     1
340
11
 62
   256
 40
0.24
340
0
340
0
 62
   256
 40
0.24
300
I, O, Q, S, X, Z
 40
0.48
 90
        3
 40
0.18
 90
        1
 71
     2
340
16
 90
       25
 62
   256
340
16
 90
       50
 62
   256
 40
0.24
 40
0.0
 40
0.24
 71
     3
340
11
 62
   256
 40
0.24
 90
        1
 40
0.75
 90
        1
300
%<\AcVar ViewType \f "%tc1">% %<\AcVar ViewSectionStartId>%-%<\AcVar ViewSectionEndId>%\PSCALE %<\AcVar ViewScale \f "%sn">%
 71
     4
 62
   256
 62
   257
300
ANSI31
 40
1.0
 90
        0
290
     0
290
     0
 90
        6
 40
0.0
 40
1.570796326794896
 40
0.2617993877991494
 40
1.308996938995747
 40
-0.2617993877991494
 40
1.832595714594046
  0
ACDBSECTIONVIEWSTYLE
  5
21A
102
{ACAD_REACTORS
330
219
330
2C7
330
546
102
}
330
219
100
AcDbModelDocViewStyle
 70
     0
  3
Metric50
290
     0
300
Metric50
 90
        0
100
AcDbSectionViewStyle
 70
     0
 71
     0
 90
      102
 71
     1
340
11
 62
   256
 40
5.0
340
0
340
0
 62
   256
 40
5.0
300
I, O, Q, S, X, Z
 40
10.0
 90
        0
 40
2.5
 90
        0
 71
     2
340
16
 90
       25
 62
   256
340
16
 90
       50
 62
   256
 40
5.0
 40
2.5
 40
5.0
 71
     3
340
11
 62
   256
 40
5.0
 90
        0
 40
15.0
 90
        1
300
%<\AcVar ViewSectionStartId>%-%<\AcVar ViewSectionEndId>% (%<\AcVar ViewScale \f "%sn">%)
 71
     4
 62
   256
 62
   257
300
ANSI31
 40
1.0
 90
        0
290
     0
290
     0
 90
        6
 40
0.0
 40
1.570796326794896
 40
0.2617993877991494
 40
1.308996938995747
 40
-0.2617993877991494
 40
1.832595714594046
  0
TABLESTYLE
  5
7F
102
{ACAD_XDICTIONARY
360
162
102
}
102
{ACAD_REACTORS
330
7E
102
}
330
7E
100
AcDbTableStyle
280
     0
  3
Standard
 70
     0
 71
     0
 40
1.5
 41
1.5
280
     0
281
     0
  7
STANDARD
140
4.5
170
     2
 62
     0
 63
     7
283
     0
 90
      512
 91
        0
  1

274
    -2
284
     1
 64
     0
275
    -2
285
     1
 65
     0
276
    -2
286
     1
 66
     0
277
    -2
287
     1
 67
     0
278
    -2
288
     1
 68
     0
279
    -2
289
     1
 69
     0
  7
STANDARD
140
6.0
170
     5
 62
     0
 63
     7
283
     0
 90
      512
 91
        0
  1

274
    -2
284
     1
 64
     0
275
    -2
285
     1
 65
     0
276
    -2
286
     1
 66
     0
277
    -2
287
     1
 67
     0
278
    -2
288
     1
 68
     0
279
    -2
289
     1
 69
     0
  7
STANDARD
140
4.5
170
     5
 62
     0
 63
     7
283
     0
 90
      512
 91
        0
  1

274
    -2
284
     1
 64
     0
275
    -2
285
     1
 65
     0
276
    -2
286
     1
 66
     0
277
    -2
287
     1
 67
     0
278
    -2
288
     1
 68
     0
279
    -2
289
     1
 69
     0
  0
VISUALSTYLE
  5
F5
102
{ACAD_REACTORS
330
EF
102
}
330
EF
100
AcDbVisualStyle
  2
2dWireframe
 70
     4
177
     3
291
     0
 70
    58
 90
        0
176
     1
 90
        2
176
     1
 90
        1
176
     1
 90
        0
176
     1
 40
0.6
176
     1
 40
30.0
176
     1
 62
     7
420
 16777215
176
     1
 90
        1
176
     1
 90
        4
176
     1
 62
     7
176
     1
 62
   257
176
     1
 90
        1
176
     1
 90
        1
176
     1
 40
1.0
176
     1
 90
        0
176
     1
 62
   257
176
     1
 40
1.0
176
     1
 90
        1
176
     1
 90
        6
176
     1
 90
        2
176
     1
 62
     7
176
     1
 90
        5
176
     1
 90
        0
176
     1
 90
        0
176
     1
290
     0
176
     1
 90
        1
176
     1
 40
0.0
176
     1
 90
        0
176
     1
290
     1
176
     1
290
     1
176
     1
290
     0
176
     1
290
     0
176
     1
290
     0
176
     1
290
     0
176
     1
290
     0
176
     1
290
     0
176
     1
290
     0
176
     1
 90
       50
176
     1
 40
0.0
176
     1
 40
1.0
176
     1
 90
        0
176
     1
 62
    18
420
        0
176
     1
 90
       50
176
     1
 90
        3
176
     1
 62
     5
420
      255
176
     1
290
     0
176
     1
 90
       50
176
     1
 90
       50
176
     1
 90
       50
176
     1
290
     0
176
     1
 90
       50
176
     1
 62
   256
176
     0
 40
1.0
176
     0
 90
        2
176
     1
  1
strokes_ogs.tif
176
     1
290
     0
176
     1
 40
1.0
176
     1
 40
1.0
176
     1
  0
VISUALSTYLE
  5
590
102
{ACAD_REACTORS
330
EF
102
}
330
EF
100
AcDbVisualStyle
  2
3D Hidden
 70
     6
177
     3
291
     0
 70
    58
 90
        1
176
     1
 90
        2
176
     1
 90
        2
176
     1
 90
        0
176
     1
 40
0.6
176
     1
 40
30.0
176
     1
 62
     7
420
 16777215
176
     1
 90
        2
176
     1
 90
        2
176
     1
 62
     7
176
     1
 62
   257
176
     1
 90
        2
176
     1
 90
        1
176
     1
 40
40.0
176
     1
 90
        0
176
     1
 62
   257
176
     1
 40
1.0
176
     1
 90
        1
176
     1
 90
        6
176
     1
 90
        2
176
     1
 62
     7
176
     1
 90
        3
176
     1
 90
        0
176
     1
 90
        0
176
     1
290
     0
176
     1
 90
        1
176
     1
 40
0.0
176
     1
 90
        0
176
     1
290
     0
176
     1
290
     1
176
     1
290
     1
176
     1
290
     0
176
     1
290
     0
176
     1
290
     0
176
     1
290
     0
176
     1
290
     0
176
     1
290
     0
176
     1
 90
       50
176
     1
 40
0.0
176
     1
 40
1.0
176
     1
 90
        0
176
     1
 62
    18
420
        0
176
     1
 90
       50
176
     1
 90
        3
176
     1
 62
     5
420
      255
176
     1
290
     0
176
     1
 90
       50
176
     1
 90
       50
176
     1
 90
       50
176
     1
290
     0
176
     1
 90
       50
176
     1
 62
   256
176
     0
 40
1.0
176
     0
 90
        2
176
     1
  1
strokes_ogs.tif
176
     1
290
     0
176
     1
 40
1.0
176
     1
 40
1.0
176
     1
  0
VISUALSTYLE
  5
591
102
{ACAD_REACTORS
330
EF
102
}
330
EF
100
AcDbVisualStyle
  2
3dWireframe
 70
     5
177
     3
291
     0
 70
    58
 90
        0
176
     1
 90
        2
176
     1
 90
        0
176
     1
 90
        0
176
     1
 40
0.6
176
     1
 40
30.0
176
     1
 62
     7
420
 16777215
176
     1
 90
        1
176
     1
 90
        4
176
     1
 62
     7
176
     1
 62
   257
176
     1
 90
        1
176
     1
 90
        1
176
     1
 40
1.0
176
     1
 90
        0
176
     1
 62
   257
176
     1
 40
1.0
176
     1
 90
        1
176
     1
 90
        6
176
     1
 90
        2
176
     1
 62
     7
176
     1
 90
        5
176
     1
 90
        0
176
     1
 90
        0
176
     1
290
     0
176
     1
 90
        1
176
     1
 40
0.0
176
     1
 90
        0
176
     1
290
     0
176
     1
290
     1
176
     1
290
     1
176
     1
290
     0
176
     1
290
     0
176
     1
290
     0
176
     1
290
     0
176
     1
290
     0
176
     1
290
     0
176
     1
 90
       50
176
     1
 40
0.0
176
     1
 40
1.0
176
     1
 90
        0
176
     1
 62
    18
420
        0
176
     1
 90
       50
176
     1
 90
        3
176
     1
 62
     5
420
      255
176
     1
290
     0
176
     1
 90
       50
176
     1
 90
       50
176
     1
 90
       50
176
     1
290
     0
176
     1
 90
       50
176
     1
 62
   256
176
     0
 40
1.0
176
     0
 90
        2
176
     1
  1
strokes_ogs.tif
176
     1
290
     0
176
     1
 40
1.0
176
     1
 40
1.0
176
     1
  0
VISUALSTYLE
  5
F4
102
{ACAD_REACTORS
330
EF
102
}
330
EF
100
AcDbVisualStyle
  2
Basic
 70
     7
177
     3
291
     1
 70
    58
 90
        1
176
     1
 90
        0
176
     1
 90
        1
176
     1
 90
        0
176
     1
 40
0.6
176
     1
 40
30.0
176
     1
 62
     7
420
 16777215
176
     1
 90
        0
176
     1
 90
        4
176
     1
 62
     7
176
     1
 62
   257
176
     1
 90
        1
176
     1
 90
        1
176
     1
 40
1.0
176
     1
 90
        8
176
     1
 62
     7
176
     1
 40
1.0
176
     1
 90
        1
176
     1
 90
        6
176
     1
 90
        2
176
     1
 62
     7
176
     1
 90
        5
176
     1
 90
        0
176
     1
 90
        0
176
     1
290
     0
176
     1
 90
        1
176
     1
 40
0.0
176
     1
 90
        0
176
     1
290
     0
176
     1
290
     1
176
     1
290
     1
176
     1
290
     0
176
     1
290
     0
176
     1
290
     0
176
     1
290
     0
176
     1
290
     0
176
     1
290
     0
176
     1
 90
       50
176
     1
 40
0.0
176
     1
 40
1.0
176
     1
 90
        0
176
     1
 62
    18
420
        0
176
     1
 90
       50
176
     1
 90
        3
176
     1
 62
     5
420
      255
176
     1
290
     0
176
     1
 90
       50
176
     1
 90
       50
176
     1
 90
       50
176
     1
290
     0
176
     1
 90
       50
176
     1
 62
   256
176
     0
 40
1.0
176
     0
 90
        2
176
     1
  1
strokes_ogs.tif
176
     1
290
     0
176
     1
 40
1.0
176
     1
 40
1.0
176
     1
  0
VISUALSTYLE
  5
FB
102
{ACAD_REACTORS
330
EF
102
}
330
EF
100
AcDbVisualStyle
  2
Brighten
 70
    12
177
     3
291
     1
 70
    58
 90
        2
176
     1
 90
        2
176
     1
 90
        1
176
     1
 90
        0
176
     1
 40
0.6
176
     1
 40
30.0
176
     1
 62
     7
420
 16777215
176
     1
 90
        1
176
     1
 90
        4
176
     1
 62
     7
176
     1
 62
   257
176
     1
 90
        1
176
     1
 90
        1
176
     1
 40
1.0
176
     1
 90
        8
176
     1
 62
     7
176
     1
 40
1.0
176
     1
 90
        1
176
     1
 90
        6
176
     1
 90
        2
176
     1
 62
     7
176
     1
 90
        5
176
     1
 90
        0
176
     1
 90
        0
176
     1
290
     0
176
     1
 90
        1
176
     1
 40
50.0
176
     1
 90
        0
176
     1
290
     0
176
     1
290
     1
176
     1
290
     1
176
     1
290
     0
176
     1
290
     0
176
     1
290
     0
176
     1
290
     0
176
     1
290
     0
176
     1
290
     0
176
     1
 90
       50
176
     1
 40
0.0
176
     1
 40
1.0
176
     1
 90
        0
176
     1
 62
    18
420
        0
176
     1
 90
       50
176
     1
 90
        3
176
     1
 62
     5
420
      255
176
     1
290
     0
176
     1
 90
       50
176
     1
 90
       50
176
     1
 90
       50
176
     1
290
     0
176
     1
 90
       50
176
     1
 62
   256
176
     0
 40
1.0
176
     0
 90
        2
176
     1
  1
strokes_ogs.tif
176
     1
290
     0
176
     1
 40
1.0
176
     1
 40
1.0
176
     1
  0
VISUALSTYLE
  5
FF
102
{ACAD_REACTORS
330
EF
102
}
330
EF
100
AcDbVisualStyle
  2
ColorChange
 70
    16
177
     3
291
     1
 70
    58
 90
        2
176
     1
 90
        2
176
     1
 90
        3
176
     1
 90
        0
176
     1
 40
0.6
176
     1
 40
30.0
176
     1
 62
     8
420
  8421504
176
     1
 90
        1
176
     1
 90
        4
176
     1
 62
     7
176
     1
 62
   257
176
     1
 90
        1
176
     1
 90
        1
176
     1
 40
1.0
176
     1
 90
        8
176
     1
 62
     8
420
  8421504
176
     1
 40
1.0
176
     1
 90
        1
176
     1
 90
        6
176
     1
 90
        2
176
     1
 62
     7
176
     1
 90
        5
176
     1
 90
        0
176
     1
 90
        0
176
     1
290
     0
176
     1
 90
        1
176
     1
 40
0.0
176
     1
 90
        0
176
     1
290
     0
176
     1
290
     1
176
     1
290
     1
176
     1
290
     0
176
     1
290
     0
176
     1
290
     0
176
     1
290
     0
176
     1
290
     0
176
     1
290
     0
176
     1
 90
       50
176
     1
 40
0.0
176
     1
 40
1.0
176
     1
 90
        0
176
     1
 62
    18
420
        0
176
     1
 90
       50
176
     1
 90
        3
176
     1
 62
     5
420
      255
176
     1
290
     0
176
     1
 90
       50
176
     1
 90
       50
176
     1
 90
       50
176
     1
290
     0
176
     1
 90
       50
176
     1
 62
   256
176
     0
 40
1.0
176
     0
 90
        2
176
     1
  1
strokes_ogs.tif
176
     1
290
     0
176
     1
 40
1.0
176
     1
 40
1.0
176
     1
  0
VISUALSTYLE
  5
F8
102
{ACAD_REACTORS
330
EF
102
}
330
EF
100
AcDbVisualStyle
  2
Conceptual
 70
     9
177
     3
291
     0
 70
    58
 90
        3
176
     1
 90
        2
176
     1
 90
        1
176
     1
 90
        0
176
     1
 40
0.6
176
     1
 40
30.0
176
     1
 62
     7
420
 16777215
176
     1
 90
        2
176
     1
 90
        2
176
     1
 62
     7
176
     1
 62
   257
176
     1
 90
        1
176
     1
 90
        1
176
     1
 40
40.0
176
     1
 90
        8
176
     1
 62
     7
176
     1
 40
1.0
176
     1
 90
        1
176
     1
 90
        6
176
     1
 90
        2
176
     1
 62
     7
176
     1
 90
        3
176
     1
 90
        0
176
     1
 90
        0
176
     1
290
     0
176
     1
 90
        1
176
     1
 40
0.0
176
     1
 90
        0
176
     1
290
     0
176
     1
290
     1
176
     1
290
     1
176
     1
290
     0
176
     1
290
     0
176
     1
290
     0
176
     1
290
     0
176
     1
290
     0
176
     1
290
     0
176
     1
 90
       50
176
     1
 40
0.0
176
     1
 40
1.0
176
     1
 90
        0
176
     1
 62
    18
420
        0
176
     1
 90
       50
176
     1
 90
        3
176
     1
 62
     5
420
      255
176
     1
290
     0
176
     1
 90
       50
176
     1
 90
       50
176
     1
 90
       50
176
     1
290
     0
176
     1
 90
       50
176
     1
 62
   256
176
     0
 40
1.0
176
     0
 90
        2
176
     1
  1
strokes_ogs.tif
176
     1
290
     0
176
     1
 40
1.0
176
     1
 40
1.0
176
     1
  0
VISUALSTYLE
  5
FA
102
{ACAD_REACTORS
330
EF
102
}
330
EF
100
AcDbVisualStyle
  2
Dim
 70
    11
177
     3
291
     1
 70
    58
 90
        2
176
     1
 90
        2
176
     1
 90
        1
176
     1
 90
        0
176
     1
 40
0.6
176
     1
 40
30.0
176
     1
 62
     7
420
 16777215
176
     1
 90
        1
176
     1
 90
        4
176
     1
 62
     7
176
     1
 62
   257
176
     1
 90
        1
176
     1
 90
        1
176
     1
 40
1.0
176
     1
 90
        8
176
     1
 62
     7
176
     1
 40
1.0
176
     1
 90
        1
176
     1
 90
        6
176
     1
 90
        2
176
     1
 62
     7
176
     1
 90
        5
176
     1
 90
        0
176
     1
 90
        0
176
     1
290
     0
176
     1
 90
        1
176
     1
 40
-50.0
176
     1
 90
        0
176
     1
290
     0
176
     1
290
     1
176
     1
290
     1
176
     1
290
     0
176
     1
290
     0
176
     1
290
     0
176
     1
290
     0
176
     1
290
     0
176
     1
290
     0
176
     1
 90
       50
176
     1
 40
0.0
176
     1
 40
1.0
176
     1
 90
        0
176
     1
 62
    18
420
        0
176
     1
 90
       50
176
     1
 90
        3
176
     1
 62
     5
420
      255
176
     1
290
     0
176
     1
 90
       50
176
     1
 90
       50
176
     1
 90
       50
176
     1
290
     0
176
     1
 90
       50
176
     1
 62
   256
176
     0
 40
1.0
176
     0
 90
        2
176
     1
  1
strokes_ogs.tif
176
     1
290
     0
176
     1
 40
1.0
176
     1
 40
1.0
176
     1
  0
VISUALSTYLE
  5
1E6
102
{ACAD_REACTORS
330
EF
102
}
330
EF
100
AcDbVisualStyle
  2
EdgeColorOff
 70
    22
177
     3
291
     1
 70
    58
 90
        2
176
     0
 90
        2
176
     0
 90
        0
176
     0
 90
        0
176
     0
 40
0.6
176
     0
 40
30.0
176
     0
 62
     7
420
 16777215
176
     0
 90
        1
176
     0
 90
        4
176
     0
 62
     7
176
     0
 62
   257
176
     0
 90
        1
176
     0
 90
        1
176
     0
 40
1.0
176
     0
 90
        8
176
     2
 62
     7
176
     0
 40
1.0
176
     0
 90
        1
176
     0
 90
        6
176
     0
 90
        2
176
     0
 62
     7
176
     0
 90
        5
176
     0
 90
        0
176
     0
 90
        0
176
     0
290
     0
176
     0
 90
        1
176
     0
 40
0.0
176
     0
 90
        0
176
     0
290
     0
176
     1
290
     1
176
     1
290
     1
176
     1
290
     0
176
     1
290
     0
176
     1
290
     0
176
     1
290
     0
176
     1
290
     0
176
     1
290
     0
176
     1
 90
       50
176
     1
 40
0.0
176
     1
 40
1.0
176
     1
 90
        0
176
     1
 62
    18
420
        0
176
     1
 90
       50
176
     1
 90
        3
176
     1
 62
     5
420
      255
176
     1
290
     0
176
     1
 90
       50
176
     1
 90
       50
176
     1
 90
       50
176
     1
290
     0
176
     1
 90
       50
176
     1
 62
   256
176
     0
 40
1.0
176
     0
 90
        2
176
     1
  1
strokes_ogs.tif
176
     1
290
     0
176
     1
 40
1.0
176
     1
 40
1.0
176
     1
  0
VISUALSTYLE
  5
FE
102
{ACAD_REACTORS
330
EF
102
}
330
EF
100
AcDbVisualStyle
  2
Facepattern
 70
    15
177
     3
291
     1
 70
    58
 90
        2
176
     1
 90
        2
176
     1
 90
        1
176
     1
 90
        0
176
     1
 40
0.6
176
     1
 40
30.0
176
     1
 62
     7
420
 16777215
176
     1
 90
        1
176
     1
 90
        4
176
     1
 62
     7
176
     1
 62
   257
176
     1
 90
        1
176
     1
 90
        1
176
     1
 40
1.0
176
     1
 90
        8
176
     1
 62
     7
176
     1
 40
1.0
176
     1
 90
        1
176
     1
 90
        6
176
     1
 90
        2
176
     1
 62
     7
176
     1
 90
        5
176
     1
 90
        0
176
     1
 90
        0
176
     1
290
     0
176
     1
 90
        1
176
     1
 40
0.0
176
     1
 90
        0
176
     1
290
     0
176
     1
290
     1
176
     1
290
     1
176
     1
290
     0
176
     1
290
     0
176
     1
290
     0
176
     1
290
     0
176
     1
290
     0
176
     1
290
     0
176
     1
 90
       50
176
     1
 40
0.0
176
     1
 40
1.0
176
     1
 90
        0
176
     1
 62
    18
420
        0
176
     1
 90
       50
176
     1
 90
        3
176
     1
 62
     5
420
      255
176
     1
290
     0
176
     1
 90
       50
176
     1
 90
       50
176
     1
 90
       50
176
     1
290
     0
176
     1
 90
       50
176
     1
 62
   256
176
     0
 40
1.0
176
     0
 90
        2
176
     1
  1
strokes_ogs.tif
176
     1
290
     0
176
     1
 40
1.0
176
     1
 40
1.0
176
     1
  0
VISUALSTYLE
  5
F0
102
{ACAD_REACTORS
330
EF
102
}
330
EF
100
AcDbVisualStyle
  2
Flat
 70
     0
177
     3
291
     1
 70
    58
 90
        2
176
     1
 90
        1
176
     1
 90
        1
176
     1
 90
        2
176
     1
 40
0.6
176
     1
 40
30.0
176
     1
 62
     7
420
 16777215
176
     1
 90
        0
176
     1
 90
        0
176
     1
 62
     7
176
     1
 62
   257
176
     1
 90
        1
176
     1
 90
        1
176
     1
 40
1.0
176
     1
 90
        8
176
     1
 62
     7
176
     1
 40
1.0
176
     1
 90
        1
176
     1
 90
        6
176
     1
 90
        2
176
     1
 62
     7
176
     1
 90
        5
176
     1
 90
        0
176
     1
 90
        0
176
     1
290
     0
176
     1
 90
       13
176
     1
 40
0.0
176
     1
 90
        0
176
     1
290
     0
176
     1
290
     1
176
     1
290
     1
176
     1
290
     0
176
     1
290
     0
176
     1
290
     0
176
     1
290
     0
176
     1
290
     0
176
     1
290
     0
176
     1
 90
       50
176
     1
 40
0.0
176
     1
 40
1.0
176
     1
 90
        0
176
     1
 62
    18
420
        0
176
     1
 90
       50
176
     1
 90
        3
176
     1
 62
     5
420
      255
176
     1
290
     0
176
     1
 90
       50
176
     1
 90
       50
176
     1
 90
       50
176
     1
290
     0
176
     1
 90
       50
176
     1
 62
   256
176
     0
 40
1.0
176
     0
 90
        2
176
     1
  1
strokes_ogs.tif
176
     1
290
     0
176
     1
 40
1.0
176
     1
 40
1.0
176
     1
  0
VISUALSTYLE
  5
F1
102
{ACAD_REACTORS
330
EF
102
}
330
EF
100
AcDbVisualStyle
  2
FlatWithEdges
 70
     1
177
     3
291
     1
 70
    58
 90
        2
176
     1
 90
        1
176
     1
 90
        1
176
     1
 90
        2
176
     1
 40
0.6
176
     1
 40
30.0
176
     1
 62
     7
420
 16777215
176
     1
 90
        1
176
     1
 90
        0
176
     1
 62
     7
176
     1
 62
   257
176
     1
 90
        1
176
     1
 90
        1
176
     1
 40
1.0
176
     1
 90
        0
176
     1
 62
   257
176
     1
 40
1.0
176
     1
 90
        1
176
     1
 90
        6
176
     1
 90
        2
176
     1
 62
     7
176
     1
 90
        5
176
     1
 90
        0
176
     1
 90
        0
176
     1
290
     0
176
     1
 90
       13
176
     1
 40
0.0
176
     1
 90
        0
176
     1
290
     0
176
     1
290
     1
176
     1
290
     1
176
     1
290
     0
176
     1
290
     0
176
     1
290
     0
176
     1
290
     0
176
     1
290
     0
176
     1
290
     0
176
     1
 90
       50
176
     1
 40
0.0
176
     1
 40
1.0
176
     1
 90
        0
176
     1
 62
    18
420
        0
176
     1
 90
       50
176
     1
 90
        3
176
     1
 62
     5
420
      255
176
     1
290
     0
176
     1
 90
       50
176
     1
 90
       50
176
     1
 90
       50
176
     1
290
     0
176
     1
 90
       50
176
     1
 62
   256
176
     0
 40
1.0
176
     0
 90
        2
176
     1
  1
strokes_ogs.tif
176
     1
290
     0
176
     1
 40
1.0
176
     1
 40
1.0
176
     1
  0
VISUALSTYLE
  5
F2
102
{ACAD_REACTORS
330
EF
102
}
330
EF
100
AcDbVisualStyle
  2
Gouraud
 70
     2
177
     3
291
     1
 70
    58
 90
        2
176
     1
 90
        2
176
     1
 90
        1
176
     1
 90
        2
176
     1
 40
0.6
176
     1
 40
30.0
176
     1
 62
     7
420
 16777215
176
     1
 90
        0
176
     1
 90
        0
176
     1
 62
     7
176
     1
 62
   257
176
     1
 90
        1
176
     1
 90
        1
176
     1
 40
1.0
176
     1
 90
        0
176
     1
 62
     7
176
     1
 40
1.0
176
     1
 90
        1
176
     1
 90
        6
176
     1
 90
        2
176
     1
 62
     7
176
     1
 90
        5
176
     1
 90
        0
176
     1
 90
        0
176
     1
290
     0
176
     1
 90
       13
176
     1
 40
0.0
176
     1
 90
        0
176
     1
290
     0
176
     1
290
     1
176
     1
290
     1
176
     1
290
     0
176
     1
290
     0
176
     1
290
     0
176
     1
290
     0
176
     1
290
     0
176
     1
290
     0
176
     1
 90
       50
176
     1
 40
0.0
176
     1
 40
1.0
176
     1
 90
        0
176
     1
 62
    18
420
        0
176
     1
 90
       50
176
     1
 90
        3
176
     1
 62
     5
420
      255
176
     1
290
     0
176
     1
 90
       50
176
     1
 90
       50
176
     1
 90
       50
176
     1
290
     0
176
     1
 90
       50
176
     1
 62
   256
176
     0
 40
1.0
176
     0
 90
        2
176
     1
  1
strokes_ogs.tif
176
     1
290
     0
176
     1
 40
1.0
176
     1
 40
1.0
176
     1
  0
VISUALSTYLE
  5
F3
102
{ACAD_REACTORS
330
EF
102
}
330
EF
100
AcDbVisualStyle
  2
GouraudWithEdges
 70
     3
177
     3
291
     1
 70
    58
 90
        2
176
     1
 90
        2
176
     1
 90
        1
176
     1
 90
        2
176
     1
 40
0.6
176
     1
 40
30.0
176
     1
 62
     7
420
 16777215
176
     1
 90
        1
176
     1
 90
        0
176
     1
 62
     7
176
     1
 62
   257
176
     1
 90
        1
176
     1
 90
        1
176
     1
 40
1.0
176
     1
 90
        0
176
     1
 62
   257
176
     1
 40
1.0
176
     1
 90
        1
176
     1
 90
        6
176
     1
 90
        2
176
     1
 62
     7
176
     1
 90
        5
176
     1
 90
        0
176
     1
 90
        0
176
     1
290
     0
176
     1
 90
       13
176
     1
 40
0.0
176
     1
 90
        0
176
     1
290
     0
176
     1
290
     1
176
     1
290
     1
176
     1
290
     0
176
     1
290
     0
176
     1
290
     0
176
     1
290
     0
176
     1
290
     0
176
     1
290
     0
176
     1
 90
       50
176
     1
 40
0.0
176
     1
 40
1.0
176
     1
 90
        0
176
     1
 62
    18
420
        0
176
     1
 90
       50
176
     1
 90
        3
176
     1
 62
     5
420
      255
176
     1
290
     0
176
     1
 90
       50
176
     1
 90
       50
176
     1
 90
       50
176
     1
290
     0
176
     1
 90
       50
176
     1
 62
   256
176
     0
 40
1.0
176
     0
 90
        2
176
     1
  1
strokes_ogs.tif
176
     1
290
     0
176
     1
 40
1.0
176
     1
 40
1.0
176
     1
  0
VISUALSTYLE
  5
F7
102
{ACAD_REACTORS
330
EF
102
}
330
EF
100
AcDbVisualStyle
  2
Hidden
 70
     6
177
     3
291
     0
 70
    58
 90
        1
176
     1
 90
        2
176
     1
 90
        2
176
     1
 90
        0
176
     1
 40
0.6
176
     1
 40
30.0
176
     1
 62
     7
420
 16777215
176
     1
 90
        2
176
     1
 90
        2
176
     1
 62
     7
176
     1
 62
   257
176
     1
 90
        2
176
     1
 90
        1
176
     1
 40
40.0
176
     1
 90
        0
176
     1
 62
   257
176
     1
 40
1.0
176
     1
 90
        1
176
     1
 90
        6
176
     1
 90
        2
176
     1
 62
     7
176
     1
 90
        3
176
     1
 90
        0
176
     1
 90
        0
176
     1
290
     0
176
     1
 90
        1
176
     1
 40
0.0
176
     1
 90
        0
176
     1
290
     0
176
     1
290
     1
176
     1
290
     1
176
     1
290
     0
176
     1
290
     0
176
     1
290
     0
176
     1
290
     0
176
     1
290
     0
176
     1
290
     0
176
     1
 90
       50
176
     1
 40
0.0
176
     1
 40
1.0
176
     1
 90
        0
176
     1
 62
    18
420
        0
176
     1
 90
       50
176
     1
 90
        3
176
     1
 62
     5
420
      255
176
     1
290
     0
176
     1
 90
       50
176
     1
 90
       50
176
     1
 90
       50
176
     1
290
     0
176
     1
 90
       50
176
     1
 62
   256
176
     0
 40
1.0
176
     0
 90
        2
176
     1
  1
strokes_ogs.tif
176
     1
290
     0
176
     1
 40
1.0
176
     1
 40
1.0
176
     1
  0
VISUALSTYLE
  5
1E4
102
{ACAD_REACTORS
330
EF
102
}
330
EF
100
AcDbVisualStyle
  2
JitterOff
 70
    20
177
     3
291
     1
 70
    58
 90
        2
176
     0
 90
        2
176
     0
 90
        0
176
     0
 90
        0
176
     0
 40
0.6
176
     0
 40
30.0
176
     0
 62
     7
420
 16777215
176
     0
 90
        1
176
     0
 90
        4
176
     0
 62
     7
176
     0
 62
   257
176
     0
 90
        1
176
     0
 90
        1
176
     0
 40
1.0
176
     0
 90
       10
176
     2
 62
     7
176
     0
 40
1.0
176
     0
 90
        1
176
     0
 90
        6
176
     0
 90
        2
176
     0
 62
     7
176
     0
 90
        5
176
     0
 90
        0
176
     0
 90
        0
176
     0
290
     0
176
     0
 90
        1
176
     0
 40
0.0
176
     0
 90
        0
176
     0
290
     0
176
     1
290
     1
176
     1
290
     1
176
     1
290
     0
176
     1
290
     0
176
     1
290
     0
176
     1
290
     0
176
     1
290
     0
176
     1
290
     0
176
     1
 90
       50
176
     1
 40
0.0
176
     1
 40
1.0
176
     1
 90
        0
176
     1
 62
    18
420
        0
176
     1
 90
       50
176
     1
 90
        3
176
     1
 62
     5
420
      255
176
     1
290
     0
176
     1
 90
       50
176
     1
 90
       50
176
     1
 90
       50
176
     1
290
     0
176
     1
 90
       50
176
     1
 62
   256
176
     0
 40
1.0
176
     0
 90
        2
176
     1
  1
strokes_ogs.tif
176
     1
290
     0
176
     1
 40
1.0
176
     1
 40
1.0
176
     1
  0
VISUALSTYLE
  5
FD
102
{ACAD_REACTORS
330
EF
102
}
330
EF
100
AcDbVisualStyle
  2
Linepattern
 70
    14
177
     3
291
     1
 70
    58
 90
        2
176
     1
 90
        2
176
     1
 90
        1
176
     1
 90
        0
176
     1
 40
0.6
176
     1
 40
30.0
176
     1
 62
     7
420
 16777215
176
     1
 90
        1
176
     1
 90
        4
176
     1
 62
     7
176
     1
 62
   257
176
     1
 90
        7
176
     1
 90
        7
176
     1
 40
1.0
176
     1
 90
        8
176
     1
 62
     7
176
     1
 40
1.0
176
     1
 90
        1
176
     1
 90
        6
176
     1
 90
        2
176
     1
 62
     7
176
     1
 90
        5
176
     1
 90
        0
176
     1
 90
        0
176
     1
290
     0
176
     1
 90
        1
176
     1
 40
0.0
176
     1
 90
        0
176
     1
290
     0
176
     1
290
     1
176
     1
290
     1
176
     1
290
     0
176
     1
290
     0
176
     1
290
     0
176
     1
290
     0
176
     1
290
     0
176
     1
290
     0
176
     1
 90
       50
176
     1
 40
0.0
176
     1
 40
1.0
176
     1
 90
        0
176
     1
 62
    18
420
        0
176
     1
 90
       50
176
     1
 90
        3
176
     1
 62
     5
420
      255
176
     1
290
     0
176
     1
 90
       50
176
     1
 90
       50
176
     1
 90
       50
176
     1
290
     0
176
     1
 90
       50
176
     1
 62
   256
176
     0
 40
1.0
176
     0
 90
        2
176
     1
  1
strokes_ogs.tif
176
     1
290
     0
176
     1
 40
1.0
176
     1
 40
1.0
176
     1
  0
VISUALSTYLE
  5
1E5
102
{ACAD_REACTORS
330
EF
102
}
330
EF
100
AcDbVisualStyle
  2
OverhangOff
 70
    21
177
     3
291
     1
 70
    58
 90
        2
176
     0
 90
        2
176
     0
 90
        0
176
     0
 90
        0
176
     0
 40
0.6
176
     0
 40
30.0
176
     0
 62
     7
420
 16777215
176
     0
 90
        1
176
     0
 90
        4
176
     0
 62
     7
176
     0
 62
   257
176
     0
 90
        1
176
     0
 90
        1
176
     0
 40
1.0
176
     0
 90
        9
176
     2
 62
     7
176
     0
 40
1.0
176
     0
 90
        1
176
     0
 90
        6
176
     0
 90
        2
176
     0
 62
     7
176
     0
 90
        5
176
     0
 90
        0
176
     0
 90
        0
176
     0
290
     0
176
     0
 90
        1
176
     0
 40
0.0
176
     0
 90
        0
176
     0
290
     0
176
     1
290
     1
176
     1
290
     1
176
     1
290
     0
176
     1
290
     0
176
     1
290
     0
176
     1
290
     0
176
     1
290
     0
176
     1
290
     0
176
     1
 90
       50
176
     1
 40
0.0
176
     1
 40
1.0
176
     1
 90
        0
176
     1
 62
    18
420
        0
176
     1
 90
       50
176
     1
 90
        3
176
     1
 62
     5
420
      255
176
     1
290
     0
176
     1
 90
       50
176
     1
 90
       50
176
     1
 90
       50
176
     1
290
     0
176
     1
 90
       50
176
     1
 62
   256
176
     0
 40
1.0
176
     0
 90
        2
176
     1
  1
strokes_ogs.tif
176
     1
290
     0
176
     1
 40
1.0
176
     1
 40
1.0
176
     1
  0
VISUALSTYLE
  5
F9
102
{ACAD_REACTORS
330
EF
102
}
330
EF
100
AcDbVisualStyle
  2
Realistic
 70
     8
177
     3
291
     0
 70
    58
 90
        2
176
     1
 90
        3
176
     1
 90
        0
176
     1
 90
        2
176
     1
 40
0.6
176
     1
 40
30.0
176
     1
 62
     7
420
 16777215
176
     1
 90
        0
176
     1
 90
        0
176
     1
 62
     7
176
     1
 62
   257
176
     1
 90
        1
176
     1
 90
        1
176
     1
 40
1.0
176
     1
 90
        8
176
     1
 62
   257
176
     1
 40
1.0
176
     1
 90
        1
176
     1
 90
        6
176
     1
 90
        2
176
     1
 62
     7
176
     1
 90
        3
176
     1
 90
        0
176
     1
 90
        0
176
     1
290
     0
176
     1
 90
       13
176
     1
 40
0.0
176
     1
 90
        0
176
     1
290
     0
176
     1
290
     1
176
     1
290
     1
176
     1
290
     0
176
     1
290
     0
176
     1
290
     0
176
     1
290
     0
176
     1
290
     0
176
     1
290
     0
176
     1
 90
       50
176
     1
 40
0.0
176
     1
 40
1.0
176
     1
 90
        0
176
     1
 62
    18
420
        0
176
     1
 90
       50
176
     1
 90
        3
176
     1
 62
     5
420
      255
176
     1
290
     0
176
     1
 90
       50
176
     1
 90
       50
176
     1
 90
       50
176
     1
290
     0
176
     1
 90
       50
176
     1
 62
   256
176
     0
 40
1.0
176
     0
 90
        2
176
     1
  1
strokes_ogs.tif
176
     1
290
     0
176
     1
 40
1.0
176
     1
 40
1.0
176
     1
  0
VISUALSTYLE
  5
1F3
102
{ACAD_REACTORS
330
EF
102
}
330
EF
100
AcDbVisualStyle
  2
Shaded
 70
    27
177
     3
291
     0
 70
    58
 90
        2
176
     1
 90
        2
176
     1
 90
        1
176
     1
 90
        2
176
     1
 40
0.6
176
     1
 40
30.0
176
     1
 62
     7
420
 16777215
176
     1
 90
        0
176
     1
 90
        4
176
     1
 62
     7
176
     1
 62
   257
176
     1
 90
        1
176
     1
 90
        1
176
     1
 40
1.0
176
     1
 90
        8
176
     1
 62
   257
176
     1
 40
1.0
176
     1
 90
        1
176
     1
 90
        6
176
     1
 90
        2
176
     1
 62
     8
420
  7895160
176
     1
 90
        3
176
     1
 90
        0
176
     1
 90
        0
176
     1
290
     0
176
     1
 90
        5
176
     1
 40
0.0
176
     1
 90
        0
176
     1
290
     0
176
     1
290
     1
176
     1
290
     1
176
     1
290
     0
176
     1
290
     0
176
     1
290
     0
176
     1
290
     0
176
     1
290
     0
176
     1
290
     0
176
     1
 90
       50
176
     1
 40
0.0
176
     1
 40
1.0
176
     1
 90
        0
176
     1
 62
    18
420
        0
176
     1
 90
       50
176
     1
 90
        3
176
     1
 62
     5
420
      255
176
     1
290
     0
176
     1
 90
       50
176
     1
 90
       50
176
     1
 90
       50
176
     1
290
     0
176
     1
 90
       50
176
     1
 62
   256
176
     0
 40
1.0
176
     0
 90
        2
176
     1
  1
strokes_ogs.tif
176
     1
290
     0
176
     1
 40
1.0
176
     1
 40
1.0
176
     1
  0
VISUALSTYLE
  5
1F2
102
{ACAD_REACTORS
330
EF
102
}
330
EF
100
AcDbVisualStyle
  2
Shaded with edges
 70
    26
177
     3
291
     0
 70
    58
 90
        2
176
     1
 90
        2
176
     1
 90
        1
176
     1
 90
        2
176
     1
 40
0.6
176
     1
 40
30.0
176
     1
 62
     7
420
 16777215
176
     1
 90
        1
176
     1
 90
        2
176
     1
 62
     7
176
     1
 62
   257
176
     1
 90
        2
176
     1
 90
        1
176
     1
 40
1.0
176
     1
 90
        8
176
     1
 62
   257
176
     1
 40
1.0
176
     1
 90
        1
176
     1
 90
        6
176
     1
 90
        2
176
     1
 62
     7
176
     1
 90
        3
176
     1
 90
        0
176
     1
 90
        0
176
     1
290
     0
176
     1
 90
        5
176
     1
 40
0.0
176
     1
 90
        0
176
     1
290
     0
176
     1
290
     1
176
     1
290
     1
176
     1
290
     0
176
     1
290
     0
176
     1
290
     0
176
     1
290
     0
176
     1
290
     0
176
     1
290
     0
176
     1
 90
       50
176
     1
 40
0.0
176
     1
 40
1.0
176
     1
 90
        0
176
     1
 62
    18
420
        0
176
     1
 90
       50
176
     1
 90
        3
176
     1
 62
     5
420
      255
176
     1
290
     0
176
     1
 90
       50
176
     1
 90
       50
176
     1
 90
       50
176
     1
290
     0
176
     1
 90
       50
176
     1
 62
   256
176
     0
 40
1.0
176
     0
 90
        2
176
     1
  1
strokes_ogs.tif
176
     1
290
     0
176
     1
 40
1.0
176
     1
 40
1.0
176
     1
  0
VISUALSTYLE
  5
1EF
102
{ACAD_REACTORS
330
EF
102
}
330
EF
100
AcDbVisualStyle
  2
Shades of Gray
 70
    23
177
     3
291
     0
 70
    58
 90
        2
176
     1
 90
        2
176
     1
 90
        3
176
     1
 90
        0
176
     1
 40
0.6
176
     1
 40
30.0
176
     1
 62
     7
420
 16777215
176
     1
 90
        2
176
     1
 90
        2
176
     1
 62
     7
176
     1
 62
     7
176
     1
 90
        1
176
     1
 90
        1
176
     1
 40
40.0
176
     1
 90
        8
176
     1
 62
     7
176
     1
 40
1.0
176
     1
 90
        1
176
     1
 90
        6
176
     1
 90
        2
176
     1
 62
     7
176
     1
 90
        3
176
     1
 90
        0
176
     1
 90
        0
176
     1
290
     0
176
     1
 90
        1
176
     1
 40
0.0
176
     1
 90
        0
176
     1
290
     0
176
     1
290
     1
176
     1
290
     1
176
     1
290
     0
176
     1
290
     0
176
     1
290
     0
176
     1
290
     0
176
     1
290
     0
176
     1
290
     0
176
     1
 90
       50
176
     1
 40
0.0
176
     1
 40
1.0
176
     1
 90
        0
176
     1
 62
    18
420
        0
176
     1
 90
       50
176
     1
 90
        3
176
     1
 62
     5
420
      255
176
     1
290
     0
176
     1
 90
       50
176
     1
 90
       50
176
     1
 90
       50
176
     1
290
     0
176
     1
 90
       50
176
     1
 62
   256
176
     0
 40
1.0
176
     0
 90
        2
176
     1
  1
strokes_ogs.tif
176
     1
290
     0
176
     1
 40
1.0
176
     1
 40
1.0
176
     1
  0
VISUALSTYLE
  5
1F0
102
{ACAD_REACTORS
330
EF
102
}
330
EF
100
AcDbVisualStyle
  2
Sketchy
 70
    24
177
     3
291
     0
 70
    58
 90
        1
176
     1
 90
        2
176
     1
 90
        2
176
     1
 90
        0
176
     1
 40
0.6
176
     1
 40
30.0
176
     1
 62
     7
420
 16777215
176
     1
 90
        2
176
     1
 90
        2
176
     1
 62
     7
176
     1
 62
     7
176
     1
 90
        1
176
     1
 90
        1
176
     1
 40
40.0
176
     1
 90
       11
176
     1
 62
     7
176
     1
 40
1.0
176
     1
 90
        1
176
     1
 90
        6
176
     1
 90
        2
176
     1
 62
     7
176
     1
 90
        6
176
     1
 90
        0
176
     1
 90
        0
176
     1
290
     0
176
     1
 90
        1
176
     1
 40
0.0
176
     1
 90
        0
176
     1
290
     0
176
     1
290
     1
176
     1
290
     1
176
     1
290
     0
176
     1
290
     0
176
     1
290
     0
176
     1
290
     0
176
     1
290
     0
176
     1
290
     0
176
     1
 90
       50
176
     1
 40
0.0
176
     1
 40
1.0
176
     1
 90
        0
176
     1
 62
    18
420
        0
176
     1
 90
       50
176
     1
 90
        3
176
     1
 62
     5
420
      255
176
     1
290
     0
176
     1
 90
       50
176
     1
 90
       50
176
     1
 90
       50
176
     1
290
     0
176
     1
 90
       50
176
     1
 62
   256
176
     0
 40
1.0
176
     0
 90
        2
176
     1
  1
strokes_ogs.tif
176
     1
290
     0
176
     1
 40
1.0
176
     1
 40
1.0
176
     1
  0
VISUALSTYLE
  5
FC
102
{ACAD_REACTORS
330
EF
102
}
330
EF
100
AcDbVisualStyle
  2
Thicken
 70
    13
177
     3
291
     1
 70
    58
 90
        2
176
     1
 90
        2
176
     1
 90
        1
176
     1
 90
        0
176
     1
 40
0.6
176
     1
 40
30.0
176
     1
 62
     7
420
 16777215
176
     1
 90
        1
176
     1
 90
        4
176
     1
 62
     7
176
     1
 62
   257
176
     1
 90
        1
176
     1
 90
        1
176
     1
 40
1.0
176
     1
 90
       12
176
     1
 62
     7
176
     1
 40
1.0
176
     1
 90
        1
176
     1
 90
        6
176
     1
 90
        2
176
     1
 62
     7
176
     1
 90
        5
176
     1
 90
        0
176
     1
 90
        0
176
     1
290
     0
176
     1
 90
        1
176
     1
 40
0.0
176
     1
 90
        0
176
     1
290
     0
176
     1
290
     1
176
     1
290
     1
176
     1
290
     0
176
     1
290
     0
176
     1
290
     0
176
     1
290
     0
176
     1
290
     0
176
     1
290
     0
176
     1
 90
       50
176
     1
 40
0.0
176
     1
 40
1.0
176
     1
 90
        0
176
     1
 62
    18
420
        0
176
     1
 90
       50
176
     1
 90
        3
176
     1
 62
     5
420
      255
176
     1
290
     0
176
     1
 90
       50
176
     1
 90
       50
176
     1
 90
       50
176
     1
290
     0
176
     1
 90
       50
176
     1
 62
   256
176
     0
 40
1.0
176
     0
 90
        2
176
     1
  1
strokes_ogs.tif
176
     1
290
     0
176
     1
 40
1.0
176
     1
 40
1.0
176
     1
  0
VISUALSTYLE
  5
F6
102
{ACAD_REACTORS
330
EF
102
}
330
EF
100
AcDbVisualStyle
  2
Wireframe
 70
     5
177
     3
291
     0
 70
    58
 90
        0
176
     1
 90
        2
176
     1
 90
        0
176
     1
 90
        0
176
     1
 40
0.6
176
     1
 40
30.0
176
     1
 62
     7
420
 16777215
176
     1
 90
        1
176
     1
 90
        4
176
     1
 62
     7
176
     1
 62
   257
176
     1
 90
        1
176
     1
 90
        1
176
     1
 40
1.0
176
     1
 90
        0
176
     1
 62
   257
176
     1
 40
1.0
176
     1
 90
        1
176
     1
 90
        6
176
     1
 90
        2
176
     1
 62
     7
176
     1
 90
        3
176
     1
 90
        0
176
     1
 90
        0
176
     1
290
     0
176
     1
 90
        1
176
     1
 40
0.0
176
     1
 90
        0
176
     1
290
     0
176
     1
290
     1
176
     1
290
     1
176
     1
290
     0
176
     1
290
     0
176
     1
290
     0
176
     1
290
     0
176
     1
290
     0
176
     1
290
     0
176
     1
 90
       50
176
     1
 40
0.0
176
     1
 40
1.0
176
     1
 90
        0
176
     1
 62
    18
420
        0
176
     1
 90
       50
176
     1
 90
        3
176
     1
 62
     5
420
      255
176
     1
290
     0
176
     1
 90
       50
176
     1
 90
       50
176
     1
 90
       50
176
     1
290
     0
176
     1
 90
       50
176
     1
 62
   256
176
     0
 40
1.0
176
     0
 90
        2
176
     1
  1
strokes_ogs.tif
176
     1
290
     0
176
     1
 40
1.0
176
     1
 40
1.0
176
     1
  0
VISUALSTYLE
  5
1F1
102
{ACAD_REACTORS
330
EF
102
}
330
EF
100
AcDbVisualStyle
  2
X-Ray
 70
    25
177
     3
291
     0
 70
    58
 90
        2
176
     1
 90
        2
176
     1
 90
        1
176
     1
 90
        1
176
     1
 40
0.5
176
     1
 40
30.0
176
     1
 62
     7
420
 16777215
176
     1
 90
        1
176
     1
 90
        0
176
     1
 62
     7
176
     1
 62
   257
176
     1
 90
        1
176
     1
 90
        1
176
     1
 40
1.0
176
     1
 90
        8
176
     1
 62
     7
176
     1
 40
1.0
176
     1
 90
        1
176
     1
 90
        6
176
     1
 90
        2
176
     1
 62
     7
176
     1
 90
        3
176
     1
 90
        0
176
     1
 90
        0
176
     1
290
     0
176
     1
 90
       13
176
     1
 40
0.0
176
     1
 90
        0
176
     1
290
     0
176
     1
290
     1
176
     1
290
     1
176
     1
290
     0
176
     1
290
     0
176
     1
290
     0
176
     1
290
     0
176
     1
290
     0
176
     1
290
     0
176
     1
 90
       50
176
     1
 40
0.0
176
     1
 40
1.0
176
     1
 90
        0
176
     1
 62
    18
420
        0
176
     1
 90
       50
176
     1
 90
        3
176
     1
 62
     5
420
      255
176
     1
290
     0
176
     1
 90
       50
176
     1
 90
       50
176
     1
 90
       50
176
     1
290
     0
176
     1
 90
       50
176
     1
 62
   256
176
     0
 40
1.0
176
     0
 90
        2
176
     1
  1
strokes_ogs.tif
176
     1
290
     0
176
     1
 40
1.0
176
     1
 40
1.0
176
     1
  0
DICTIONARYVAR
  5
146
102
{ACAD_REACTORS
330
5E
102
}
330
5E
100
DictionaryVariables
280
     0
  1
1:1
  0
DICTIONARYVAR
  5
259
102
{ACAD_REACTORS
330
5E
102
}
330
5E
100
DictionaryVariables
280
     0
  1
3.500000
  0
DICTIONARYVAR
  5
25A
102
{ACAD_REACTORS
330
5E
102
}
330
5E
100
DictionaryVariables
280
     0
  1
acadiso.lin
  0
DICTIONARYVAR
  5
145
102
{ACAD_REACTORS
330
5E
102
}
330
5E
100
DictionaryVariables
280
     0
  1
STANDARD
  0
DICTIONARYVAR
  5
84
102
{ACAD_REACTORS
330
5E
102
}
330
5E
100
DictionaryVariables
280
     0
  1
STANDARD
  0
DICTIONARYVAR
  5
227
102
{ACAD_REACTORS
330
5E
102
}
330
5E
100
DictionaryVariables
280
     0
  1
Metric50
  0
DICTIONARYVAR
  5
228
102
{ACAD_REACTORS
330
5E
102
}
330
5E
100
DictionaryVariables
280
     0
  1
Metric50
  0
DICTIONARYVAR
  5
5F
102
{ACAD_REACTORS
330
5E
102
}
330
5E
100
DictionaryVariables
280
     0
  1
2
  0
DICTIONARYVAR
  5
395
102
{ACAD_REACTORS
330
5E
102
}
330
5E
100
DictionaryVariables
280
     0
  1
1
  0
DICTIONARYVAR
  5
82B
102
{ACAD_REACTORS
330
5E
102
}
330
5E
100
DictionaryVariables
280
     0
  1
4
  0
DICTIONARYVAR
  5
63
102
{ACAD_REACTORS
330
5E
102
}
330
5E
100
DictionaryVariables
280
     0
  1
1
  0
DICTIONARYVAR
  5
1AE
102
{ACAD_REACTORS
330
5E
102
}
330
5E
100
DictionaryVariables
280
     0
  1
1
  0
DICTIONARYVAR
  5
1AF
102
{ACAD_REACTORS
330
5E
102
}
330
5E
100
DictionaryVariables
280
     0
  1
15
  0
DICTIONARYVAR
  5
30F
102
{ACAD_REACTORS
330
5E
102
}
330
5E
100
DictionaryVariables
280
     0
  1
0
  0
DICTIONARYVAR
  5
30E
102
{ACAD_REACTORS
330
5E
102
}
330
5E
100
DictionaryVariables
280
     0
  1
0
  0
DICTIONARY
  5
29D
102
{ACAD_REACTORS
330
296
102
}
330
296
100
AcDbDictionary
281
     1
  0
XRECORD
  5
304
102
{ACAD_REACTORS
330
296
102
}
330
296
100
AcDbXrecord
280
     1
 90
-1023410169
  0
ACDBVIEWREPSTANDARD
  5
306
102
{ACAD_REACTORS
330
305
102
}
330
305
100
AcDbViewRepStandard
 90
      100
 90
        0
 90
        1
 90
        0
 90
        1
 90
        1
  0
DICTIONARY
  5
205
330
22
100
AcDbDictionary
280
     1
281
     1
  3
AcPublish_PlotSettingsOverride
360
6FC
  0
DICTIONARY
  5
1F9
330
ED
100
AcDbDictionary
280
     1
281
     1
  3
FBXASSET
360
1FA
  0
DICTIONARY
  5
1F7
330
EC
100
AcDbDictionary
280
     1
281
     1
  3
FBXASSET
360
1F8
  0
DICTIONARY
  5
173
330
EE
100
AcDbDictionary
280
     1
281
     1
  3
BUMPTILE
360
175
  3
DIFFUSETILE
360
174
  3
FBXASSET
360
1FB
  3
OPACITYTILE
360
176
  3
REFLECTIONTILE
360
177
  0
DICTIONARY
  5
162
330
7F
100
AcDbDictionary
280
     1
281
     1
  3
ACAD_ROUNDTRIP_2008_TABLESTYLE_CELLSTYLEMAP
360
F22
  0
PLOTSETTINGS
  5
6FC
102
{ACAD_REACTORS
330
205
102
}
330
205
100
AcDbPlotSettings
  1
TC A4P
  2
DWG To PDF.pc3
  4
ISO_full_bleed_A4_(210.00_x_297.00_MM)
  6

 40
0.0
 41
0.0
 42
0.0
 43
0.0
 44
210.0
 45
297.0
 46
0.0
 47
0.0181263696928795
 48
0.0
 49
0.0
140
0.0
141
0.0
142
1.0
143
1.000152591848646
 70
 11956
 72
     1
 73
     0
 74
     1
  7

 75
     0
147
0.9998474314320729
 76
     0
 77
     2
 78
   300
148
0.0064043885631691
149
0.004528679247187
1001
ACAD_PSEXT
1000
DWG To PDF.pc3
1000
DWG To PDF
1000
File
1000

1070
     0
  0
XRECORD
  5
1FA
102
{ACAD_REACTORS
330
1F9
102
}
330
1F9
100
AcDbXrecord
280
     1
 70
     1
 90
429727718
  1
D62C5603-E3A1-4AEA-B7FB-FE5D8D0755AF
310
504B03040A0000080000CC70623B3DEE336E79000000790000001B0000006175746F6465736B2D64657369676E2D7061636B6167652E786D6C3C3F786D6C2076657273696F6E3D22312E302220656E636F64696E673D227574662D3822203F3E3C666F726D6174733E3C666F726D61743E687474703A2F2F736368656D612E
310
6175746F6465736B2E636F6D2F64657369676E2D7061636B6167652F323030393C2F666F726D61743E3C2F666F726D6174733E504B0304140006080800CC70623BD486FD9CA0000000F4000000130000005B436F6E74656E745F54797065735D2E786D6C7D8EC10E82300C865F65E91D8A1E8C310C0EEA1BF002731658846E
310
D98AC1B77784ABF1D8FE5FBFBF75BBCE937A534CCEB38643598122B6FEE978D0B0485F9C41B54DDD7D022595594E1A469170414C76A4D9A4D207E29CF43ECE46F218070CC6BECC4078ACAA135ACF422C856C0E68EA1BF5669944DDD7BCDE7B1F8E415D77AECB980613C2E4AC91FC167A2B244592486606FC29C8FD7F045B9A
310
EF7053A7E60B504B0304140006080800CC70623B853B8169EB0000007C01000008000000636F72652E786D6C8D90416EC3201045AF62CDB6C206821CC7C244919D9CA01740401C94182C03558F5F9C3852BBEB6A467FFE9B197D7EFC9E1EC5975982F5AE035262288C535E5B377690E21535501C055FBC8FBF6C503839990E
310
5619041F179FE64D52DE45E362569DD7661365082642A11EB9E920A89B99642953CC8E702F67A9EE7234257977194EC9EAE275C4EABCCF5EAD5940D4AC6F0E35A568B8F43562CD7046CD199FD07E60174276A7BE677B5EADB0E0D14EEFFB6A31321A0D82627C4084204C3F096B71DD52F6819B16635EADF63F509AF53FA164
310
5DDCD1EDDD17164090FCC8732078B56691CB33A85CD7DCC40F504B0304140006080800CC70623B55019EA25F0000007C00000007000000636E782E786D6C4DCB3B0E80201045D1AD90E915ED2CF8AC45050C11660C8261F98AB1B07AC9C97D42D718D865D3E909258CFD00CCE24AC6E326A164D74DC0B4128928FF32603847
310
2BA13128B1252AC747C6BAB984FC68F0B87FE8960A5C09FE86CFB69FBA01504B0304140006080800CC70623BDBABAAF470010000D40300000C0000006662782F636F72652E786D6CC553D16E823014FD95A6AF4B694182CC941A83FA05FB810A9511A125A5257EFE2E82712ECEB8A7F100CD39F7F69E734AF9FADC366850B6
310
AF8DCE7018308C942E4C59EB2AC3DE1D498AD15A706B8CFB56869196ADCAF00863C12B6B7C374385D14E6907A836A59A41D9F7CA615434B0C8705F7CAA5606D23BA8E84F41278B93AC54100640439DE0BDB320004D43C63716C7C399D30917DCFBBA9CD9BA8469F5B156168B24CED3F7248AC8769F27244EB73B92EED8862C
310
B7F13E0C179B3C8F979C8ECD82BBBABDAA2BAC924E9558448CBD9330242CFA08E3154B5651FCC6D215639C8EE5774DBE2B5F6CF2B5768B68963BB5F5588420E442FC700B1139D4CB01F450C1E918227C2E09DF070D8140C84E1E9AAB8F1340832A9CB13130A5F1376A908D57309505ECF2A0DF179C4E9D30F5B239B87E3823
310
7A79C6F31DE1A8A5AEC08474B03C7837EAE4938639B44E5932B833D2C6B6B279CDC613877FA26EE21F4A2A4C63EC7F29A2F301D1F9F7A0E37D145F504B0304140006080800CC70623B9C113CC27E0000009D0000000B0000006662782F636E782E786D6C4DCCDF0A83201C86E15B91DFB94BFB330DD428C8FB886521330DA7
310
6397BF1A1DECE883878F57749FCDA1B7892F1BBC047A23808C7F84D9FA55424E0BE6803A256208E9EF06C84F9B91703228B1C690F78B66B34CD9A5439DF5CF0BFBF65E35BCA1B8D6A5C6F540381E886698B5741C695F9503EBA150A2F8958E3DC3EA0B504B0304140006080800CC70623B7DF2F77C2A010000120200003100
310
00006662782F41393633353835312D344632462D344230382D423046372D3739314545314133324237412F636F72652E786D6C8D51DB8EC22014FC15C2939B0D2DB4B45643319AE817EC0F6041255A68B86CFCFC856D4D76DF7CE190393373060EDB3DC707F856CE6B6B7A480A0C81328395DA5C7B18C3057510EC3873D686
310
3F34088C18550F330C39BB3A1BA7051AAC09CA84841A2BD5020AEF55806078A44B0FFD7053A328440C89E1EFC52486BBB8AA8214A99D789CF9E05200300FC927E4FB4D5B375D43103D5527440FB843077C5AA3F5861C8F645F5787F59E95B390B318B55CE45AA638FAA2957BD7248B390B7A7CC51F9C124149C82B8C378810
310
84AB2F42B7B8DD56F413775B8C5999E9FF4471926F8AA236A1AE96B8B3CC434E5839373893369E1FAF30EA395917409EB7F26AF8801C171837A4A6AC9C89E9F9C9B1A58BA30FD6A5EF5DDDCF894B9AD9B6A59C957943A9FCAE2FD5BC4DFE03504B0304140006080800CC70623BAD7543B64E01000033030000300000006662
310
782F41393633353835312D344632462D344230382D423046372D3739314545314133324237412F636E782E786D6CD593CD6EC32010845F0571AD6CE3D48AD20813A9873E410FBD12D82434182C7EAAE6EDBB2424CD25871E7B41D6EC30B3FA84F9E67BB2E40B4234DE8DB46F1925E094D7C6ED479AD3AE5951B2113C789FEE
310
6C943839C1488B4C05DF079FE72A69D8C96C13AAD6B8631503449F83828872B949AC57D26200B826A308D316B4064D6E46FCDA41C05550DC9E483A00797BFD207EFB092A45DE9514C1BBD22178396BD39D891265658C238DEA00936C654E5E433CB65A26D9F6EDB5EBC14EBF49A45CB856E66048291F6939A9A81BB5C89177
310
38143CA680F4AA299D66A042CEB3354A2684DC9D8D178FE0D9B8B41CAAD720F880EE7EF93C0C18769E099ECC04D5A102C8049A8A05632F4DDF376CF1DE0F6BB65C2F8627B65A33C6BB62177CEBBDAD973006829F89F22E814B54F4BC2BE347F8AA8F681390B50FA73F804400B5F542E796F19FF974E7F78DB802FE05E20750
310
4B0304140006080800CC70623BE75B7789680500003C100000340000006662782F41393633353835312D344632462D344230382D423046372D3739314545314133324237412F6F626A656374732E786D6CAD575B8F9B3818FD2B887D06C22499CB8AA1CA655245D5B455A356FB305264C061D8018C6C3393D95FBFC7600890
310
A4CD5EF210B0B1BFEBF98E3F7B1FF6596ABC522E1296DF9BAE3D320D9A872C4AF2F8DE2CE5CEBA358D0FBEC719939D65A691938CDE9B6ADAF4BD98B3B2D05311DD91329583D9D5FC0F438434A7A611A644887B5384CF34233629258BA878B12322891DEFF6B66BD70BFB62634E8AE781D082709A4B588AF91C528CDA28B73F
310
1C998EEF39EABBEFA97FBD6A7C7E9553F9D3D79FE442923C3C523610337627CB87ABE99D359D4CC6D6E4FACAB5E6ABF9D2726FC6A3C5F56271377BB88362213924694B38DD99FE47C48627A1E7D49F5A8BB5E1A74C0A599ED3B0F21F1E56366B89112D681E218F0915D0D6F17AD41FBA2A369DCF6335D62ABBD39779D5DDD1
310
11D4D8DE3CBB96B2E04FB8202E41051754A1AA8E8F76B4C6DFE810B580B1547F4B84911149794252234D024EF8BBE963A95AE27B3D310A9D5C215C7960FAEE415ED75694C6AFB17BCACA5D99A60A9AA65F217B0BFC53292ACB92BF283FAD0D3621576592CB5BED907C2FA8E9DF794E35E97BEA31BED21FEB401ABB94C44839
310
DCACBF0E1C5DA8DA5B2F4DFFD32AD86F543D9E565E7056502E157C00AD2671CD534549AB752FCA9CDA00677A313F04E51B22FF19E57B300579E3C97EB29F682D92935CEC18CF901B7B54FD8C51F362B56FC72FE0B3C1EAE335EDCCBF5AEC39ADB17DC238973F804BA5E6F6BFE7AF1FB32E523BE9F3BD571418E3631DCA4D48
310
5250CF639223210A9446CA30052EDF057BD35F8329C1ECD84552BF0DC8D18BE7BCE23BFE6BD960AB4A7DE79923A103BEBD80F911CBAA2C60DB19B01CF164A5583B772EE6D3FFA56666CBCDA74DC97724A48F9A58967497E489C4D979006FD7A05E227A1EBDD0F737C623387A9C844D3709995625106D157315F8B8392CD4E0
310
A0B9A720C4BE9829CEF37EA1E13111214D53925356365ADA634861B52519DD27A00AEB808EAF0628E6F435519D446F45CF2C9CF5214F0A15B2F6D06B79DA3EE3CBF7F56780D2F4E7EF73A0F5E5B02A38D07DC852C6B7C1FBB6664213E0C39E3EBA7FF4E1AD23EA2829407C85E586727488B751B2DB9502BC7B228A3FD68B6E
310
A65A22397E690AA8D158D7E404EC8CDA235CC3B7D1898680131CEC2CDF2638C65196279577750F15884AEE19F94199155B92B13297978469D4F8D358DF0AEF7631E28DC8F0D9F437D5D39A83B2231A1D52D543813A824EF8D44BCFF2FA6A31BD1E8DAD87F1CCB526B3879935BF59CDADD5C37479BB1CDD4CA7B3556B516589
310
EF352754B706114D9C885EC9131DE6EFEB43D99AFE2391C2F958179413D7CFEF6B1B6DB1E7600F00DE6E5C67454A339A4BA2E0FBA85ED26F045D454F463DBFCE484C2F90F2E5E3666003662ED8F755951A7D1BECD5B30B550B2785C8E7320B7292A4838DDA71BBC863ED7613CAF659337A3354231D4FF4A182A54904C2898C
310
98B28C4AD0CE056CCF332A80986E571EE9DBC305BB5FEB7E509220A58D25CF042D712A806AC0AD0C657FDEF80D2D9CEAA2EE4D1C76F60BFE74219A06527D6F82DF6412526107381E55E353090704D085B52408A8913C4ED159D79BDA71BB4BC506F4831350EB6F975CD22D69BF7AC49B91A2C0A9DDA3D5CA36AD20FC478E37
310
E61844E2352865EBCB61A275A65283CAAA9DD27703B4102F5AF51EF5F573B75CBB5AD38BC845F7A49F82A0966A49C2E3EA5EA0ECD326CD965F1DB402C6FA8B51A4658C5C5E2EC9E214602E55810345408596591009A82E7E7FFACA19EEA299B14A0081A705CB3296EBC14CDF658DCD336EA6D1136881AAEB87B81AB9EE53D5
310
F5EB8BC8362082DA24122F98680A4E7930C01A0079749CEA14382A0783E5EBA5A10F8C098456A03D6A4AEB6BB881E2513747552A5DB22C7EDAF83BD5528081A365F7FF06504B0304140006080000CC70623B000000000000000000000000350000006662782F41393633353835312D344632462D344230382D423046372D37
310
39314545314133324237412F76657274696365732E62696E504B0304140006080800CC70623BF270F1330600000004000000360000006662782F41393633353835312D344632462D344230382D423046372D3739314545314133324237412F747269616E676C65732E62696E636660600000504B0304140006080000CC7062
310
3B000000000000000000000000370000006662782F41393633353835312D344632462D344230382D423046372D3739314545314133324237412F617474726962757465732E62696E504B0304140006080800CC70623B08DA0BD19000000041010000360000006662782F41393633353835312D344632462D344230382D4230
310
46372D3739314545314133324237412F6469726563746F72792E786D6C858F410AC3201045AF22B36F53E9A60B35CBEEBAE80D244E44489C6234F4F835464A48035D0DF398FF9F8AF63D0E6CC63039F212F8F9020C7D47C6792B21C5FE7403D62A1188E2E60C98D7234A5830286103A55745067B9D86B8A3CF9C7F90C11DE6
310
07FB144396D7B6A82D282E9A152AD114D5EF2CB866EEE831B8EEA07A7BB5A8D7D61A2BAAEB7FD5F70921FF497D00504B0304140006080800CC70623BEDD1DC58FD000000A00100003B0000006662782F41393633353835312D344632462D344230382D423046372D3739314545314133324237412F7265736F75726365732F
310
636F72652E786D6C8D504B6E833010BD0A9A6D65B00922041947112427E8052C33A156828DFCA97AFC9A40A576D7CDCCE87D344F8F9FBFE667F689CE6B6B3A6039850C8DB2A336530731DC4903D95970676DF82583CCC8193B5861107C72362E3BA4AC096842428D1D7107A5F7182053CF7474E0D507CE32973124857FE48B
310
540F3961CEF244279DE03EB81420DB9EAC1384436FA353E879B1B182C7A8C75DA3C7F453DF353A1075D537A7BA6464B8F535A99AE14A9A2BBD90E350DD183B5CFABE3AF262350B1EF4FC9351399401471025A527C218A1E53BAB5A5AB765F5469B96525EACF23FA6B88CFF34456DC2A1DCE36E360F82A5202F42F062ED2BAD
310
579969AFDD8A6F504B010214000A0000080000CC70623B3DEE336E79000000790000001B00000000000000000000000000000000006175746F6465736B2D64657369676E2D7061636B6167652E786D6C504B01021400140006080800CC70623BD486FD9CA0000000F40000001300000000000000000000000000B20000005B
310
436F6E74656E745F54797065735D2E786D6C504B01021400140006080800CC70623B853B8169EB0000007C010000080000000000000000000000000083010000636F72652E786D6C504B01021400140006080800CC70623B55019EA25F0000007C000000070000000000000000000000000094020000636E782E786D6C504B
310
01021400140006080800CC70623BDBABAAF470010000D40300000C00000000000000000000000000180300006662782F636F72652E786D6C504B01021400140006080800CC70623B9C113CC27E0000009D0000000B00000000000000000000000000B20400006662782F636E782E786D6C504B01021400140006080800CC70
310
623B7DF2F77C2A010000120200003100000000000000000000000000590500006662782F41393633353835312D344632462D344230382D423046372D3739314545314133324237412F636F72652E786D6C504B01021400140006080800CC70623BAD7543B64E010000330300003000000000000000000000000000D2060000
310
6662782F41393633353835312D344632462D344230382D423046372D3739314545314133324237412F636E782E786D6C504B01021400140006080800CC70623BE75B7789680500003C10000034000000000000000000000000006E0800006662782F41393633353835312D344632462D344230382D423046372D3739314545
310
314133324237412F6F626A656374732E786D6C504B01021400140006080000CC70623B0000000000000000000000003500000000000000000000000000280E00006662782F41393633353835312D344632462D344230382D423046372D3739314545314133324237412F76657274696365732E62696E504B01021400140006
310
080800CC70623BF270F133060000000400000036000000000000000000000000007B0E00006662782F41393633353835312D344632462D344230382D423046372D3739314545314133324237412F747269616E676C65732E62696E504B01021400140006080000CC70623B0000000000000000000000003700000000000000
310
000000000000D50E00006662782F41393633353835312D344632462D344230382D423046372D3739314545314133324237412F617474726962757465732E62696E504B01021400140006080800CC70623B08DA0BD1900000004101000036000000000000000000000000002A0F00006662782F41393633353835312D344632
310
462D344230382D423046372D3739314545314133324237412F6469726563746F72792E786D6C504B01021400140006080800CC70623BEDD1DC58FD000000A00100003B000000000000000000000000000E1000006662782F41393633353835312D344632462D344230382D423046372D3739314545314133324237412F7265
310
736F75726365732F636F72652E786D6C504B0506000000000E000E0080040000641100000000
  0
XRECORD
  5
1F8
102
{ACAD_REACTORS
330
1F7
102
}
330
1F7
100
AcDbXrecord
280
     1
 70
     1
 90
429727718
  1
30362254-06B7-45E0-A893-8CFA70E3D6BC
310
504B03040A0000080000CC70623B3DEE336E79000000790000001B0000006175746F6465736B2D64657369676E2D7061636B6167652E786D6C3C3F786D6C2076657273696F6E3D22312E302220656E636F64696E673D227574662D3822203F3E3C666F726D6174733E3C666F726D61743E687474703A2F2F736368656D612E
310
6175746F6465736B2E636F6D2F64657369676E2D7061636B6167652F323030393C2F666F726D61743E3C2F666F726D6174733E504B0304140006080800CC70623BD486FD9CA0000000F4000000130000005B436F6E74656E745F54797065735D2E786D6C7D8EC10E82300C865F65E91D8A1E8C310C0EEA1BF002731658846E
310
D98AC1B77784ABF1D8FE5FBFBF75BBCE937A534CCEB38643598122B6FEE978D0B0485F9C41B54DDD7D022595594E1A469170414C76A4D9A4D207E29CF43ECE46F218070CC6BECC4078ACAA135ACF422C856C0E68EA1BF5669944DDD7BCDE7B1F8E415D77AECB980613C2E4AC91FC167A2B244592486606FC29C8FD7F045B9A
310
EF7053A7E60B504B0304140006080800CC70623B1EC5D7A3EB0000007C01000008000000636F72652E786D6C8D90416EC3201045AF82665B6103C6756C6122AB4D4ED00B204C5C94182C03558F5F9C3852BBEB6A467FFE9B197D71FC9E6FE8CBACC17AD7032D0820E3B41FAD9B7A48F1820F808E52ACDEC75F36404ECDA687
310
4D0629A6D5A76597B477D1B89855E747B38B2A041301E95B6E7A08FAD3CCAA50296647B8168BD2573599823EBB0CA76447F43862C7BCCF5EAC59410E4DDD9C7973C2755553CCCFA4C603E3040F1565ED3B1FDE4E432BCA0D9622DAF9795FAF464533826484B498524CD807E51D79ED187F21878E10516EF63F505AC67F42C9
310
BA58B1FDDD071640D2FCC87D2045B96591CB3DA85CB7DCE40F504B0304140006080800CC70623B55019EA25F0000007C00000007000000636E782E786D6C4DCB3B0E80201045D1AD90E915ED2CF8AC45050C11660C8261F98AB1B07AC9C97D42D718D865D3E909258CFD00CCE24AC6E326A164D74DC0B4128928FF32603847
310
2BA13128B1252AC747C6BAB984FC68F0B87FE8960A5C09FE86CFB69FBA01504B0304140006080800CC70623B8C9102E971010000D40300000C0000006662782F636F72652E786D6CC5535B6E833010BC8AE5DF0A6C08340F1947A84D4ED00B38C6A128602363A31CBFCB234A53A551FA553EC09AD9F5CE8C31DB9E9B1AF5CA
310
7695D1198E428A91D2D214952E33ECDD315861B4E5CC1AE3BE9561A445A3323CC098B3D21ADFCE9034DA29ED00D5A6503328BA4E398C640D8B0C77F253352214DE4145770A5B214FA2546114020D759C75CE8200340D19DE981F0F6746269C33EFAB6266AB02A655C74A59CCF365BADC27CB5D902ED22848F6340DF238A141
310
BE88E2F57B92BFEDF23523433367AE6A2EEAA455C2A902F398D2751045018D3FA264435F3771F242571B4A1919CA6F9A7C5B3CD9E42BED16F12C776AEB308F40C848FC700B1139D4891EF410CEC810227CC6846F8386402064270EF5C5C709A05E49676C024C61FC95EA45ED154CA5211D1FF4FB8291A913A68E9B83EBBB33
310
E2A7673CDE118E5AE8124C0807CB8377834E366998436B950D7A7746DAD846D4CFD978E0F04FD455FC5D49D2D4C6FE9722321F10997F0F32DC47FE05504B0304140006080800CC70623BFFEA85907E0000009D0000000B0000006662782F636E782E786D6C4DCCD10A83201886E15B91FFDC95D95A811AB6F23E625948A6C3
310
E9D8E5AF46073BFAE0E1E365ED67B3E8ADC3CB78C7815C7240DA3DFC64DCC221C519D7805AC182F7F1EF06C88D9BE6703008B6049F9E274D7A1E938DBB5AE3D6131B2589BA0D3D965551E0B2EA732C9B9A624AAEB41E3A557677029960D9AFB4EF11165F504B0304140006080800CC70623B4FEEA4082C0100001202000031
310
0000006662782F39464131463745442D413632322D343644302D413938332D3331353338454246344243312F636F72652E786D6C8D515B6EC32010BC0AE2AB55850DD871ED0813254D72825EC00192A2C460F1A872FC42ED48ED5F7E00CDCECCCEB26C731F6FE05B39AFADE921293004CA082BB5B9F43086336A21D870E6AC
310
0D7F68109861543DCC30E4ECE26C9C164858139409093556AA051CBC570102714B8F1E7AF1A5C6A11862480C7F2DA6415C878B2A4891CA89C7990F2E050073937C42DE1DB7E4F87ED8A36D4329AA9B3D46DBAEAD504556557BD81DEBDD0761E52CE42C462D17B996298E3E6BE59E35C962CE821E1FF18553435012728A7187
310
0841987E927A8D9B35ADDF70BBC6989599FE4F1427F9A4286A132ABAC49D651EF234CD5CE04CDA78BA3DC2A8FB645D00B9DF8B57E215725C60BCA2A463E54C4CE327C7A65E1C7DB02E7DEFCBF594B864C5CA6CDBD49C957943E9FA5D5FBAF336F90F504B0304140006080800CC70623BAD7543B64E01000033030000300000
310
006662782F39464131463745442D413632322D343644302D413938332D3331353338454246344243312F636E782E786D6CD593CD6EC32010845F0571AD6CE3D48AD20813A9873E410FBD12D82434182C7EAAE6EDBB2424CD25871E7B41D6EC30B3FA84F9E67BB2E40B4234DE8DB46F1925E094D7C6ED479AD3AE5951B2113C
310
789FEE6C943839C1488B4C05DF079FE72A69D8C96C13AAD6B8631503449F83828872B949AC57D26200B826A308D316B4064D6E46FCDA41C05550DC9E483A00797BFD207EFB092A45DE9514C1BBD22178396BD39D891265658C238DEA00936C654E5E433CB65A26D9F6EDB5EBC14EBF49A45CB856E66048291F6939A9A81BB5
310
C8917738143CA680F4AA299D66A042CEB3354A2684DC9D8D178FE0D9B8B41CAAD720F880EE7EF93C0C18769E099ECC04D5A102C8049A8A05632F4DDF376CF1DE0F6BB65C2F8627B65A33C6BB62177CEBBDAD973006829F89F22E814B54F4BC2BE347F8AA8F681390B50FA73F804400B5F542E796F19FF974E7F78DB802FE05
310
E207504B0304140006080800CC70623B16AB87BA640500003C100000340000006662782F39464131463745442D413632322D343644302D413938332D3331353338454246344243312F6F626A656374732E786D6CAD575B6FA33818FD2B887DE6924B3BED8A326A92B68A663B534DD4D13E548A0C38942D60649B369D5FBFC7
310
600890A493BDE42160637FD7F31D7FF63E6FB3D478A55C242CBF3247B66B1A340F5994E4F19559CA8D75611A9F7D8F33263BCB4C232719BD32D5B4E97B316765A1A722BA21652A07B3B7B33F0D11D29C9A46981221AE4C113ED38CD8A4942CA2E2C58E882476BCD9DA23BB5ED8171B73523C0F841684D35CC252CCE79062D4
310
468DFA43D7747CCF51DF7D4FFDEB5593E3AB9CCA9FBEFE241792E4E19EB28198C968BAB8199F5D5A67D3E9C49A9E8F47D6EC76B6B0469F26EEFC7C3EBFBCBEB98462213924694B38DD98FE1D62C393D073EA4FADC5DAF04326852CCF6958F90F0F2B9BB5C48816348F90C7840A68EB78EDF68723159BCEE7891A6B95DDE9D3
310
BCEAEEE8086A6C6F9E5D4B59F0175C10A7A0820BAA5055C7473B5AE3CFDD452D602CD5DF12616444529E90D448938013FE6EFA58AA96F85E4F8C42275708571E98FE6827AF6B2B4AE3D7D83D64E5A64C53054DD3AF90BD06FEA9149565C94FCA0F6B834DC85599E4F2423B24DF0B6AFA979E534DFA9E7A4CC6FA631D486393
310
921829879BF5D781A373557BCB85E97FB90DB62B558F8795179C15944B051F40AB495CF35451D26A4727654E6D8033BD98EF82F21D91FF8AF2DD9982BCF1643BDD4EB516C9492E368C67C88DED563FC36D5EACF66DFF057C3658BDBFA69DF9578B3DA735B64F18C7F20770A9D45CFCF7FCF563D6456A277DBEF78A02637CA2
310
43B90A490AEAB94F72244481D24819A6C0E59B606BFA4B3025981DBB48EAB701D97BF19C577CC77F2D1B6C55A9EF3C732474C0B727303F625995056C3B02963D9EAC146BE78EC5FCEC7FA999EBC5EACBAAE41B12D27B4D2C0BBA49F244E2ECDC81B76B502F113D8F5EE8FB1BE3111CDD4FC2AA9B844CAB1288B68AB90A7CDC
310
1C166AB0D3DC5310625FCC14E779BFD0709F8890A629C9292B1B2DED31A4B0DA928CEE135085754027E3018A397D4D5427D15BD1330B677DC8934285AC3DF45A9EB68FF8F2B8FC0A509AFEECFD0FF2DE25CC6047F7214B195F07EFEB9A094D800F7BFAE8FED187B78EA8A3A400F115961BCAD1215E47C966530AF0EE8128FE
310
58CEBB996A8964FFA529A046635D9353B0336A8F700DDF46271A024E70B0B37C9DE01847591E54DED53D54202AB947E4076556AC49C6CA5C9E1226B7F1A7B1BE15DEED62C41B91E1B3E9AFAAA735036547343A925075041DF0A9979E893B391F8FCFA6967B3EFB644DCF6E5CEBFAE272625DCC6FAF3FB93793C5F90CE1EF57
310
407342756B10D1C489E8953CD1617E5CEECAD6F4EF8914CE5D5D504E5C3F1F9736DA62CFC11E00BCDDB8CC8A9466349744C1F75EBDA4DF09BA8A9E8C7A7E9991989E20E5DBDD6A6003664ED8F7A04A8DBE0DF6EAD9B9AA858342E47399053949D2C146EDB85DE4B176BB0965FBAC19BD19AA918E27FA50C1D22402E144464C
310
59462568E704B6E71915404CB72B8FF4EDE184DDAF753F284990D2C6926782963815403548A70C657FDEF80D2D9CEAA2AE4C1C76F60BFE74219A06527D6582DF6412526107381E55E353090704D085B52408D0933C4ED159D79BDA71BB4BC506F4831350EB6F979CD22D69BF7AC49B91A2C0A9DDA3D5CA36AD20FC478E37E6
310
1844E2352865EBCB6EA275A652E3836BE04EFB400BF1A2556F515F1FBB35B2AB35BD889C744FFA1004B5544B121E57F70215746DD2F5E2C1412B602CBF19455AC6C8E5E9922C4E01E65215385004546899059180EAFCF7A707CE7017CD8CDB0410789AB32C63B91E5CEBBBACB17AC6CD347A022D5075FD106377347AAABA7E
310
7D11590744509B44E205134DC1290F06580320F78E537D3D73540E06CB970B431F185308AD40BBD794D6D77003C5A36E8EAA54BA64597CD8F83BD552A080A365F7FF06504B0304140006080000CC70623B000000000000000000000000350000006662782F39464131463745442D413632322D343644302D413938332D3331
310
353338454246344243312F76657274696365732E62696E504B0304140006080800CC70623BF270F1330600000004000000360000006662782F39464131463745442D413632322D343644302D413938332D3331353338454246344243312F747269616E676C65732E62696E636660600000504B0304140006080000CC70623B
310
000000000000000000000000370000006662782F39464131463745442D413632322D343644302D413938332D3331353338454246344243312F617474726962757465732E62696E504B0304140006080800CC70623B08DA0BD19000000041010000360000006662782F39464131463745442D413632322D343644302D413938
310
332D3331353338454246344243312F6469726563746F72792E786D6C858F410AC3201045AF22B36F53E9A60B35CBEEBAE80D244E44489C6234F4F835464A48035D0DF398FF9F8AF63D0E6CC63039F212F8F9020C7D47C6792B21C5FE7403D62A1188E2E60C98D7234A5830286103A55745067B9D86B8A3CF9C7F90C11DE607
310
FB144396D7B6A82D282E9A152AD114D5EF2CB866EEE831B8EEA07A7BB5A8D7D61A2BAAEB7FD5F70921FF497D00504B0304140006080800CC70623B0D6EF93BFE000000A00100003B0000006662782F39464131463745442D413632322D343644302D413938332D3331353338454246344243312F7265736F75726365732F63
310
6F72652E786D6C8D50596E833010BD0A9ADFCA60B334011947A8694ED00B586642AC041B79A97AFC9A40A5F6AF3F33A3B7689E1E3F7DCD8FEC139DD7D6F4C0720A191A65476DA61E62B892236427C19DB5E1970C322367EC618541F0C9D9B8EC90B226A009093576C41D94DE63804C3DD2D18357379C652E63480A7FCF17A9
310
EE72C29CE5894E3AC17D702940B63D59270887DE46A7D0F36263058F518FBB468FE9A7BE6A7420864373B8D4873369AA8691FA421B3294352543C5CAF65C0F6FEF43CB8BD52C78D0F34F46E550061C419494B6843142CB0F5677F4B52BEB177AEC28E5C52AFF638ACBF84F53D42654E51E77B379102C05791282176B5F693D
310
CB4C7BED567C03504B010214000A0000080000CC70623B3DEE336E79000000790000001B00000000000000000000000000000000006175746F6465736B2D64657369676E2D7061636B6167652E786D6C504B01021400140006080800CC70623BD486FD9CA0000000F40000001300000000000000000000000000B20000005B
310
436F6E74656E745F54797065735D2E786D6C504B01021400140006080800CC70623B1EC5D7A3EB0000007C010000080000000000000000000000000083010000636F72652E786D6C504B01021400140006080800CC70623B55019EA25F0000007C000000070000000000000000000000000094020000636E782E786D6C504B
310
01021400140006080800CC70623B8C9102E971010000D40300000C00000000000000000000000000180300006662782F636F72652E786D6C504B01021400140006080800CC70623BFFEA85907E0000009D0000000B00000000000000000000000000B30400006662782F636E782E786D6C504B01021400140006080800CC70
310
623B4FEEA4082C0100001202000031000000000000000000000000005A0500006662782F39464131463745442D413632322D343644302D413938332D3331353338454246344243312F636F72652E786D6C504B01021400140006080800CC70623BAD7543B64E010000330300003000000000000000000000000000D5060000
310
6662782F39464131463745442D413632322D343644302D413938332D3331353338454246344243312F636E782E786D6C504B01021400140006080800CC70623B16AB87BA640500003C1000003400000000000000000000000000710800006662782F39464131463745442D413632322D343644302D413938332D3331353338
310
454246344243312F6F626A656374732E786D6C504B01021400140006080000CC70623B0000000000000000000000003500000000000000000000000000270E00006662782F39464131463745442D413632322D343644302D413938332D3331353338454246344243312F76657274696365732E62696E504B01021400140006
310
080800CC70623BF270F133060000000400000036000000000000000000000000007A0E00006662782F39464131463745442D413632322D343644302D413938332D3331353338454246344243312F747269616E676C65732E62696E504B01021400140006080000CC70623B0000000000000000000000003700000000000000
310
000000000000D40E00006662782F39464131463745442D413632322D343644302D413938332D3331353338454246344243312F617474726962757465732E62696E504B01021400140006080800CC70623B08DA0BD190000000410100003600000000000000000000000000290F00006662782F39464131463745442D413632
310
322D343644302D413938332D3331353338454246344243312F6469726563746F72792E786D6C504B01021400140006080800CC70623B0D6EF93BFE000000A00100003B000000000000000000000000000D1000006662782F39464131463745442D413632322D343644302D413938332D3331353338454246344243312F7265
310
736F75726365732F636F72652E786D6C504B0506000000000E000E0080040000641100000000
  0
XRECORD
  5
175
102
{ACAD_REACTORS
330
173
102
}
330
173
100
AcDbXrecord
280
     1
270
     1
271
     1
  0
XRECORD
  5
174
102
{ACAD_REACTORS
330
173
102
}
330
173
100
AcDbXrecord
280
     1
270
     1
271
     1
  0
XRECORD
  5
1FB
102
{ACAD_REACTORS
330
173
102
}
330
173
100
AcDbXrecord
280
     1
 70
     0
 90
1673772943
  1
ECE7A1D2-D628-4531-984C-D00F80459256
310
504B03040A0000080000CC70623B3DEE336E79000000790000001B0000006175746F6465736B2D64657369676E2D7061636B6167652E786D6C3C3F786D6C2076657273696F6E3D22312E302220656E636F64696E673D227574662D3822203F3E3C666F726D6174733E3C666F726D61743E687474703A2F2F736368656D612E
310
6175746F6465736B2E636F6D2F64657369676E2D7061636B6167652F323030393C2F666F726D61743E3C2F666F726D6174733E504B0304140006080800CC70623BD486FD9CA0000000F4000000130000005B436F6E74656E745F54797065735D2E786D6C7D8EC10E82300C865F65E91D8A1E8C310C0EEA1BF002731658846E
310
D98AC1B77784ABF1D8FE5FBFBF75BBCE937A534CCEB38643598122B6FEE978D0B0485F9C41B54DDD7D022595594E1A469170414C76A4D9A4D207E29CF43ECE46F218070CC6BECC4078ACAA135ACF422C856C0E68EA1BF5669944DDD7BCDE7B1F8E415D77AECB980613C2E4AC91FC167A2B244592486606FC29C8FD7F045B9A
310
EF7053A7E60B504B0304140006080800CC70623BD9DDAED0EC0000007C01000008000000636F72652E786D6C8D90416EC3201045AF82665B61836D9CD8C2444DD39CA01740405C94182C03558F5F9C3852BBEB6A467FFE9B197D7EF89E6EE8CB2CC17A37002D0820E394D7D68D03A478C17B4007C117EFE32F1B20272733C0
310
2A83E0E3E2D3BC49CABB685CCCAAF3DA6CA20CC14440EA969B0182FA34932C648AD911AEC52CD5558EA6A0CF2EC329598D1E47ACCEFBECC59A050463A7EA5833865FEBDD0E37353BE3EE8DBDE3F6786A48D375FBF6CC78B9C282473B3DEFABC5C86834888A900E538A49F5419B9EB47DD5BC907D4F082F57FB1F28CDFA9F50
310
B22ED6D5F6EE030B20687EE43E10BC5CB3C8E51E54AE6B6EE207504B0304140006080800CC70623B55019EA25F0000007C00000007000000636E782E786D6C4DCB3B0E80201045D1AD90E915ED2CF8AC45050C11660C8261F98AB1B07AC9C97D42D718D865D3E909258CFD00CCE24AC6E326A164D74DC0B4128928FF326038
310
472BA13128B1252AC747C6BAB984FC68F0B87FE8960A5C09FE86CFB69FBA01504B0304140006080800CC70623BA24EB22D72010000D40300000C0000006662782F636F72652E786D6CC5535B6E833010BC8AE5DF0A6C5E49888CA3A6694ED00B38E05014B091B1518EDFE511A5A9D228FD2A1F60CDEC7A67C6986DCE4D8D7A
310
69BA4AAB0C073EC548AA5C17952A33ECECD15B61B4E1CC686DBF9561A44423333CC098B3D268D7CE50AE9595CA02AA74216750749DB418E5352C32DCE59FB211BE70162ABA93DF8AFC244AE9073ED050C759670D0840D390E18DF9F1706664C23973AE2A66B62A605A75ACA4C13C4976E1364A12EF355A2EBD384AF65EFA96
310
BC7B8BED2EA6719AAE16FB8491A199335B351775B991C2CA02F390D2D40B028F861F41BCA68B7518BFD0D59A524686F29B26D7164F36B94AD9289CE54E6D1DE6010819891F6E21228B3AD1831EC219194284CF98F06DD01008846CC5A1BEF83801D4CBDC6A1303536877A57A513B0953A94FC707FDBE6064EA84A9E3E6E0FA
310
EE8CF0E9198F7784A316AA0413C2C2F2E0ECA0934D1AE6D05A69BCDE9E91D2A611F573361E38FC1375157F5752AE6B6DFE4B11990F88CCBF0719EE23FF02504B0304140006080800CC70623B408A7D3B7C0000009D0000000B0000006662782F636E782E786D6C4DCCD10A83201886E15B91FFDC552A92A0064DBC8F581632
310
D3703A76F9ABD1C18E3E78F878E5F0D9027ABBFCF2292AE86E2D20171F69F6715550CB827B40839639A5F2770314A7CD293819B45C73AAFB45B35BA61ACAA1C1C7E7855C58C15BC331339661262CC762340413D68D77DA5B42298546CBE6573AF60CEB2F504B0304140006080800CC70623B449FB9BD290100001202000031
310
0000006662782F36394639363044362D344446342D343946362D394244322D3234314243333846323333332F636F72652E786D6C8D515B6EC32010BC0AE22B55850D98B871848994463E412FE002495162B07854397EA176A4F62F3F2C9A9D991D587EB84F37F0AD7D30CEF6905418026DA553C65E7A98E219ED203808EE9D
310
8B7F6810D871D23D2C3014FCE25D9A57483A1BB58D19B54EE9151C43D0110279CB971E06F9A5A7B11A53CC8C70ADE6515EC78BAE4895DB992778883E0700CB907242D17643D7E2538BD869608875438BBAE38922CAC8F1BDD90DB4691A5E2F42C153326A951B95E398B3D1FE599322163C9AE9115F7A3D46ADA0A018778810
310
84E907617BDCEE297BC5BB3DC6BC2EF47FA234AB2745C9D8D8D035EE220B50105E2F0DC1954B9FB747187D9F9D8FA0CCDB042D5FA0C015C65B42DF78BD10F3F3B363CB56C7109DCFDFBBB97E662ED92EB62D13BC2E1BCAE5777DB9966D8A1F504B0304140006080800CC70623BAD7543B64E01000033030000300000006662
310
782F36394639363044362D344446342D343946362D394244322D3234314243333846323333332F636E782E786D6CD593CD6EC32010845F0571AD6CE3D48AD20813A9873E410FBD12D82434182C7EAAE6EDBB2424CD25871E7B41D6EC30B3FA84F9E67BB2E40B4234DE8DB46F1925E094D7C6ED479AD3AE5951B2113C789FEE
310
6C943839C1488B4C05DF079FE72A69D8C96C13AAD6B8631503449F83828872B949AC57D26200B826A308D316B4064D6E46FCDA41C05550DC9E483A00797BFD207EFB092A45DE9514C1BBD22178396BD39D891265658C238DEA00936C654E5E433CB65A26D9F6EDB5EBC14EBF49A45CB856E66048291F6939A9A81BB5C89177
310
38143CA680F4AA299D66A042CEB3354A2684DC9D8D178FE0D9B8B41CAAD720F880EE7EF93C0C18769E099ECC04D5A102C8049A8A05632F4DDF376CF1DE0F6BB65C2F8627B65A33C6BB62177CEBBDAD973006829F89F22E814B54F4BC2BE347F8AA8F681390B50FA73F804400B5F542E796F19FF974E7F78DB802FE05E20750
310
4B0304140006080800CC70623B8D05915C650500003B100000340000006662782F36394639363044362D344446342D343946362D394244322D3234314243333846323333332F6F626A656374732E786D6CAD575B6FA33814FE2B887D06429276DA1565D4266D158D3A339A6846FB502932E050B66023DB74D2FDF5FB190C01
310
9276B2973C046C8ECFF53B17071F77456EBD502133CEAE6CDF9DD81665314F32965ED995DA3A17B6F5310C04E7AA47665B8C14F4CAD6DB7618A48257A5D94AE89654B91AEDDEDDFC61C998326A5B714EA4BCB265FC440BE2924AF184CA6737218AB8E976E7FA6E4338649B0A523E8D98964450A6A029F619B8588D52FE7039
310
B1BD30F0F4F730D0FF866AF6369557DB33949F31A9088B0F848DD8CCFCF9F2767A76E99CCDE733677E3EF59D9BBB9BA5E37F984D16E78BC5E5F5ED25044B25C0C96822E8D60EEFE11B91C581D77CEA34368A1F5329E68CD1B8B61F16D63A1B8E092D294B10C78C4A48EB593D192E7DED9BDEE7995E1B91FDEDD3ACEA9FE831
310
6A756F9F7D4D79F4274C90A7A04248AA51D5F8C718DAE06FB2F75AC4796EBE65D22A88A22223B995679120E2D50E41AA49C260C046A35368846B0BECD0DFF3EBEB8AD4F835768F69B9ADF25C43D30E6B646F807FAA64AD59F61715C7A54127C4AACA98BA3006A9D792DAE165E0D59B61A01FB3A9F9D838D2DAE62445C86166
310
F37564E842E7DE6A69879FEEA2DD5AE7E371E1A5E025154AC307D06A03D73EB5978C58FFA4C8E9033066E0F3BD53BEC1F39F91BE7B55103791EDE6BBB991A2046172CB4581D8B893FA674DDA17A77B3B7C413D1B511FD2743BFF8A38F03A658705E3ADF8015C3A3417FF3D7E439FF591DA0B5F18BC20C1B8981957AE6392A3
310
F43C640C01D1A0B4728E2DD4F26DB4B3C3152A252A3B4E913CEC1C72F012782FF88EFF8637AA552DBEF76408E8A8DE9E50F9E1CB3A2DA0DB1B6039A893B56063DC5B3E3FFB5F72E67AB9FEB4AEC496C4F4C1149625DD662C53E89D7BF0F6151A046260D1337DFDC94502430F83B0EE07A130A224BCAD7DAE1D9FB6CD422FF6
310
920702629C4BB9AE79C12F243C6432A6794E18E5552BA56B431AAB5D91317302B2B071E86C3A42B1A02F999E24061403B5D0EB639195DA655DD3EBEAB4FB862DDF579F014AD0E73C22F99E28DA57FB98E75C6CA2D74D53086D600F4786E0FE3144B771A8A7B900F03594DB8A633CBC49B2EDB69228BB479CF863B5E807AAAB
310
23872F6DFEB4129B949CA33823F58830E86D65621E10047D9DB34D862E8EAC3C2ABC2F7B2C40D67CDFE01F5545B92105AF983AC54D93D69E56FB8E797F88913F898A9FEC705D3F9D1B54EC8426FB500D40A03BD0119B06E1B95DDC7EB8F6975367793EBD70E66733DFB9BC982F9CE564727731999F5D4ECFCE3B8D6A4DC2A0
310
6D50FD148437D110834A64C6CDDF57FBACB5C307A2A477DFE4939736CFEF2B175371E0E10CF0DD1D5C15654E0BCA14D1E87DD02FF93782A162C0A3D95F1524A52770F972BF1EE9809D13CE7DD599467F8ECE9ADD85CE85A34CD45355448C64F9E8A031DC2D596ACC6E5DD93D9B82DE2EF5CAF81363A8E47996A0DE24564A79
310
4115AACE09C55E14540231FDA13C319787134EBF34E3A022514E5B4D9E0826E25C02D5805B15ABE1BEF51B26383D445DD9E875EE33FE4C22DA16427D65A3BCA92CA6D28DD01DF5DC53330704308475351050232CCD31583787BA75774AFB06E5070DD0C8EF484E19968C5D83BA5B90B244D31E54D55A372320FE4786B7EA58
310
44E135AA5467CB7EA333A61683CC6A8C3257034C10CF46F40EF9F5BE59BE5BD30C3C72D235E95D10345C1D45445A5F0BB47E46A5EBE5570F9380B5FA629579952296A773720405982B9DE04011506178964401AA8BDF1FBF0A8EAB6861DD6580C0E38217056766716DAEB2D6FA0917D3E4116581EADB879C4E7CFFB11EFACD
310
3D641311495D92C8676CB409A72D18610D803CE8A626049E8EC1887CB5B44CC39883690DDA8399B4B9855B481E7D71D4A9D22F96E5BB73BF5793020C02137BF837504B0304140006080000CC70623B000000000000000000000000350000006662782F36394639363044362D344446342D343946362D394244322D32343142
310
43333846323333332F76657274696365732E62696E504B0304140006080800CC70623BF270F1330600000004000000360000006662782F36394639363044362D344446342D343946362D394244322D3234314243333846323333332F747269616E676C65732E62696E636660600000504B0304140006080000CC70623B0000
310
00000000000000000000370000006662782F36394639363044362D344446342D343946362D394244322D3234314243333846323333332F617474726962757465732E62696E504B0304140006080800CC70623B08DA0BD19000000041010000360000006662782F36394639363044362D344446342D343946362D394244322D
310
3234314243333846323333332F6469726563746F72792E786D6C858F410AC3201045AF22B36F53E9A60B35CBEEBAE80D244E44489C6234F4F835464A48035D0DF398FF9F8AF63D0E6CC63039F212F8F9020C7D47C6792B21C5FE7403D62A1188E2E60C98D7234A5830286103A55745067B9D86B8A3CF9C7F90C11DE607FB14
310
4396D7B6A82D282E9A152AD114D5EF2CB866EEE831B8EEA07A7BB5A8D7D61A2BAAEB7FD5F70921FF497D00504B0304140006080800CC70623BCA768048FE000000A00100003B0000006662782F36394639363044362D344446342D343946362D394244322D3234314243333846323333332F7265736F75726365732F636F72
310
652E786D6C8D50596E833010BD0A9ADFCA60D600328E9AA639412F609909B1126CE4A5EAF16B0295DABFFECC8CDEA2797AECF8353F924FB44E193D409E5248504B332A3D0D10FC95B4901C39B3C6F85F3248B49871801506CE266BC2B243D2688FDA47549B11775038871E12F988C7004EDE7016A9083E2ADC3D5D84BC8B09
310
D33C8D74D471E6BC8D0192EDC93A815B742658898E651BCB59086ADC356A8C3FD555A1055ED7E7E254D615792D0F075295F585746FF53B694EE78A565DD736979A65AB9933AFE69F8CD2A2F038022F28ED489E135A7CE4554F9BBEA85E68DB53CAB255FEC71496F19FA6A0B42F8B3DEE6673C0F318E4497096AD7DC5F52C33
310
EEB55BFE0D504B010214000A0000080000CC70623B3DEE336E79000000790000001B00000000000000000000000000000000006175746F6465736B2D64657369676E2D7061636B6167652E786D6C504B01021400140006080800CC70623BD486FD9CA0000000F40000001300000000000000000000000000B20000005B436F
310
6E74656E745F54797065735D2E786D6C504B01021400140006080800CC70623BD9DDAED0EC0000007C010000080000000000000000000000000083010000636F72652E786D6C504B01021400140006080800CC70623B55019EA25F0000007C000000070000000000000000000000000095020000636E782E786D6C504B0102
310
1400140006080800CC70623BA24EB22D72010000D40300000C00000000000000000000000000190300006662782F636F72652E786D6C504B01021400140006080800CC70623B408A7D3B7C0000009D0000000B00000000000000000000000000B50400006662782F636E782E786D6C504B01021400140006080800CC70623B
310
449FB9BD290100001202000031000000000000000000000000005A0500006662782F36394639363044362D344446342D343946362D394244322D3234314243333846323333332F636F72652E786D6C504B01021400140006080800CC70623BAD7543B64E010000330300003000000000000000000000000000D20600006662
310
782F36394639363044362D344446342D343946362D394244322D3234314243333846323333332F636E782E786D6C504B01021400140006080800CC70623B8D05915C650500003B10000034000000000000000000000000006E0800006662782F36394639363044362D344446342D343946362D394244322D32343142433338
310
46323333332F6F626A656374732E786D6C504B01021400140006080000CC70623B0000000000000000000000003500000000000000000000000000250E00006662782F36394639363044362D344446342D343946362D394244322D3234314243333846323333332F76657274696365732E62696E504B010214001400060808
310
00CC70623BF270F13306000000040000003600000000000000000000000000780E00006662782F36394639363044362D344446342D343946362D394244322D3234314243333846323333332F747269616E676C65732E62696E504B01021400140006080000CC70623B00000000000000000000000037000000000000000000
310
00000000D20E00006662782F36394639363044362D344446342D343946362D394244322D3234314243333846323333332F617474726962757465732E62696E504B01021400140006080800CC70623B08DA0BD190000000410100003600000000000000000000000000270F00006662782F36394639363044362D344446342D
310
343946362D394244322D3234314243333846323333332F6469726563746F72792E786D6C504B01021400140006080800CC70623BCA768048FE000000A00100003B000000000000000000000000000B1000006662782F36394639363044362D344446342D343946362D394244322D3234314243333846323333332F7265736F
310
75726365732F636F72652E786D6C504B0506000000000E000E0080040000621100000000
  0
XRECORD
  5
176
102
{ACAD_REACTORS
330
173
102
}
330
173
100
AcDbXrecord
280
     1
270
     1
271
     1
  0
XRECORD
  5
177
102
{ACAD_REACTORS
330
173
102
}
330
173
100
AcDbXrecord
280
     1
270
     1
271
     1
  0
CELLSTYLEMAP
  5
F22
102
{ACAD_REACTORS
330
162
102
}
330
162
100
AcDbCellStyleMap
 90
        3
300
CELLSTYLE
  1
TABLEFORMAT_BEGIN
 90
        5
170
     1
 91
        0
 92
    32768
 62
   257
 93
        1
300
CONTENTFORMAT
  1
CONTENTFORMAT_BEGIN
 90
        0
 91
        0
 92
      512
 93
        0
300

 40
0.0
140
1.0
 94
        5
 62
     0
340
11
144
6.0
309
CONTENTFORMAT_END
171
     1
301
MARGIN
  1
CELLMARGIN_BEGIN
 40
1.5
 40
1.5
 40
1.5
 40
1.5
 40
4.5
 40
4.5
309
CELLMARGIN_END
 94
        6
 95
        1
302
GRIDFORMAT
  1
GRIDFORMAT_BEGIN
 90
        0
 91
        1
 62
     0
 92
       -2
340
14
 93
        0
 40
1.125
309
GRIDFORMAT_END
 95
        2
302
GRIDFORMAT
  1
GRIDFORMAT_BEGIN
 90
        0
 91
        1
 62
     0
 92
       -2
340
14
 93
        0
 40
1.125
309
GRIDFORMAT_END
 95
        4
302
GRIDFORMAT
  1
GRIDFORMAT_BEGIN
 90
        0
 91
        1
 62
     0
 92
       -2
340
14
 93
        0
 40
1.125
309
GRIDFORMAT_END
 95
        8
302
GRIDFORMAT
  1
GRIDFORMAT_BEGIN
 90
        0
 91
        1
 62
     0
 92
       -2
340
14
 93
        0
 40
1.125
309
GRIDFORMAT_END
 95
       16
302
GRIDFORMAT
  1
GRIDFORMAT_BEGIN
 90
        0
 91
        1
 62
     0
 92
       -2
340
14
 93
        0
 40
1.125
309
GRIDFORMAT_END
 95
       32
302
GRIDFORMAT
  1
GRIDFORMAT_BEGIN
 90
        0
 91
        1
 62
     0
 92
       -2
340
14
 93
        0
 40
1.125
309
GRIDFORMAT_END
309
TABLEFORMAT_END
  1
CELLSTYLE_BEGIN
 90
        1
 91
        1
300
_TITLE
309
CELLSTYLE_END
300
CELLSTYLE
  1
TABLEFORMAT_BEGIN
 90
        5
170
     1
 91
        0
 92
        0
 62
   257
 93
        1
300
CONTENTFORMAT
  1
CONTENTFORMAT_BEGIN
 90
        0
 91
        0
 92
      512
 93
        0
300

 40
0.0
140
1.0
 94
        5
 62
     0
340
11
144
4.5
309
CONTENTFORMAT_END
171
     1
301
MARGIN
  1
CELLMARGIN_BEGIN
 40
1.5
 40
1.5
 40
1.5
 40
1.5
 40
4.5
 40
4.5
309
CELLMARGIN_END
 94
        6
 95
        1
302
GRIDFORMAT
  1
GRIDFORMAT_BEGIN
 90
        0
 91
        1
 62
     0
 92
       -2
340
14
 93
        0
 40
1.125
309
GRIDFORMAT_END
 95
        2
302
GRIDFORMAT
  1
GRIDFORMAT_BEGIN
 90
        0
 91
        1
 62
     0
 92
       -2
340
14
 93
        0
 40
1.125
309
GRIDFORMAT_END
 95
        4
302
GRIDFORMAT
  1
GRIDFORMAT_BEGIN
 90
        0
 91
        1
 62
     0
 92
       -2
340
14
 93
        0
 40
1.125
309
GRIDFORMAT_END
 95
        8
302
GRIDFORMAT
  1
GRIDFORMAT_BEGIN
 90
        0
 91
        1
 62
     0
 92
       -2
340
14
 93
        0
 40
1.125
309
GRIDFORMAT_END
 95
       16
302
GRIDFORMAT
  1
GRIDFORMAT_BEGIN
 90
        0
 91
        1
 62
     0
 92
       -2
340
14
 93
        0
 40
1.125
309
GRIDFORMAT_END
 95
       32
302
GRIDFORMAT
  1
GRIDFORMAT_BEGIN
 90
        0
 91
        1
 62
     0
 92
       -2
340
14
 93
        0
 40
1.125
309
GRIDFORMAT_END
309
TABLEFORMAT_END
  1
CELLSTYLE_BEGIN
 90
        2
 91
        1
300
_HEADER
309
CELLSTYLE_END
300
CELLSTYLE
  1
TABLEFORMAT_BEGIN
 90
        5
170
     1
 91
        0
 92
        0
 62
   257
 93
        1
300
CONTENTFORMAT
  1
CONTENTFORMAT_BEGIN
 90
        0
 91
        0
 92
      512
 93
        0
300

 40
0.0
140
1.0
 94
        2
 62
     0
340
11
144
4.5
309
CONTENTFORMAT_END
171
     1
301
MARGIN
  1
CELLMARGIN_BEGIN
 40
1.5
 40
1.5
 40
1.5
 40
1.5
 40
4.5
 40
4.5
309
CELLMARGIN_END
 94
        6
 95
        1
302
GRIDFORMAT
  1
GRIDFORMAT_BEGIN
 90
        0
 91
        1
 62
     0
 92
       -2
340
14
 93
        0
 40
1.125
309
GRIDFORMAT_END
 95
        2
302
GRIDFORMAT
  1
GRIDFORMAT_BEGIN
 90
        0
 91
        1
 62
     0
 92
       -2
340
14
 93
        0
 40
1.125
309
GRIDFORMAT_END
 95
        4
302
GRIDFORMAT
  1
GRIDFORMAT_BEGIN
 90
        0
 91
        1
 62
     0
 92
       -2
340
14
 93
        0
 40
1.125
309
GRIDFORMAT_END
 95
        8
302
GRIDFORMAT
  1
GRIDFORMAT_BEGIN
 90
        0
 91
        1
 62
     0
 92
       -2
340
14
 93
        0
 40
1.125
309
GRIDFORMAT_END
 95
       16
302
GRIDFORMAT
  1
GRIDFORMAT_BEGIN
 90
        0
 91
        1
 62
     0
 92
       -2
340
14
 93
        0
 40
1.125
309
GRIDFORMAT_END
 95
       32
302
GRIDFORMAT
  1
GRIDFORMAT_BEGIN
 90
        0
 91
        1
 62
     0
 92
       -2
340
14
 93
        0
 40
1.125
309
GRIDFORMAT_END
309
TABLEFORMAT_END
  1
CELLSTYLE_BEGIN
 90
        3
 91
        2
300
_DATA
309
CELLSTYLE_END
  0
ENDSEC
  0
SECTION
  2
ACDSDATA
 70
     2
 71
     8
  0
ACDSSCHEMA
 90
        0
  1
AcDb_Thumbnail_Schema
  2
AcDbDs::ID
280
    10
 91
        8
  2
Thumbnail_Data
280
    15
 91
        0
101
ACDSRECORD
 95
        0
 90
        1
  2
AcDbDs::TreatedAsObjectData
280
     1
291
     1
101
ACDSRECORD
 95
        0
 90
        2
  2
AcDbDs::Legacy
280
     1
291
     1
101
ACDSRECORD
  1
AcDbDs::ID
 90
        3
  2
AcDs:Indexable
280
     1
291
     1
101
ACDSRECORD
  1
AcDbDs::ID
 90
        4
  2
AcDbDs::HandleAttribute
280
     7
282
     1
  0
ACDSSCHEMA
 90
        1
  1
AcDbDs::TreatedAsObjectDataSchema
  2
AcDbDs::TreatedAsObjectData
280
     1
 91
        0
  0
ACDSSCHEMA
 90
        2
  1
AcDbDs::LegacySchema
  2
AcDbDs::Legacy
280
     1
 91
        0
  0
ACDSSCHEMA
 90
        3
  1
AcDbDs::IndexedPropertySchema
  2
AcDs:Indexable
280
     1
 91
        0
  0
ACDSSCHEMA
 90
        4
  1
AcDbDs::HandleAttributeSchema
  2
AcDbDs::HandleAttribute
280
     7
 91
        1
284
     1
  0
ACDSRECORD
 90
        0
  2
AcDbDs::ID
280
    10
320
D3
  2
Thumbnail_Data
280
    15
 94
     1123
310
89504E470D0A1A0A0000000D4948445200000100000000B5080300000087DCD12600000300504C5445FFFFFFFFFFFFFFFFFF0000000000000000000000000000000000000000000000000000330000660000990000CC0000FF0033000033330033660033990033CC0033FF0066000066330066660066990066CC0066FF0099
310
000099330099660099990099CC0099FF00CC0000CC3300CC6600CC9900CCCC00CCFF00FF0000FF3300FF6600FF9900FFCC00FFFF3300003300333300663300993300CC3300FF3333003333333333663333993333CC3333FF3366003366333366663366993366CC3366FF3399003399333399663399993399CC3399FF33CC00
310
33CC3333CC6633CC9933CCCC33CCFF33FF0033FF3333FF6633FF9933FFCC33FFFF6600006600336600666600996600CC6600FF6633006633336633666633996633CC6633FF6666006666336666666666996666CC6666FF6699006699336699666699996699CC6699FF66CC0066CC3366CC6666CC9966CCCC66CCFF66FF0066
310
FF3366FF6666FF9966FFCC66FFFF9900009900339900669900999900CC9900FF9933009933339933669933999933CC9933FF9966009966339966669966999966CC9966FF9999009999339999669999999999CC9999FF99CC0099CC3399CC6699CC9999CCCC99CCFF99FF0099FF3399FF6699FF9999FFCC99FFFFCC0000CC00
310
33CC0066CC0099CC00CCCC00FFCC3300CC3333CC3366CC3399CC33CCCC33FFCC6600CC6633CC6666CC6699CC66CCCC66FFCC9900CC9933CC9966CC9999CC99CCCC99FFCCCC00CCCC33CCCC66CCCC99CCCCCCCCCCFFCCFF00CCFF33CCFF66CCFF99CCFFCCCCFFFFFF0000FF0033FF0066FF0099FF00CCFF00FFFF3300FF3333
310
FF3366FF3399FF33CCFF33FFFF6600FF6633FF6666FF6699FF66CCFF66FFFF9900FF9933FF9966FF9999FF99CCFF99FFFFCC00FFCC33FFCC66FFCC99FFCCCCFFCCFFFFFF00FFFF33FFFF66FFFF99FFFFCCFFFFFF0000000D0D0D1A1A1A2828283535354343435050505D5D5D6B6B6B787878868686939393A1A1A1AEAEAEBB
310
BBBBC9C9C9D6D6D6E4E4E4F1F1F1FFFFFF000000000000000000000000000000000000000000000000000000000000AD4AB4E4000000E84944415478DAEDD03101000008C020FB67358429BC0611988D9B7C409A00010204081020408000010204081020408000010204081020408000010204081020408000010204081020
310
40800001020408102040800001020408102040800001020408102040800001020408102040800001020408102040800001020408102040800001020408102040800001020408102040800001020408102040800001020408102040800001020408102040800001020408102040800001020408102040800001020408102040
310
8000010204081020408000010204081020408000010204081020E02760E3F2010783F999D0515C71520000000049454E44AE42608244AE4260820000000000003002CCEDEE3DE6C45F004901000000405FC1FD00C2FB006AA6F945DB1F1CAA0000000049454E44AE426082
  0
ACDSRECORD
 90
        0
  2
AcDbDs::ID
280
    10
320
22
  2
Thumbnail_Data
280
    15
 94
      900
310
89504E470D0A1A0A0000000D494844520000010000000084080300000048FA052E00000300504C5445212830FFFFFF2128300000000000000000000000000000000000000000000000000000330000660000990000CC0000FF0033000033330033660033990033CC0033FF0066000066330066660066990066CC0066FF0099
310
000099330099660099990099CC0099FF00CC0000CC3300CC6600CC9900CCCC00CCFF00FF0000FF3300FF6600FF9900FFCC00FFFF3300003300333300663300993300CC3300FF3333003333333333663333993333CC3333FF3366003366333366663366993366CC3366FF3399003399333399663399993399CC3399FF33CC00
310
33CC3333CC6633CC9933CCCC33CCFF33FF0033FF3333FF6633FF9933FFCC33FFFF6600006600336600666600996600CC6600FF6633006633336633666633996633CC6633FF6666006666336666666666996666CC6666FF6699006699336699666699996699CC6699FF66CC0066CC3366CC6666CC9966CCCC66CCFF66FF0066
310
FF3366FF6666FF9966FFCC66FFFF9900009900339900669900999900CC9900FF9933009933339933669933999933CC9933FF9966009966339966669966999966CC9966FF9999009999339999669999999999CC9999FF99CC0099CC3399CC6699CC9999CCCC99CCFF99FF0099FF3399FF6699FF9999FFCC99FFFFCC0000CC00
310
33CC0066CC0099CC00CCCC00FFCC3300CC3333CC3366CC3399CC33CCCC33FFCC6600CC6633CC6666CC6699CC66CCCC66FFCC9900CC9933CC9966CC9999CC99CCCC99FFCCCC00CCCC33CCCC66CCCC99CCCCCCCCCCFFCCFF00CCFF33CCFF66CCFF99CCFFCCCCFFFFFF0000FF0033FF0066FF0099FF00CCFF00FFFF3300FF3333
310
FF3366FF3399FF33CCFF33FFFF6600FF6633FF6666FF6699FF66CCFF66FFFF9900FF9933FF9966FF9999FF99CCFF99FFFFCC00FFCC33FFCC66FFCC99FFCCCCFFCCFFFFFF00FFFF33FFFF66FFFF99FFFFCCFFFFFF0000000D0D0D1A1A1A2828283535354343435050505D5D5D6B6B6B787878868686939393A1A1A1AEAEAEBB
310
BBBBC9C9C9D6D6D6E4E4E4F1F1F1FFFFFF0000000000000000000000000000000000000000000000000000000000002E4550F1000000384944415478DAEDC13101000000C2A0F54F6D0C1FA0000000000000000000000000000000000000000000000000000000000000000080A701848400014DD48C180000000049454E44
310
AE42608244AE4260828282
  0
ENDSEC
  0
EOF
